#VERSION:0.82;
#TITLE:Happy;
#SUBTITLE:;
#ARTIST:Pharrell Williams;
#TITLETRANSLIT:;
#SUBTITLETRANSLIT:;
#ARTISTTRANSLIT:;
#GENRE:Pop;
#ORIGIN:;
#CREDIT:;
#BANNER:Happy.png;
#BACKGROUND:Happy-bg.png;
#PREVIEWVID:;
#JACKET:jacket.png;
#CDIMAGE:;
#DISCIMAGE:;
#LYRICSPATH:;
#CDTITLE:;
#MUSIC:Happy.ogg;
#OFFSET:-0.034000;
#SAMPLESTART:26.088400;
#SAMPLELENGTH:13.714000;
#SELECTABLE:YES;
#BPMS:0.000=160.000;
#STOPS:;
#DELAYS:;
#WARPS:;
#TIMESIGNATURES:0.000=4=4;
#TICKCOUNTS:0.000=4;
#COMBOS:0.000=1;
#SPEEDS:0.000=1.000=0.000=0;
#SCROLLS:0.000=1.000;
#FAKES:;
#LABELS:0.000=Song Start;
#BGCHANGES:3.750=Happy.avi=1.000=0=0=1=====,
99999=-nosongbg-=1.000=0=0=0 // don't automatically add -songbackground-
;
#KEYSOUNDS:;
#ATTACKS:
;

//---------------dance-single - ----------------
#NOTEDATA:;
#CHARTNAME:;
#STEPSTYPE:dance-single;
#DESCRIPTION:;
#CHARTSTYLE:;
#DIFFICULTY:Hard;
#METER:8;
#RADARVALUES:0.606260,0.626588,0.435677,0.419541,0.000000,420.000000,54.000000,52.000000,0.000000,0.000000,0.000000,0.000000,0.000000,0.606260,0.626588,0.435677,0.419541,0.000000,420.000000,54.000000,52.000000,0.000000,0.000000,0.000000,0.000000,0.000000;
#CREDIT:Ben Speirs;
#NOTES:
// measure 0
0000
0000
0000
0000
,  // measure 1
0000
0000
0000
0000
,  // measure 2
2010
0000
3100
1000
0100
1000
0000
0001
,  // measure 3
0000
1000
0100
0010
0001
1000
0001
0000
,  // measure 4
0100
0000
0100
0000
0001
0000
1000
0010
,  // measure 5
0000
0010
0100
0000
0001
1000
0001
0010
,  // measure 6
0011
0000
1000
0100
1000
0000
0001
0100
,  // measure 7
0001
0000
1000
0100
0010
0001
1000
0000
,  // measure 8
0010
0000
0010
0000
1000
0000
0001
0100
,  // measure 9
0000
0100
0001
0000
1000
0100
1000
0001
,  // measure 10
0102
0000
0013
0001
0010
0001
0000
1000
,  // measure 11
0000
0001
0010
0100
1000
0001
1000
0000
,  // measure 12
0010
0000
0010
0000
1000
0000
0001
0100
,  // measure 13
0000
0100
0010
0000
1000
0001
1000
0100
,  // measure 14
0020
0000
0031
0010
0100
1000
0010
0100
,  // measure 15
0002
0000
1003
0010
0100
0010
2000
0000
,  // measure 16
3001
0101
1000
1100
,  // measure 17
0001
0000
1000
0100
0010
0001
1000
0000
,  // measure 18
0010
0000
1001
0001
0000
0000
1001
0000
,  // measure 19
0010
0000
1001
1000
0000
0000
1001
0000
,  // measure 20
0010
0000
1001
0001
0000
0000
1001
0000
,  // measure 21
0010
0000
1001
1000
0200
0000
0320
0000
,  // measure 22
0031
0000
1001
1000
0000
0000
1100
0000
,  // measure 23
0010
0000
1001
0001
0000
0000
0101
0000
,  // measure 24
0010
0000
1001
1000
0000
0000
1100
0000
,  // measure 25
0001
0000
1000
0010
0200
0000
0320
0000
,  // measure 26
1030
1100
0001
0101
,  // measure 27
1000
1010
0001
0011
,  // measure 28
1000
0001
2000
0000
3002
0000
1003
0001
,  // measure 29
2000
0000
3001
0100
0200
0000
0320
0000
,  // measure 30
1030
0000
0100
1000
0020
0000
0130
0000
,  // measure 31
0001
0000
0100
0001
0020
0000
0130
0000
,  // measure 32
1000
0000
0100
1000
0020
0000
0130
0000
,  // measure 33
0001
0000
0100
0001
0020
0000
0031
0000
,  // measure 34
1000
0000
0000
0001
0000
1000
0010
0010
,  // measure 35
0100
0000
0000
0001
0000
1000
0100
0100
,  // measure 36
0010
0000
0000
0001
0000
1000
0001
0001
,  // measure 37
0100
0000
0000
0010
0000
0100
0001
1000
,  // measure 38
0002
0000
0003
1000
0000
0001
0100
0100
,  // measure 39
0010
0000
0000
1000
0000
0001
0010
0010
,  // measure 40
0100
0000
0000
1000
0000
0001
1000
1000
,  // measure 41
0010
0000
0000
0100
0000
0010
1000
1000
,  // measure 42
0001
0200
0000
0000
0310
2000
0000
0000
,  // measure 43
3001
0020
0000
0000
0130
2000
0000
3000
,  // measure 44
0001
0200
0000
0000
0310
2000
0000
0000
,  // measure 45
3100
0020
0000
0000
0031
2000
0000
3000
,  // measure 46
0001
0100
0100
0000
0010
1000
1000
0000
,  // measure 47
0001
0010
0010
0000
0100
1000
1000
0000
,  // measure 48
0001
0010
0100
0000
1000
0010
0100
0000
,  // measure 49
0001
1000
0100
0010
0002
0000
2003
0000
,  // measure 50
3010
0000
1001
0001
0100
0000
1001
0000
,  // measure 51
0010
0000
1001
1000
0100
0000
1001
0000
,  // measure 52
0010
0000
1001
0001
0100
0000
1001
0000
,  // measure 53
0010
0000
1001
1000
0100
0010
0001
0000
,  // measure 54
2000
0000
3100
1000
0001
0000
1001
0000
,  // measure 55
0002
0000
0103
0001
1000
0000
1001
0000
,  // measure 56
2000
0000
3100
1000
0001
0000
1001
0000
,  // measure 57
0002
0000
0103
0001
2000
0000
3020
0000
,  // measure 58
1030
0100
1000
0100
0010
0001
0200
0000
,  // measure 59
0301
0100
0001
0100
0010
1000
0200
0000
,  // measure 60
1300
0100
1000
0100
0010
0001
0200
0000
,  // measure 61
0301
0100
0001
0100
0010
1000
0200
0000
,  // measure 62
1300
0000
1100
0100
0010
0000
0001
0000
,  // measure 63
1000
0000
1001
0001
1000
0000
0010
0000
,  // measure 64
0100
0000
0101
0100
0010
0000
1000
0000
,  // measure 65
0001
0000
1001
1000
0200
0000
0320
0000
,  // measure 66
0031
1000
0001
1000
0100
0010
0001
0000
,  // measure 67
1000
0001
1000
0001
0100
0010
1000
0000
,  // measure 68
0001
0100
0101
0000
1000
0100
1100
0000
,  // measure 69
0001
0010
0011
0000
1001
0000
1100
0000
,  // measure 70
0002
0010
2003
0010
,  // measure 71
3002
0100
2003
0100
,  // measure 72
3002
0010
2003
0100
,  // measure 73
3002
0000
0103
0100
0020
0000
2030
0000
,  // measure 74
3001
0100
0001
0100
1000
0100
0001
0000
,  // measure 75
1000
0100
1000
0100
0001
0100
1000
0000
,  // measure 76
0001
0011
1000
1010
,  // measure 77
0001
0000
0101
0000
1000
0100
2000
0000
,  // measure 78
3001
0000
0101
0000
0110
0000
1010
1000
,  // measure 79
0100
0000
1100
0000
0110
0000
0011
0001
,  // measure 80
0100
0000
0101
0000
0110
0000
1010
1000
,  // measure 81
0100
0000
1100
1000
0002
0100
1003
0000
;

//---------------dance-single - ----------------
#NOTEDATA:;
#CHARTNAME:;
#STEPSTYPE:dance-single;
#DESCRIPTION:;
#CHARTSTYLE:;
#DIFFICULTY:Medium;
#METER:6;
#RADARVALUES:0.419541,0.494675,0.484086,0.185566,0.000000,281.000000,60.000000,23.000000,0.000000,0.000000,0.000000,0.000000,0.000000,0.419541,0.494675,0.484086,0.185566,0.000000,281.000000,60.000000,23.000000,0.000000,0.000000,0.000000,0.000000,0.000000;
#CREDIT:Ben Speirs;
#NOTES:
0000
0000
0000
0000
,
0000
0000
0000
0000
,
1000
0001
1000
0010
,
0100
0000
0100
0000
0001
1000
0001
0000
,
0200
0300
0010
1000
,
0200
0300
0010
0001
,
0100
0100
0001
1000
,
0010
0000
1000
0000
0001
0100
0001
0000
,
2000
3000
0100
1000
,
0020
0030
0100
0100
,
0001
1000
0010
0100
,
0001
0000
1000
0000
0100
1000
0100
0000
,
0020
0030
0002
0003
,
2000
3000
0020
0030
,
0100
0001
0100
0000
0001
1000
0001
0000
,
2000
0000
3000
0000
0001
0010
0001
0000
,
1000
0100
0010
0000
,
0001
1000
0001
0000
,
1000
1100
0000
1100
,
0000
1100
0000
1100
,
0000
1100
0000
1100
,
0000
0000
1100
0000
0100
0010
0001
0000
,
0000
0101
0000
0101
,
0000
0101
0000
0101
,
0000
0101
0000
0101
,
0000
0000
0101
0000
0001
0100
0010
0000
,
0000
1010
0000
1010
,
0000
1010
0000
1010
,
0000
1010
0000
1010
,
0000
0000
1010
0000
1000
0001
0010
0000
,
0000
0011
0000
0011
,
0000
0011
0000
0011
,
0000
0011
0000
0011
,
0000
0011
0000
0011
,
1000
0000
0000
1000
0000
0000
0001
0000
,
0100
0000
0000
0100
0000
0000
0010
0000
,
0010
0000
0000
1000
0000
0000
0100
0000
,
0100
0000
0000
0010
0000
0000
0001
0000
,
1001
0000
0000
0001
0000
0000
0001
0000
,
1000
0000
0000
1000
0000
0000
1000
0000
,
0010
0000
0000
0010
0000
0000
0100
0000
,
0001
0000
0000
0001
0000
0000
1000
0000
,
0100
0100
0000
0000
0010
0010
0000
0000
,
0001
0001
0000
0000
0100
0100
0000
0000
,
0010
0010
0000
0000
1000
1000
0000
0000
,
0001
0001
0000
0000
1000
1000
0000
0000
,
0001
0100
0000
0000
0010
1000
0000
0000
,
0001
0010
0000
0000
0100
1000
0000
0000
,
0001
0100
0000
0000
0010
1000
0000
0000
,
0001
0010
0000
0000
1001
0000
1001
0000
,
0000
1100
0100
0110
,
0000
0011
0000
1001
,
0000
0101
0100
0110
,
0000
1010
0001
1001
,
0000
0000
1000
0100
1000
0000
0100
0010
,
0000
0010
0000
0001
0100
0000
0010
0000
,
0100
0001
0100
0000
0010
0000
1000
0001
,
1000
0000
1001
1001
,
0000
0011
0010
0110
,
0000
1100
0000
1001
,
0000
1010
0010
0110
,
0000
0101
1000
1001
,
0000
0000
0001
0010
0001
0000
0010
0100
,
0000
0100
0000
1000
0010
0000
0100
0000
,
0010
1000
0010
0000
0100
0000
0001
1000
,
0001
0000
1001
1001
,
2000
3100
2000
3100
,
0002
0103
0002
0103
,
2000
3010
2000
3010
,
0002
0013
1001
1001
,
0002
0103
0002
0103
,
2000
3100
2000
3100
,
0002
0013
0002
0013
,
2000
3010
1001
1001
,
0000
0000
1000
0100
1000
0000
0001
0100
,
0000
0100
0000
0001
1000
0000
0010
0000
,
1000
0001
1000
0000
0100
0000
0010
0010
,
0001
0000
0011
1100
,
0001
0000
1000
0010
1000
0000
0001
0100
,
0000
0100
0000
0010
1000
0000
0001
0000
,
0010
0010
0010
0000
0001
0000
1000
0100
,
1000
0000
1100
0011
;

//---------------dance-single - ----------------
#NOTEDATA:;
#CHARTNAME:;
#STEPSTYPE:dance-single;
#DESCRIPTION:;
#CHARTSTYLE:;
#DIFFICULTY:Easy;
#METER:4;
#RADARVALUES:0.273163,0.329783,0.346928,0.088749,0.000000,183.000000,43.000000,11.000000,0.000000,0.000000,0.000000,0.000000,0.000000,0.273163,0.329783,0.346928,0.088749,0.000000,183.000000,43.000000,11.000000,0.000000,0.000000,0.000000,0.000000,0.000000;
#CREDIT:Ben Speirs;
#NOTES:
0000
0000
0000
0000
,
0000
0000
0000
0000
,
0001
0000
1000
0000
,
0010
0010
0100
0000
,
0001
0100
0001
0000
,
1000
0100
1000
0000
,
0001
0000
1000
0000
,
0001
0001
0100
0000
,
0001
1000
0001
0000
,
1000
0100
1000
0000
,
0010
0000
1000
0000
,
0010
0010
0100
0000
,
0001
0100
0001
0000
,
1000
0100
1000
0000
,
0002
0003
1000
0000
,
0020
0030
0100
0100
,
0001
1000
0001
0000
,
1000
0001
1000
0000
,
0000
0001
0000
0001
,
0000
0001
0000
0001
,
0000
0001
0000
0001
,
0000
0000
1001
1001
,
0000
1000
0000
1000
,
0000
1000
0000
1000
,
0000
1000
0000
1000
,
0000
0000
1001
1001
,
0000
0001
0000
0001
,
0000
0001
0000
0001
,
0000
0001
0000
0001
,
0000
0000
1001
1001
,
0000
1000
0000
1000
,
0000
1000
0000
1000
,
0000
1000
0000
1000
,
0000
0001
0000
0000
,
0100
0000
0000
0010
,
0010
0000
0000
1000
,
0100
0000
0000
0010
,
0010
0000
0000
0001
,
0100
0000
0000
0001
,
0001
0000
0000
1000
,
0100
0000
0000
1000
,
1000
0000
0000
0001
,
0200
0300
0020
0030
,
2000
3000
0001
0000
,
2000
3000
0200
0300
,
0020
0030
0001
0000
,
0002
0003
0200
0300
,
0020
0030
1000
0000
,
0001
1000
0001
1000
,
0001
0000
0100
0100
,
0000
1001
0000
1001
,
0000
1001
0000
1001
,
0000
1001
0000
1001
,
0000
0000
0100
0100
,
0000
1001
0000
1001
,
0000
1001
0000
1001
,
0000
1001
0000
1001
,
0000
0000
0100
0100
,
0000
1001
0000
1001
,
0000
1001
0000
1001
,
0000
1001
0000
1001
,
0000
0000
0100
0100
,
0000
1001
0000
1001
,
0000
1001
0000
1001
,
0000
1001
0000
1001
,
0000
0000
0100
0100
,
0000
0010
0010
0000
,
1000
1000
0100
0000
,
0010
0010
0001
0000
,
0100
0100
0010
1000
,
0001
0001
0100
0000
,
0010
0010
1000
0000
,
1000
1000
0100
0000
,
0010
0010
0001
1000
,
0000
1001
0000
0110
,
0000
1001
0000
0110
,
0000
1001
0000
0110
,
0000
0000
0010
0010
,
0000
1001
0000
0110
,
0000
1001
0000
0110
,
0000
1001
0000
0110
,
0000
0000
0010
1001
;

//---------------dance-single - ----------------
#NOTEDATA:;
#CHARTNAME:;
#STEPSTYPE:dance-single;
#DESCRIPTION:;
#CHARTSTYLE:;
#DIFFICULTY:Beginner;
#METER:2;
#RADARVALUES:0.142921,0.197870,0.008068,0.000000,0.000000,123.000000,1.000000,0.000000,0.000000,0.000000,0.000000,0.000000,0.000000,0.142921,0.197870,0.008068,0.000000,0.000000,123.000000,1.000000,0.000000,0.000000,0.000000,0.000000,0.000000,0.000000;
#CREDIT:Ben Speirs;
#NOTES:
0000
0000
0000
0000
,
0000
0000
0000
0000
,
1000
0000
0000
0000
,
0001
0000
0000
0000
,
0100
0000
0100
0000
,
0100
0000
0000
0000
,
0010
0000
0000
0000
,
1000
0000
0000
0000
,
0001
0000
0001
0000
,
0001
0000
0000
0000
,
1000
0000
0000
0000
,
0100
0000
0000
0000
,
0010
0000
0010
0000
,
0010
0000
0000
0000
,
0100
0000
0000
0000
,
1000
0000
0000
0000
,
0001
0000
0001
0000
,
0001
0000
0000
0000
,
0000
1000
0000
1000
,
0000
1000
0000
1000
,
0000
1000
0000
1000
,
0000
0000
0000
0000
,
0000
0001
0000
0001
,
0000
0001
0000
0001
,
0000
0001
0000
0001
,
0000
0000
0000
0000
,
0000
1000
0000
1000
,
0000
1000
0000
1000
,
0000
1000
0000
1000
,
0000
0000
0000
0000
,
0000
0001
0000
0001
,
0000
0001
0000
0001
,
0000
0001
0000
0001
,
0000
0000
0000
0000
,
0100
0000
0000
0000
,
0010
0000
0000
0000
,
1000
0000
0000
0000
,
0001
0000
0000
0000
,
1000
1000
0000
0000
,
0001
0000
0000
0000
,
0100
0100
0000
0000
,
0001
0000
0000
0000
,
1000
0000
1000
0000
,
0100
0000
0000
0000
,
0010
0000
0010
0000
,
0001
0000
0000
0000
,
1000
0000
1000
0000
,
0010
0000
0000
0000
,
0100
0000
0100
0000
,
0001
0000
0000
0000
,
0000
1000
0000
1000
,
0000
1000
0000
1000
,
0000
1000
0000
1000
,
0000
1000
0000
0000
,
0000
0001
0000
0001
,
0000
0001
0000
0001
,
0000
0001
0000
0001
,
0000
0001
0000
0000
,
0000
1000
0000
1000
,
0000
1000
0000
1000
,
0000
1000
0000
1000
,
0000
1000
0000
0000
,
0000
0001
0000
0001
,
0000
0001
0000
0001
,
0000
0001
0000
0001
,
0000
0001
0000
0000
,
0000
1000
0000
1000
,
0000
1000
0000
1000
,
0000
1000
0000
1000
,
0000
1000
0000
0000
,
0000
0001
0000
0001
,
0000
0001
0000
0001
,
0000
0001
0000
0001
,
0000
0001
0000
0000
,
0000
1000
0000
1000
,
0000
1000
0000
1000
,
0000
1000
0000
1000
,
0000
1000
0000
0000
,
0000
0001
0000
0001
,
0000
0001
0000
0001
,
0000
0001
0000
0001
,
0000
0001
0000
1001
;

//---------------dance-double - ----------------
#NOTEDATA:;
#CHARTNAME:;
#STEPSTYPE:dance-double;
#DESCRIPTION:;
#CHARTSTYLE:;
#DIFFICULTY:Challenge;
#METER:8;
#RADARVALUES:0.597039,0.593610,0.451813,0.322724,0.000000,422.000000,56.000000,40.000000,0.000000,0.000000,0.000000,0.000000,0.000000,0.597039,0.593610,0.451813,0.322724,0.000000,422.000000,56.000000,40.000000,0.000000,0.000000,0.000000,0.000000,0.000000;
#CREDIT:Ben Speirs;
#NOTES:
00000000
00000000
00000000
00000000
,
00000000
00000000
00000000
00000000
,
00020000
00000000
01030000
00100000
10000000
00100000
00000000
01000000
,
00000000
00010000
10000000
01000000
10000000
01000000
00100000
00000000
,
00020000
00000000
00230000
00000000
00302000
00000000
00013000
00000100
,
00000000
00000100
00010000
00000000
00001000
00010000
00000200
00000000
,
00001300
00000000
00000010
00001000
00000010
00000000
00001000
00000001
,
00001000
00000000
00000001
00000010
00000100
00001000
00000001
00000000
,
00000100
00000000
00000110
00000000
00000020
00000000
00001030
00000100
,
00001000
00000000
00000001
00000100
00000001
00001000
00000100
00000100
,
00020000
00000000
00030100
00001000
00000010
00000000
00000100
00000001
,
00000020
00000000
00000031
00000010
00000100
00001000
00000001
00000000
,
00001000
00000000
00000200
00000000
00020300
00000000
00031000
00100000
,
00001000
00000000
00100000
00010000
01000000
00100000
10000000
00010000
,
02000000
00000000
03100000
10000000
02000000
00000000
03100000
00010000
,
02000000
00000000
03010000
00100000
01000000
10000000
00020000
00000000
,
10030000
11000000
00010000
01010000
,
10000000
00000000
00100000
10000000
00010000
00100000
01000000
00000000
,
10000000
00000000
11000000
01000000
00000000
00000000
10010000
00000000
,
01000000
00000000
01010000
01000000
00000000
00000000
10010000
00000000
,
01000000
00000000
11000000
01000000
00000000
00000000
10010000
00000000
,
01000000
00000000
01000000
00100000
00200000
00000000
20300000
00000000
,
30010000
00110000
00001000
00011000
,
00000100
00001100
00010000
00011000
,
00100000
00110000
00001000
00011000
,
00000100
00000000
00001000
00000100
00000200
00000000
00000320
00000000
,
00000032
00000000
00001003
00000100
00001000
00000100
00000020
00000000
,
00000031
00000000
00000100
00000001
00000100
00000001
00002000
00000000
,
00003010
00000000
00001000
00000010
00001000
00000010
00000200
00000000
,
00000302
00000000
00001003
00000100
00000200
00000000
00000310
00000000
,
00000001
00000000
00000011
00000010
00000100
00000000
00001000
00000001
,
00001000
00000000
00001010
00000010
00000100
00000000
00000001
00001000
,
00000001
00000000
00000101
00000100
00000010
00000000
00001000
00000001
,
00001000
00000000
00000100
00001000
00000100
00001000
00000100
00000000
,
00010100
00000000
00000000
00010000
00000000
00001000
00100000
00100000
,
00010000
00000000
00000000
00100000
00000000
00010000
10000000
10000000
,
00100000
00000000
00000000
01000000
00000000
00100000
10000000
10000000
,
00010000
00000000
00000000
00100000
00000000
00010000
00100000
00001000
,
00020000
00000000
00030000
00000100
00000000
00001000
00000100
00000100
,
00000010
00000000
00000000
00000001
00000000
00000010
00000001
00000100
,
00000100
00000000
00000000
00000010
00000000
00000010
00001000
00000100
,
00000100
00000000
00000000
00001000
00000000
00000001
00001000
00001000
,
00000010
00000200
00000000
00000000
00000301
00000020
00000000
00000000
,
00000130
00002000
00000000
00000000
00003100
00010000
00000100
00000000
,
00010000
00002000
00000000
00000000
00103000
00020000
00000000
00000000
,
01030000
00200000
00000000
00000000
10300000
00010000
10000000
00000000
,
00100000
01000000
01000000
00000000
00100000
10000000
10000000
00000000
,
00010000
00100000
00100000
00000000
01000000
10000000
10000000
00000000
,
00010000
01000000
01000000
00000000
00010000
00100000
00100000
00000000
,
00001000
00010000
00010000
00000100
00002000
00000000
00003010
00000000
,
00000100
00000000
00000101
00000100
00000010
00001000
00000001
00000000
,
00000010
00000000
00000011
00000010
00000100
00001000
00000001
00000000
,
00002000
00000000
00003200
00000000
00000320
00000000
00000031
00001000
,
00000020
00000130
00000101
00001010
,
00000001
00000000
00001000
00000100
00001000
00000100
00020000
00000000
,
00031000
00000000
00010000
00001000
00010000
00001000
00200000
00000000
,
00310000
00000000
00100000
00010000
00100000
00010000
20000000
00000000
,
30100000
00000000
10000000
00010000
00020000
00000000
01030000
00000000
,
00100000
00000000
10000000
00100000
00010000
00100000
10000000
00000000
,
01000000
11000000
00010000
01010000
,
10000000
00000000
00010000
01000000
10000000
01000000
00010000
00000000
,
10000000
11000000
00100000
00100000
,
00010000
00000000
00110000
00100000
00001000
00000000
00010000
00000000
,
00000100
00000000
00011000
00010000
00000100
00000000
00001000
00000000
,
00000010
00000000
00001001
00000001
00000100
00000000
00000010
00001000
,
00000001
00000100
00000101
00000110
,
00001000
00001100
00000110
00000011
,
00001000
00001001
00001100
00010100
,
00001000
00011000
00101000
00011000
,
00000100
00011000
00110000
10010000
,
00100000
00000000
10000000
00100000
01000000
00000000
01010000
00000000
,
00100000
00000000
10000000
00010000
00100000
00000000
00110000
00000000
,
00101000
00011000
00001100
00001001
,
00001000
00000100
00000010
00000000
00000001
00001000
00000010
00000000
,
00000100
00000000
00000001
00000100
00001000
00000100
00000001
00001000
,
00000100
00001100
00000001
00000011
,
00001000
00000010
00001010
00000000
00000001
00000100
00000101
00000000
,
00001000
00000000
00001100
00000000
00000100
00010000
00001000
00100000
,
00010000
00000000
00110000
00100000
00010000
00000000
10000000
00100000
,
01000000
00000000
00100000
00000000
10000000
00010000
10010000
00000000
,
10000000
01000000
00100000
00000000
00010000
10000000
00100000
00000000
,
01000000
00010000
10000000
01000000
00010000
00001000
00000100
00000000
;
