#VERSION:0.82;
#TITLE:Hallelujah;
#SUBTITLE:;
#ARTIST:Panic! at the Disco;
#TITLETRANSLIT:;
#SUBTITLETRANSLIT:;
#ARTISTTRANSLIT:;
#GENRE:The Minor Fall, The Major Lift;
#ORIGIN:;
#CREDIT:;
#BANNER:Hallelujah.png;
#BACKGROUND:Hallelujah-bg.png;
#PREVIEWVID:;
#JACKET:jacket.png;
#CDIMAGE:;
#DISCIMAGE:;
#LYRICSPATH:;
#CDTITLE:;
#MUSIC:Hallelujah.ogg;
#OFFSET:-0.950000;
#SAMPLESTART:102.966621;
#SAMPLELENGTH:13.714000;
#SELECTABLE:YES;
#DISPLAYBPM:160.000000;
#BPMS:0.000=160.000,
259.000=320.000,
275.000=160.000;
#STOPS:88.000=0.375,
119.000=0.750,
121.000=0.750;
#DELAYS:;
#WARPS:;
#TIMESIGNATURES:0.000=4=4;
#TICKCOUNTS:0.000=4;
#COMBOS:0.000=1;
#SPEEDS:0.000=1.000=0.000=0;
#SCROLLS:0.000=1.000;
#FAKES:;
#LABELS:0.000=Song Start;
#BGCHANGES:0.875=Hallelujah.avi=1.000=0=0=1=====,
99999=-nosongbg-=1.000=0=0=0 // don't automatically add -songbackground-
;
#KEYSOUNDS:;
#ATTACKS:
;

//---------------dance-single - ----------------
#NOTEDATA:;
#CHARTNAME:;
#STEPSTYPE:dance-single;
#DESCRIPTION:;
#CHARTSTYLE:;
#DIFFICULTY:Hard;
#METER:8;
#RADARVALUES:0.610694,0.699801,0.367652,0.360443,0.072089,492.000000,51.000000,50.000000,0.000000,0.000000,0.000000,0.000000,0.000000,0.610694,0.699801,0.367652,0.360443,0.072089,492.000000,51.000000,50.000000,0.000000,0.000000,0.000000,0.000000,0.000000;
#CREDIT:Ben Speirs;
#DISPLAYBPM:160.000000;
#NOTES:
// measure 0
0000
0000
0000
0000
,  // measure 1
0000
0000
0000
0000
,  // measure 2
2010
0000
3002
0000
0103
0001
2000
0000
,  // measure 3
3002
0000
2003
0000
3010
0100
0001
0100
,  // measure 4
0001
0100
0020
0000
1030
0100
0010
0100
,  // measure 5
0010
0100
2000
0000
3001
0000
0100
0001
,  // measure 6
0102
0000
1003
1000
0010
1000
0002
0000
,  // measure 7
2003
0000
3002
0000
0103
0010
1000
0010
,  // measure 8
1000
0010
0200
0000
0301
0010
0100
0010
,  // measure 9
0100
0010
0002
0000
1003
0100
0010
0001
,  // measure 10
1000
0000
1100
0000
0001
0001
1000
0001
,  // measure 11
0100
0000
0101
0000
1000
1000
0001
1000
,  // measure 12
0010
0100
0001
0000
1000
0010
0100
0010
,  // measure 13
0100
0010
1000
0000
0001
0100
1000
0100
,  // measure 14
0002
0000
1003
0000
0001
0010
0100
1000
,  // measure 15
0020
0000
0130
0000
0001
0010
1000
0010
,  // measure 16
0002
0000
1003
0000
0001
0100
0010
0100
,  // measure 17
0010
0100
0001
0000
1000
0100
0010
0000
,  // measure 18
1100
0000
0110
0000
0010
0001
1000
0000
,  // measure 19
0001
0100
0010
1000
0001
0000
0100
0000
,  // measure 20
0101
0000
0110
0000
0010
1000
0001
0000
,  // measure 21
1000
0100
0010
0001
2000
0000
3002
0000
,  // measure 22
0103
0000
0001
1000
0001
1000
0010
0100
,  // measure 23
0001
1000
0100
0000
0010
0000
0011
0000
,  // measure 24
1001
0000
1000
0001
0100
0000
0001
1000
,  // measure 25
0001
1000
0020
0000
0130
0000
0001
0000
,  // measure 26
1000
0000
0100
0000
1000
0000
0100
0000
0010
0000
0000
0000
0001
1000
0000
0000
,  // measure 27
0001
1000
0000
0000
0110
0000
0000
0000
1001
0000
0000
0000
1000
0000
0000
0000
,  // measure 28
0001
0000
0010
0000
0001
0000
0010
0000
0100
0000
0000
0000
1000
0001
0000
0000
,  // measure 29
1000
0001
0000
0000
0110
0000
0000
0000
1001
0000
0000
0000
0101
0000
0000
0000
,  // measure 30
1010
1001
0101
1001
,  // measure 31
0100
1000
0010
0000
0100
0001
0010
0000
,  // measure 32
0100
1000
0001
1000
0010
0000
0102
0000
,  // measure 33
2003
0000
3010
1000
0002
0000
2003
0000
,  // measure 34
3002
0000
0103
0010
1000
0010
1000
0010
,  // measure 35
0200
0000
0301
0010
0100
0010
0100
0010
,  // measure 36
0002
0000
1003
0000
0010
1000
2010
0000
,  // measure 37
3001
0001
0100
0001
2000
0000
3002
0000
,  // measure 38
2003
0000
3010
0100
0001
0100
0001
0100
,  // measure 39
0020
0000
1030
0100
0010
0100
0010
0100
,  // measure 40
2000
0000
3001
0010
0100
1000
0001
0000
,  // measure 41
0011
0000
1000
1000
0001
1000
0010
0000
,  // measure 42
1010
0000
0001
0001
1000
0001
0100
0010
,  // measure 43
1000
0000
0001
0100
0010
0100
0010
0100
,  // measure 44
0001
0000
1000
0010
0001
0010
2000
0000
,  // measure 45
3001
0000
1000
0100
0010
0001
0200
0000
,  // measure 46
0310
0000
1000
0100
0001
0100
2000
0000
,  // measure 47
3001
0000
1000
0010
0100
0010
0100
0010
,  // measure 48
1000
0000
0001
0010
0100
0000
2000
0000
,  // measure 49
3200
0000
0302
0000
0203
0000
1300
0010
,  // measure 50
0100
0001
1000
0000
0010
0100
0002
0000
,  // measure 51
0023
0000
2030
0000
3020
0000
0031
1000
,  // measure 52
0010
0100
0002
0000
1003
0000
1001
0000
,  // measure 53
1100
1001
0101
0110
,  // measure 54
0001
0010
1000
0000
0001
0000
1100
0000
,  // measure 55
0101
0011
1010
1001
,  // measure 56
1000
0010
0001
0100
0100
0000
1001
0000
,  // measure 57
0001
0000
0010
0000
0001
0000
0010
0000
0100
0000
0000
0000
1000
0001
0000
0000
,  // measure 58
1000
0001
0000
0000
0110
0000
0000
0000
1001
0000
0000
0000
0001
0000
0000
0000
,  // measure 59
1000
0000
0100
0000
1000
0000
0100
0000
0010
0000
0000
0000
0001
1000
0000
0000
,  // measure 60
0001
1000
0000
0000
0110
0000
0000
0000
1001
0000
0000
0000
0100
0000
0001
0000
,  // measure 61
1000
0100
0010
0001
1000
0010
0100
0001
,  // measure 62
1000
0001
0010
0100
1000
0000
0001
0010
,  // measure 63
1000
0010
0001
0000
1000
0100
0001
0100
,  // measure 64
2000
3002
0103
2002
,  // measure 65
0000
0000
0000
0000
,  // measure 66
0000
3000
0000
0100
,  // measure 67
0000
0000
0000
0100
,  // measure 68
0000
0000
0003
1001
,  // measure 69
1100
0000
0001
0100
1000
0000
0101
0000
,  // measure 70
1010
0000
0001
0010
0100
1000
0001
0100
,  // measure 71
0010
0000
1000
0010
0001
0010
0001
0010
,  // measure 72
1000
0000
0001
1000
0100
0000
1001
0000
,  // measure 73
0011
0000
1000
0010
0001
0000
1010
0000
,  // measure 74
0101
0000
1000
0100
0010
0001
1000
0010
,  // measure 75
0100
0000
0001
0100
1000
0100
1000
0100
,  // measure 76
0001
0000
1000
0001
0010
0001
0101
0000
,  // measure 77
0100
0100
0001
1000
0010
0000
1010
0000
,  // measure 78
0010
0010
1000
0001
0100
0001
1000
0010
,  // measure 79
1000
0000
0001
0100
1000
0100
1000
0100
,  // measure 80
0001
0000
1000
0100
0010
0001
0011
0000
,  // measure 81
1000
0000
0001
0100
0010
1000
1010
0000
,  // measure 82
0001
0000
0000
0000
0000
0000
1000
0000
0000
0001
0000
0000
0100
0000
0000
0001
0000
0000
1000
0000
0000
0000
1000
0000
,  // measure 83
0100
1000
0100
0010
0000
0010
0001
0010
0001
1000
0000
1000
,  // measure 84
0010
1000
0010
0100
0000
0100
0001
1000
0001
2000
0000
0000
,  // measure 85
0000
0100
0000
0000
,  // measure 86
0000
0100
0000
3002
,  // measure 87
0000
0100
0000
0000
,  // measure 88
0000
0103
0000
0000
;

//---------------dance-double - ----------------
#NOTEDATA:;
#CHARTNAME:;
#STEPSTYPE:dance-double;
#DESCRIPTION:;
#CHARTSTYLE:;
#DIFFICULTY:Challenge;
#METER:8;
#RADARVALUES:0.605545,0.572564,0.547874,0.353235,0.000000,463.000000,76.000000,49.000000,0.000000,0.000000,0.000000,0.000000,0.000000,0.605545,0.572564,0.547874,0.353235,0.000000,463.000000,76.000000,49.000000,0.000000,0.000000,0.000000,0.000000,0.000000;
#CREDIT:Ben Speirs;
#DISPLAYBPM:160.000000;
#NOTES:
00000000
00000000
00000000
00000000
,
00000000
00000000
00000000
00000000
,
11000000
00000000
01010000
00000000
10000000
01000000
00020000
00000000
,
00032000
00000000
00023000
00000000
01030000
10000000
01000000
10000000
,
00010000
01000000
00100000
00000000
10000000
00010000
10000000
00010000
,
00100000
00010000
01000000
00000000
01010000
00000000
00010000
01000000
,
00002000
00000000
00013000
00010000
00001000
00100000
00020000
00000000
,
00230000
00000000
00302000
00000000
00013000
00000100
00010000
00000100
,
00001000
00000010
00000100
00000000
00000001
00001000
00000001
00001000
,
00000100
00000010
00000001
00000000
00001001
00000000
00001000
00000001
,
00000011
00000000
00001010
00000000
00000001
00000010
00002000
00000000
,
00023000
00000000
00032000
00000000
00003010
00000001
00000010
00000001
,
00001000
00000010
00000100
00000000
00000001
00001000
00000001
00001000
,
00000100
00001000
00000010
00000000
00001010
00000000
00001000
00000010
,
00020000
00000000
00031000
00000000
00100000
00001000
00100000
00001000
,
00002000
00000000
00013000
00000000
00000010
00010000
00000010
00010000
,
00020000
00000000
00031000
00000000
00100000
00001000
00100000
00010000
,
01000000
00100000
10000000
00000000
01000000
00100000
00010000
00000000
,
11000000
01100000
00110000
10010000
,
00010000
01000000
10000000
01000000
00020000
00000000
10030000
00000000
,
10000000
00100000
10000000
00100000
01000000
00000000
01010000
00000000
,
00010000
00100000
00010000
00100000
00001000
00000000
00011000
00000000
,
00101000
00000000
00001100
00000000
00000101
00000000
00001000
00000001
,
00001000
00000100
00000200
00000000
00001300
00000000
00001001
00000000
,
00001001
00000000
00000100
00000001
00001000
00000000
00000100
00001000
,
00000010
00000100
00000002
00000000
00001003
00000000
00001010
00000000
,
00010000
00001000
00010000
00000100
00010000
00001000
00011000
00000000
,
00010100
00011000
01001000
00001000
,
00010000
00001000
00010000
00000100
00010000
00001000
00011000
00000000
,
00010100
00011000
01001000
01010000
,
11000000
11000000
10010000
10010000
,
00000000
00011000
00000000
00001001
,
00000110
00000000
00001000
00000100
00000010
00000001
00000011
00000000
,
00001010
00000000
00000001
00000010
00002000
00000000
00023000
00000000
,
00032000
00000000
00003010
00000001
00000010
00000001
00001000
00000010
,
00000100
00000000
00000001
00001000
00000001
00001000
00000100
00001000
,
00000010
00000000
00001010
00000000
00001000
00000010
00020000
00000000
,
00031000
00001000
00010000
00000100
00002000
00000000
00003200
00000000
,
00020300
00000000
00031000
00100000
00001000
00100000
00010000
01000000
,
00100000
00000000
10000000
00010000
10000000
00010000
00100000
01000000
,
10000000
00000000
10010000
00000000
00010000
10000000
11000000
00000000
,
01010000
00000000
10000000
01000000
00020000
00000000
00032000
00000000
,
00023000
00000000
01030000
10000000
01000000
10000000
00010000
01000000
,
00100000
00000000
10000000
00010000
10000000
00010000
00100000
00010000
,
01000000
00000000
01010000
00000000
00010000
01000000
00002000
00000000
,
00013000
00000000
00000100
00010000
00000100
00010000
00020000
00000000
,
00031000
00000000
01000000
00001000
01000000
00001000
00002000
00000000
,
00013000
00000000
00000100
00010000
00000100
00001000
00000010
00000100
,
00000001
00000000
00000010
00000100
00001000
00000000
00000002
00000000
,
00000103
00000000
00000200
00000000
00000310
00000000
00001000
00000100
,
00000010
00000001
00001000
00000000
00000010
00000000
00020000
00000000
,
00031000
00000000
00002000
00000000
00103000
00010000
01000000
00100000
,
10000000
00010000
01000000
00000000
00010000
10000000
22000000
00000000
,
33000000
00000000
01010000
00000000
10010000
00000000
10000000
00100000
,
00010000
00100000
10000000
00000000
00010000
00000000
00100000
00001000
,
00100000
00001000
01000000
00010000
10000000
00000000
00010000
00100000
,
01000000
10000000
00100000
01000000
00010000
00000000
01010000
00000000
,
00001000
00010000
00001000
00100000
00001000
00010000
00011000
00000000
,
00101000
00011000
00010010
00010000
,
00001000
00010000
00001000
00100000
00001000
00010000
00011000
00000000
,
00101000
00000000
00011000
00000000
00010010
00000000
00001000
00000010
,
00000100
00000001
00001000
00000100
00000010
00000001
00001000
00000001
,
00000100
00000010
00001000
00000100
00000010
00000000
00000001
00000010
,
00000001
00001000
00001000
00000000
00000100
00001000
00000100
00010000
,
00020000
02030000
23000000
30002000
,
00000000
00000000
00000000
00000000
,
00000000
00000000
00000000
00010000
,
00000000
00000000
00000000
00010000
,
00000000
00000000
00003000
00011000
,
00101000
00000000
00100000
00001000
00011000
00000000
00100010
00000000
,
00011000
00000000
00010000
00001000
00000010
00001000
00000010
00001000
,
00010000
00000000
00001000
00010000
00100000
00010000
00100000
00010000
,
00001000
00101000
00010010
00011000
,
00010100
00000000
00000100
00010000
00011000
00000000
00100010
00000000
,
00011000
00000000
00001000
00010000
01000000
00010000
01000000
00010000
,
00001000
00000000
00010000
00001000
00000100
00001000
00000100
00001000
,
00010000
00010100
01001000
00110000
,
00101000
00000000
00010000
00001000
00101000
00000000
00001010
00000000
,
00010010
00000000
00001000
00010000
00010010
00000000
00001000
00010000
,
00001000
00000000
00100000
00010000
00000010
00010000
00100000
00001000
,
00010000
00000000
00001000
00010000
01000000
00010000
00001000
00000000
,
00011000
00000000
00010000
00001000
00000100
00001000
00010000
00000000
,
00011000
00000000
00001000
00010000
01000000
00010000
00002000
00000000
,
00023000
00030200
02000300
03002000
,
00023000
00030020
00200030
00302000
,
00000000
00000010
00000000
00000000
,
00000000
00003010
00000000
00020000
,
00000000
00100000
00000000
00000000
,
00000000
00130000
00000000
00000000
;

//---------------dance-single - ----------------
#NOTEDATA:;
#CHARTNAME:;
#STEPSTYPE:dance-single;
#DESCRIPTION:;
#CHARTSTYLE:;
#DIFFICULTY:Medium;
#METER:6;
#RADARVALUES:0.422234,0.572564,0.367652,0.309981,0.000000,316.000000,51.000000,43.000000,0.000000,0.000000,0.000000,0.000000,0.000000,0.422234,0.572564,0.367652,0.309981,0.000000,316.000000,51.000000,43.000000,0.000000,0.000000,0.000000,0.000000,0.000000;
#CREDIT:Ben Speirs;
#DISPLAYBPM:160.000000;
#NOTES:
0000
0000
0000
0000
,
0000
0000
0000
0000
,
1000
0000
1100
0000
0001
1000
0001
0000
,
0100
0000
0101
0000
0001
1000
0001
0000
,
0200
0000
0310
1000
,
0001
0100
1001
0000
,
0001
0000
0011
0000
1000
0001
1000
0000
,
0010
0000
1010
0000
1000
0001
1000
0000
,
0020
0000
0130
0001
,
1000
0010
1001
0000
,
1000
0000
1000
0000
0100
1000
0001
0000
,
0010
0000
0010
0000
0001
1000
0010
0000
,
0200
0000
0301
1000
,
0010
0100
1001
0000
,
0202
0000
0303
0000
0001
1000
0001
0000
,
2200
0000
3300
0000
0001
1000
0001
0000
,
2002
3003
0010
1000
,
0001
0100
0010
0000
,
1000
1000
0010
0010
,
1000
0010
0100
0000
,
0001
0001
0100
0100
,
0001
1000
0100
0100
,
0010
0001
0000
1000
,
0001
0100
0000
0001
,
1000
0001
0001
0100
,
0010
1000
1000
0001
,
0000
1000
0100
0010
,
0010
0000
0001
1000
0001
0000
0100
0000
,
0000
0001
0100
0010
,
0010
0000
1000
0001
1000
0000
1001
0000
,
0101
0101
1010
1010
,
0000
1001
0000
0101
,
2000
0000
3001
0010
0100
1000
0001
0000
,
0011
0000
1000
0001
1000
0000
0010
0000
,
1010
0000
1000
0001
1000
0000
0020
0000
,
0000
0130
0001
1000
,
0010
1001
0000
1000
,
1100
0000
0001
1000
0001
0000
0100
0000
,
0101
0000
0001
1000
0001
0000
0200
0000
,
0000
0310
1000
0001
,
0100
1001
0000
0001
,
0001
0000
0010
0001
1000
0000
0100
0000
,
0100
0000
1000
0001
0100
0000
0020
0000
,
0000
1030
0001
0100
,
0010
1001
0000
2020
,
3030
0000
1000
0001
1000
0000
0022
0000
,
0033
0000
1000
0001
1000
0000
2002
0000
,
3003
0100
0001
1000
,
0010
0100
0000
0002
,
0203
0302
0203
0301
,
1000
0100
0000
2000
,
3020
2030
3020
0130
,
0001
1000
0000
2002
,
3003
0010
0000
1000
,
0001
0100
0000
0001
,
1000
0000
0010
0100
0010
0000
1000
0000
,
0001
0000
0010
0100
0010
0000
0000
0000
,
0001
0010
0001
0000
1000
0000
0100
0000
,
0100
1100
1100
0001
,
0000
0000
1000
0010
1000
0000
0001
0000
,
0001
0101
0101
1000
,
0000
0001
0000
0100
,
0010
0000
1000
0000
0000
0000
0001
0100
,
0001
0100
0001
0000
1000
0100
1000
0100
,
2000
3002
0103
2002
,
0000
0000
0000
0000
,
0000
0000
0000
0000
,
0000
0000
0000
0000
,
0000
3003
0000
1001
,
0011
0000
1000
0001
1000
0000
1001
0000
,
1010
0000
1000
0001
1000
0000
0020
0000
,
0000
0000
0130
0000
0001
0000
1000
0100
,
0010
1001
0000
1001
,
1100
0000
0001
1000
0001
0000
1001
0000
,
0101
0000
0001
1000
0001
0000
0200
0000
,
0000
0000
0310
0000
1000
0000
0001
0010
,
0100
1001
0000
0011
,
0011
0000
0010
0001
1000
0000
1100
0000
,
1100
0000
1000
0001
0100
0000
0020
0000
,
0000
0000
1030
0000
0001
0000
0100
0001
,
1000
1001
0000
2020
,
3030
0000
1000
0001
1000
0000
0022
0000
,
0033
0000
1000
0001
1000
0000
2002
0000
,
3003
0000
0100
0000
0001
0000
1000
0100
,
0010
0000
0001
0100
0010
0000
2000
0000
,
0000
0100
0000
0000
,
0000
0100
0000
0000
,
0000
0001
0000
0000
,
0000
3001
0000
0000
;

//---------------dance-single - ----------------
#NOTEDATA:;
#CHARTNAME:;
#STEPSTYPE:dance-single;
#DESCRIPTION:;
#CHARTSTYLE:;
#DIFFICULTY:Easy;
#METER:4;
#RADARVALUES:0.272907,0.540755,0.072089,0.331608,0.000000,209.000000,10.000000,46.000000,0.000000,0.000000,0.000000,0.000000,0.000000,0.272907,0.540755,0.072089,0.331608,0.000000,209.000000,10.000000,46.000000,0.000000,0.000000,0.000000,0.000000,0.000000;
#CREDIT:Ben Speirs;
#DISPLAYBPM:160.000000;
#NOTES:
0000
0000
0000
0000
,
0000
0000
0000
0000
,
1000
1000
0001
0001
,
0100
0000
0001
1000
,
0020
0030
2000
3000
,
0002
0003
0200
0300
,
0001
0001
1000
1000
,
0001
0000
1000
0100
,
0020
0030
0002
0003
,
2000
3000
0020
0030
,
1000
1000
0100
0000
,
1000
1000
0001
0000
,
0200
0300
0200
0300
,
0200
0300
0200
0300
,
0001
0000
1000
1000
,
0010
0000
0100
0100
,
0001
0000
1000
0000
,
0100
0000
0010
0000
,
0001
0000
1000
0000
,
0100
0100
0100
0000
,
1000
0000
0001
0000
,
1000
0010
0100
0001
,
1000
0000
0000
0001
,
0000
1000
0000
0010
,
0000
0010
0000
1000
,
0100
0010
0000
0000
,
0001
1000
0001
0100
,
0100
0100
0000
0000
,
1000
0001
1000
0100
,
0100
0100
0000
1000
,
0000
0001
0000
0100
,
0000
0100
0000
0100
,
1001
0100
0000
0001
,
0001
1000
1000
0010
,
0000
1000
0001
0200
,
0300
0002
0003
2000
,
3000
0020
0030
1000
,
1000
0001
0001
1000
,
0000
0001
0010
0200
,
0300
2000
3000
0002
,
0003
0200
0300
0001
,
0001
0010
0000
0001
,
0001
1000
0000
0020
,
0030
0020
0030
0020
,
0030
0020
0030
1000
,
0000
0001
0001
0100
,
0000
0010
0010
1000
,
0000
0001
0000
0010
,
0000
0100
0000
1000
,
0100
1000
0100
1000
,
0000
0001
0000
0001
,
0100
0001
0100
0001
,
0000
1000
0000
0010
,
0000
0010
0000
1000
,
0100
0010
0000
0001
,
0000
1000
0000
0010
,
0100
0001
0000
0000
,
1000
0100
1000
0010
,
0000
0100
0000
0000
,
0001
0100
0001
0010
,
0000
0100
0000
1000
,
0000
0001
0000
0100
,
0000
0100
0000
0010
,
1000
0010
1000
0001
,
1000
0001
0000
2002
,
0000
0000
0000
0000
,
0000
0000
0000
0000
,
0000
0000
0000
0000
,
0000
3003
0000
1001
,
0000
0100
0010
1000
,
0000
0100
0010
0002
,
0003
2000
3000
0002
,
0003
0200
0300
1001
,
0000
1000
0001
0100
,
0000
0010
1000
0200
,
0300
2000
3000
0002
,
0003
0200
0300
1001
,
0000
0010
0010
1000
,
0000
0001
0001
0200
,
0300
0002
0003
2000
,
3000
0020
0030
1001
,
0000
0100
0001
1000
,
0000
0010
0000
2002
,
3003
0220
0330
2002
,
3003
0220
0330
0000
,
0000
0001
0000
0000
,
0000
0001
0000
0000
,
0000
1000
0000
0000
,
0000
1000
0000
0000
;

//---------------dance-single - ----------------
#NOTEDATA:;
#CHARTNAME:;
#STEPSTYPE:dance-single;
#DESCRIPTION:;
#CHARTSTYLE:;
#DIFFICULTY:Beginner;
#METER:2;
#RADARVALUES:0.150356,0.190855,0.043253,0.000000,0.000000,140.000000,6.000000,0.000000,0.000000,0.000000,0.000000,0.000000,0.000000,0.150356,0.190855,0.043253,0.000000,0.000000,140.000000,6.000000,0.000000,0.000000,0.000000,0.000000,0.000000,0.000000;
#CREDIT:Ben Speirs;
#DISPLAYBPM:160.000000;
#NOTES:
0000
0000
0000
0000
,
0000
0000
0000
0000
,
1001
0000
0100
0000
,
0010
0000
1000
0000
,
0001
0000
0000
0000
,
1000
0000
0000
0000
,
0100
0000
1000
0000
,
0001
0000
0100
0000
,
0010
0000
0000
0000
,
1000
0000
0000
0000
,
0100
0000
1000
0000
,
0001
0000
0010
0000
,
0001
0000
0000
0000
,
1000
0000
0000
0000
,
0010
0010
0000
0000
,
1000
1000
0000
0000
,
0001
0000
1000
0000
,
0010
0000
0100
0000
,
0001
0000
0001
0000
,
0100
0000
0000
0000
,
0010
0000
0010
0000
,
1000
0000
0000
0000
,
1001
0000
0000
0100
,
0000
0000
0000
1000
,
0000
1000
0000
0010
,
0000
0000
0000
1000
,
0000
0000
0000
0001
,
0001
0001
0001
0000
,
0000
0000
0000
0100
,
0100
0100
0100
0000
,
0000
0000
0000
1000
,
0000
1000
0000
0001
,
0000
0001
0000
0100
,
0000
0100
0000
0010
,
0000
1000
0000
0001
,
0000
0000
0000
1000
,
0000
0000
0000
0100
,
0000
0100
0000
0010
,
0000
0001
0000
1000
,
0000
0000
0000
0001
,
0000
0000
0000
0100
,
0000
0100
0000
0010
,
0000
0010
0000
1000
,
0000
0000
0000
0001
,
0000
0000
0000
1000
,
1000
0000
0000
0001
,
0001
0000
0000
0100
,
0000
0100
0000
0010
,
0000
0010
0000
1000
,
0000
0000
0000
0100
,
0000
0100
0000
0010
,
0000
0000
0000
0001
,
0000
0001
0000
1000
,
0000
0000
0000
0010
,
0000
0000
0000
1000
,
0000
0001
0000
0100
,
0000
0010
0000
1000
,
0000
0000
0000
0001
,
0001
0001
0001
0000
,
0000
0000
0000
1000
,
1000
1000
1000
0000
,
0000
0000
0000
0100
,
0000
0000
0000
1000
,
0000
0001
0000
0100
,
0000
0010
0000
1001
,
0000
0000
0000
0000
,
0000
0000
0000
0000
,
0000
0000
0000
0000
,
0000
0000
0000
1001
,
0000
0100
0000
0010
,
0000
1000
0000
0100
,
0000
0010
0010
0010
,
0000
0000
0000
0001
,
0000
1000
0000
0010
,
0000
0100
0000
0001
,
0000
1000
1000
1000
,
0000
0000
0000
1001
,
0000
1000
0000
0001
,
0000
0100
0000
0010
,
0000
1000
1000
1000
,
0000
0000
0000
0001
,
0001
0000
0000
1000
,
1000
0000
0000
0010
,
0000
1000
0000
0001
,
0000
0100
0000
1001
,
0000
0100
0000
0000
,
0000
0100
0000
0000
,
0000
0010
0000
0000
,
0000
0010
0000
0000
;
