#VERSION:0.82;
#TITLE:Good Time;
#SUBTITLE:;
#ARTIST:Owl City feat. Carly Rae Jepsen;
#TITLETRANSLIT:;
#SUBTITLETRANSLIT:;
#ARTISTTRANSLIT:;
#GENRE:Bubblegum Dancer!;
#ORIGIN:;
#CREDIT:;
#BANNER:Good Time.png;
#BACKGROUND:Good Time-bg.png;
#PREVIEWVID:;
#JACKET:jacket.png;
#CDIMAGE:;
#DISCIMAGE:;
#LYRICSPATH:;
#CDTITLE:;
#MUSIC:Good Time.ogg;
#OFFSET:0.016000;
#SAMPLESTART:83.810104;
#SAMPLELENGTH:15.374000;
#SELECTABLE:YES;
#BPMS:0.000=126.000;
#STOPS:;
#DELAYS:;
#WARPS:;
#TIMESIGNATURES:0.000=4=4;
#TICKCOUNTS:0.000=4;
#COMBOS:0.000=1;
#SPEEDS:0.000=1.000=0.000=0;
#SCROLLS:0.000=1.000;
#FAKES:;
#LABELS:0.000=Song Start;
#BGCHANGES:8.000=Good Time.avi=1.000=0=0=1=====,
99999=-nosongbg-=1.000=0=0=0 // don't automatically add -songbackground-
;
#KEYSOUNDS:;
#ATTACKS:
;

//---------------dance-single - ----------------
#NOTEDATA:;
#CHARTNAME:;
#STEPSTYPE:dance-single;
#DESCRIPTION:;
#CHARTSTYLE:;
#DIFFICULTY:Hard;
#METER:8;
#RADARVALUES:0.497443,0.501647,0.278887,0.223109,0.107571,374.000000,35.000000,28.000000,0.000000,0.000000,0.000000,0.000000,0.000000,0.497443,0.501647,0.278887,0.223109,0.107571,374.000000,35.000000,28.000000,0.000000,0.000000,0.000000,0.000000,0.000000;
#CREDIT:Ben Speirs;
#NOTES:
0000
0000
0000
0000
,
0000
0000
0000
0000
,
0000
0000
0000
0000
,
0000
0000
0000
1001
,
0100
0000
0101
0000
2010
0000
3001
0010
,
0200
0000
2300
0000
3010
1000
0002
0000
,
0013
0000
0011
0000
1100
0000
0010
1000
,
0002
0000
0103
0010
1000
0001
1000
0000
,
0010
0000
1001
0000
0120
0000
1030
0001
,
0200
0000
0301
1000
0200
0000
0310
0001
,
2000
0100
3010
1010
,
0001
1000
0010
0100
0002
0000
1003
0000
,
0101
0100
0010
1000
0001
0000
1000
0100
,
2000
0000
3001
0010
1000
0010
0002
0000
,
1003
0010
0100
0001
1000
0000
0001
0010
,
0002
0000
1003
0100
0001
0100
2000
0000
,
3010
0100
0001
1000
0200
0000
0310
0001
,
0200
0000
0310
1000
0100
0010
0001
0000
,
1000
0010
0001
0010
0100
0001
2000
0000
,
3100
0010
0001
1000
1100
0000
0011
0000
,
1001
0000
0000
0001
0100
0001
0100
0020
,
0000
1030
0100
0020
0000
0000
0031
0000
,
1000
0000
0000
1000
0010
1000
0010
0200
,
0000
0301
0010
0200
0000
0000
1300
0000
,
0101
1010
1100
0011
,
1000
0100
1000
0100
0010
0001
0010
0000
,
0001
1000
0010
0100
0001
1000
0100
0010
,
0001
0000
1000
0001
0000
1000
0001
0000
1000
0001
0000
1000
0010
0000
0000
0000
0000
0000
1001
0000
0000
0000
0000
0000
,
1100
0100
0010
0001
1000
0010
0100
0001
,
1000
0100
0000
0000
0010
0001
0000
0000
1000
0000
0001
0000
1001
0000
0000
0000
,
0101
0100
0010
1000
0100
0010
0001
0000
,
1000
0010
0100
0010
0001
0010
1000
0000
,
0101
0100
0010
1000
0100
0010
0001
0000
,
0001
0010
0000
0000
0100
1000
0000
0000
0001
0000
1000
0000
1001
0000
0000
0000
,
1000
0100
0010
0001
0100
0100
0100
0000
,
0001
0000
1000
0000
0010
0000
0100
0000
0001
0000
0000
1000
0000
0000
0100
0000
,
0110
0000
0010
0001
2000
0000
3100
0000
,
0001
0000
1000
0000
0010
0000
0100
0000
0001
0000
0000
0001
1000
0000
0100
0000
,
0110
0000
0100
1000
0002
0000
0013
0000
,
1000
0000
0001
0000
0100
0000
0010
0000
1000
0000
0000
1000
0001
0000
0100
0000
,
0100
0001
1000
0001
2000
0000
3010
0000
,
1000
0000
0010
0000
0001
0000
0010
0000
1000
0000
0000
1000
0100
0000
0010
0000
,
0001
0100
0010
1000
0100
0010
0001
1000
,
0010
0000
0100
0010
0000
0100
0010
0000
0100
0010
0000
0100
0001
0000
0000
0000
0000
0000
1000
0000
0000
0000
0000
0000
,
1001
1000
0010
0100
0001
1000
0100
0010
,
0001
1000
0000
0000
0010
1000
0000
0000
0001
1000
0000
0000
1100
0000
0000
0000
,
0001
1000
0010
0100
0001
1000
0100
0000
,
1000
0010
0100
0001
0101
0000
1010
0000
,
1000
0001
0100
0010
1000
0001
0010
0100
,
1000
0001
0000
0000
0100
0001
0000
0000
1000
0001
0000
0000
0011
0000
0000
0000
,
1000
0100
0001
0100
0010
0001
0100
0000
,
0001
0000
1000
0000
0010
0000
0100
0000
0001
0000
0000
1000
0000
0000
0010
0000
,
1010
1000
0100
0010
0001
1000
0010
0000
,
0102
0000
1003
0100
0010
0001
2000
0000
,
3001
1000
0010
0100
0001
1000
0100
0000
,
0010
0010
0100
0100
0110
0000
1001
0000
,
0101
0001
0010
0100
1000
0001
0100
0000
,
2010
0000
3001
0010
0100
1000
0002
0000
,
1003
0010
0100
0010
0001
0010
1000
0000
,
0001
0000
0000
0100
0000
0000
0010
0000
0000
1000
0000
0000
0001
0000
1000
0001
0000
1000
0001
0000
1000
0001
0000
1000
;

//---------------dance-single - ----------------
#NOTEDATA:;
#CHARTNAME:;
#STEPSTYPE:dance-single;
#DESCRIPTION:;
#CHARTSTYLE:;
#DIFFICULTY:Medium;
#METER:5;
#RADARVALUES:0.358569,0.429386,0.382473,0.247014,0.000000,236.000000,48.000000,31.000000,0.000000,0.000000,0.000000,0.000000,0.000000,0.358569,0.429386,0.382473,0.247014,0.000000,236.000000,48.000000,31.000000,0.000000,0.000000,0.000000,0.000000,0.000000;
#CREDIT:Ben Speirs;
#NOTES:
0000
0000
0000
0000
,
0000
0000
0000
0000
,
0000
0000
0000
0000
,
0000
0000
0000
1001
,
0010
2000
3200
0310
,
0002
2003
3010
0000
,
1000
0002
0203
0310
,
2000
3200
0310
0000
,
0001
2000
3020
0130
,
0002
2003
3002
0103
,
1001
0100
1000
0000
,
0010
0100
0010
0100
0001
0000
1000
0000
,
1001
0100
1000
0010
,
0100
0000
0001
0000
1000
0100
1000
0000
,
0010
1000
0100
0010
,
0001
0000
1000
0000
0001
0100
0001
0000
,
1000
0100
0010
0001
,
0100
0100
0010
0000
,
1000
0010
0100
0001
1000
0100
0020
0000
,
0030
0000
0000
1001
,
0200
0000
0310
0001
,
1000
1000
0001
0000
,
0200
0000
0310
1000
,
0001
0001
0010
0000
,
0011
0011
1100
1100
,
0101
0101
1010
1010
,
0001
1000
0001
1000
0001
1000
0001
0000
,
0100
0010
0100
0010
0100
0000
1001
0000
,
0000
1000
0100
1000
0100
0000
1000
0000
,
1100
0011
1001
0000
,
0000
0001
0100
0001
0100
0000
0101
0000
,
2000
3002
0203
0310
,
0000
1000
0010
1000
0010
0000
1010
0000
,
1001
0011
1001
0000
,
1000
0000
0001
0000
0100
0100
0100
0000
,
0001
1000
1001
1001
,
0200
0300
0010
0000
,
1000
0100
0010
0001
,
2000
3000
0010
0000
,
0100
0001
1000
0000
,
0001
0100
0001
0100
0002
0000
0003
0000
,
1000
0100
1000
0100
2000
0000
3000
0000
,
0001
0010
0100
1000
0010
0100
0001
0000
,
0000
0000
1001
1001
,
0100
1010
0011
0100
,
1001
0110
2002
3003
,
0100
1100
0011
1001
,
0001
0100
0001
0100
0020
0000
1030
0000
,
0000
0101
1010
1001
,
0100
1001
0011
0000
,
1000
0100
1000
0000
0001
0100
0001
0000
,
2000
3001
1001
1001
,
0100
0101
1010
0001
,
2000
0000
0000
3010
0100
0010
2000
0000
,
3001
0101
1010
0001
,
1000
0100
1000
0100
1000
0000
0001
1000
,
0010
1010
0101
1000
,
0002
0000
0000
0103
0010
0100
0002
0000
,
1003
1010
0101
1000
,
0001
0100
0010
1000
0100
0010
0001
1000
;

//---------------dance-single - ----------------
#NOTEDATA:;
#CHARTNAME:;
#STEPSTYPE:dance-single;
#DESCRIPTION:;
#CHARTSTYLE:;
#DIFFICULTY:Easy;
#METER:3;
#RADARVALUES:0.186683,0.214245,0.039841,0.031873,0.000000,155.000000,5.000000,4.000000,0.000000,0.000000,0.000000,0.000000,0.000000,0.186683,0.214245,0.039841,0.031873,0.000000,155.000000,5.000000,4.000000,0.000000,0.000000,0.000000,0.000000,0.000000;
#CREDIT:Ben Speirs;
#NOTES:
0000
0000
0000
0000
,
0000
0000
0000
0000
,
0000
0000
0000
0000
,
0000
0000
0000
0000
,
0000
0100
0100
0010
,
0010
1000
0001
0000
,
0000
1000
1000
0100
,
0100
0010
0001
0000
,
0000
0100
0100
0001
,
0001
0000
1000
0001
,
0100
0000
0010
0000
,
1000
0100
0010
0000
,
1001
0000
0010
0000
,
1000
0100
0010
0001
,
0100
0000
0010
0000
,
0100
0001
0010
0100
,
1000
0000
0010
0000
,
0100
0100
0100
0000
,
0001
0000
0000
0000
,
1000
0001
1000
0000
,
0110
0000
1000
0010
,
0100
0000
0000
0000
,
0001
0000
1000
0100
,
0010
0000
0000
0000
,
0001
0000
1000
0000
,
0010
0000
0100
0000
,
0001
0001
1000
1000
,
0010
0100
0010
0000
,
0000
1000
1000
0001
,
0100
0100
0100
0000
,
0000
0001
0001
1000
,
0010
0100
0010
0000
,
0000
1000
1000
0001
,
0010
0010
0010
0000
,
0001
1000
0001
0000
,
1000
0001
1000
0000
,
0010
0010
0010
0000
,
1000
0000
0001
0000
,
0100
0100
0100
0000
,
0001
0000
1000
0000
,
0100
1000
0100
0000
,
1000
0001
1000
0000
,
0001
0001
1000
1000
,
0010
0100
0010
0000
,
1001
0000
0010
0000
,
1000
0001
0100
0000
,
0001
0000
1000
0000
,
0100
0100
0010
0010
,
0001
0000
1000
0000
,
0010
1000
0001
0000
,
0100
0001
0100
0000
,
0010
1000
0010
0000
,
1001
0000
0100
0000
,
2000
3000
0002
0003
,
0100
0100
0010
0010
,
1000
0001
1000
0000
,
1001
0000
0100
0000
,
0020
0030
0002
0003
,
1000
1000
0001
0001
,
0100
0010
1000
0001
;

//---------------dance-single - ----------------
#NOTEDATA:;
#CHARTNAME:;
#STEPSTYPE:dance-single;
#DESCRIPTION:;
#CHARTSTYLE:;
#DIFFICULTY:Beginner;
#METER:2;
#RADARVALUES:0.124076,0.166635,0.039841,0.000000,0.000000,104.000000,5.000000,0.000000,0.000000,0.000000,0.000000,0.000000,0.000000,0.124076,0.166635,0.039841,0.000000,0.000000,104.000000,5.000000,0.000000,0.000000,0.000000,0.000000,0.000000,0.000000;
#CREDIT:Ben Speirs;
#NOTES:
0000
0000
0000
0000
,
0000
0000
0000
0000
,
0000
0000
0000
0000
,
0000
0000
0000
0000
,
0000
0100
0100
0000
,
0010
0000
0010
0000
,
0000
1000
1000
0000
,
0001
0000
0001
0000
,
0000
0010
0010
0000
,
0010
0000
0001
0000
,
1000
0000
0000
0000
,
0001
0000
0000
0000
,
0100
0000
0100
0000
,
0010
0000
1000
0000
,
0001
0000
0001
0000
,
0010
0000
0001
0000
,
1000
0000
1000
0000
,
0100
0000
0100
0000
,
0010
0000
0000
0000
,
0001
0000
1000
0000
,
1001
0000
0000
0000
,
0100
0000
0100
0000
,
0010
0000
0000
0000
,
1000
0000
1000
0000
,
0001
0000
0001
0000
,
1000
0000
1000
0000
,
0010
0000
0010
0000
,
0100
0100
0100
0000
,
0110
0000
0000
0000
,
0001
0001
0001
0000
,
1000
0000
0000
0000
,
0100
0000
0010
0000
,
0001
0000
0000
0000
,
1000
1000
1000
0000
,
0010
0000
0010
0000
,
0100
0000
0100
0000
,
1001
0000
0000
0000
,
0010
0000
0010
0000
,
1000
0000
0000
0000
,
0001
0000
0001
0000
,
0100
0100
0000
0000
,
0010
0010
0000
0000
,
1000
1000
0000
0000
,
0001
0001
0000
0000
,
1001
0000
0000
0000
,
0010
0010
0010
0000
,
1000
0000
0000
0000
,
0100
0000
0010
0000
,
0001
0000
0000
0000
,
1000
1000
1000
0000
,
0001
0000
1000
0000
,
0010
0000
0000
0000
,
1001
0000
0000
0000
,
0100
0100
0100
0000
,
0001
0000
0000
0000
,
1000
0000
1000
0000
,
0010
0000
0000
0000
,
0100
0100
0100
0000
,
0001
0000
1000
0000
,
0010
0010
0010
0010
;

//---------------dance-double - ----------------
#NOTEDATA:;
#CHARTNAME:;
#STEPSTYPE:dance-double;
#DESCRIPTION:;
#CHARTSTYLE:;
#DIFFICULTY:Challenge;
#METER:8;
#RADARVALUES:0.498581,0.501647,0.406378,0.215141,0.067730,360.000000,51.000000,27.000000,0.000000,0.000000,0.000000,0.000000,0.000000,0.498581,0.501647,0.406378,0.215141,0.067730,360.000000,51.000000,27.000000,0.000000,0.000000,0.000000,0.000000,0.000000;
#CREDIT:Ben Speirs;
#NOTES:
// measure 0
00000000
00000000
00000000
00000000
,  // measure 1
00000000
00000000
00000000
00000000
,  // measure 2
00000000
00000000
00000000
00000000
,  // measure 3
00000000
00000000
00000000
00011000
,  // measure 4
00010000
00000000
00101000
00000000
00110000
00000000
00010000
10000000
,  // measure 5
00100000
00000000
10000000
01000000
00100000
00010000
10000000
00000000
,  // measure 6
00100000
00000000
10100000
00000000
01010000
00000000
10000000
01000000
,  // measure 7
00200000
00000000
00301000
00010000
00100000
00010000
00001000
00000000
,  // measure 8
00100000
00000000
00101000
00000000
00011000
00000000
00010000
00001000
,  // measure 9
00000020
00000000
00000031
00001000
00000002
00000000
00000103
00000010
,  // measure 10
00001000
00000000
00000001
00000000
00001000
00000010
00000100
00000000
,  // measure 11
00000001
00000010
00000100
00001000
00000100
00010000
00011000
00000000
,  // measure 12
00001000
00000000
00010100
00000000
00001200
00000000
00001300
00000001
,  // measure 13
00000200
00000000
00000301
00000010
00000100
00001000
00000001
00000000
,  // measure 14
00000100
00000000
00000101
00000000
00002010
00000000
00003001
00000010
,  // measure 15
00000200
00000000
00010300
00001000
00000100
00001000
00010000
00000000
,  // measure 16
00000100
00000000
00010100
00000000
00011000
00000000
00001000
00010000
,  // measure 17
02000000
00000000
13000000
00010000
20000000
00000000
30100000
01000000
,  // measure 18
00010000
00100000
10000000
00010000
01000000
10000000
00020000
00000000
,  // measure 19
01030000
00100000
10000000
00010000
00110000
00000000
00011000
00000000
,  // measure 20
00001010
00000000
00000000
00000001
00001000
00000001
00001000
00000020
,  // measure 21
00000000
00000130
00000001
00002000
00000000
00000000
00003100
00000000
,  // measure 22
00010100
00000000
00000000
00010000
00001000
00010000
00001000
00200000
,  // measure 23
00000000
00310000
10000000
00200000
00000000
00000000
01300000
00000000
,  // measure 24
10010000
00000000
11000000
00000000
00010000
00100000
01000000
00000000
,  // measure 25
11000000
00000000
00110000
00000000
01000000
00010000
10000000
00000000
,  // measure 26
10000000
01000000
00010000
00001000
00000100
00000001
00002000
00000000
,  // measure 27
00003001
00000010
00001000
00010000
00011000
00000000
00100010
00000000
,  // measure 28
00011000
00001000
00100000
00010000
01000000
00100000
10000000
00010000
,  // measure 29
00120000
10030000
20100000
30010000
,  // measure 30
10000000
01000000
00100000
00010000
01000000
00100000
10000000
00000000
,  // measure 31
00010000
00010000
00100000
00100000
00101000
00000000
00100010
00000000
,  // measure 32
00011000
00010000
00000100
00001000
00000010
00000100
00000001
00001000
,  // measure 33
00002100
00003001
00000102
00001003
,  // measure 34
00000001
00000010
00001000
00000010
00000100
00001000
00000002
00000000
,  // measure 35
00001003
00000000
00000010
00000000
00000100
00000000
00000001
00000000
00001000
00000000
00000000
00000100
00000000
00000000
00010000
00000000
,  // measure 36
00002000
00100000
00013000
00011000
,  // measure 37
00010000
00000000
00001000
00000000
00100000
00000000
00010000
00000000
10000000
00000000
00000000
10000000
01000000
00000000
00000000
00000000
,  // measure 38
20000000
01000000
30100000
10100000
,  // measure 39
10000000
00000000
01000000
00000000
00100000
00000000
00010000
00000000
01000000
00000000
00000000
01000000
00001000
00000000
00000000
00000000
,  // measure 40
00010000
00001000
00000100
00000001
00002000
00000000
00003100
00000000
,  // measure 41
00001000
00000000
00000100
00000000
00000010
00000000
00000001
00000000
00001000
00000000
00000000
00001000
00000010
00000000
00000000
00000000
,  // measure 42
00000100
00000001
00000010
00000100
00001000
00000010
00010000
00001000
,  // measure 43
00100000
00000000
00001000
00100000
00000000
00001000
00100000
00000000
00001000
00100000
00000000
00001000
00010000
00000000
00000000
00000000
00000000
00000000
00100100
00000000
00000000
00000000
00000000
00000000
,  // measure 44
00011000
00001000
00000100
00000001
00001000
00000100
00000010
00000001
,  // measure 45
00001000
00000100
00001000
00000000
00000001
00000100
00000001
00000000
00001001
00000000
00000000
00000000
00000101
00000000
00000000
00000000
,  // measure 46
00001100
00000100
00001000
00000010
00000100
00000001
00001000
00000000
,  // measure 47
00000001
00000100
00001000
00010000
00011000
00000000
00100100
00000000
,  // measure 48
00011000
00010000
00100000
10000000
01000000
00100000
00010000
10000000
,  // measure 49
00020000
01000000
02030000
00100000
03100000
10000000
10010000
00000000
,  // measure 50
10000000
01000000
00010000
01000000
10000000
10000000
10000000
00000000
,  // measure 51
01000000
00000000
10000000
00000000
00100000
00000000
01000000
00000000
00010000
00000000
00000000
00100000
00000000
00000000
00001000
00000000
,  // measure 52
00011000
00010000
00100000
10000000
00010000
00100000
01000000
10000000
,  // measure 53
00010000
00100000
00010000
00000000
10000000
00100000
10000000
00000000
10010000
00000000
00000000
00000000
10100000
00000000
00000000
00000000
,  // measure 54
00110000
00100000
00010000
01000000
00100000
10000000
00010000
00000000
,  // measure 55
10000000
00100000
00010000
00001000
00011000
00000000
00100100
00000000
,  // measure 56
00011000
00001000
00000100
00000001
00000010
00000100
00001000
00000001
,  // measure 57
00002000
00000010
00003020
00000100
00000130
00000001
00001001
00000000
,  // measure 58
00000001
00000010
00001000
00000010
00000001
00000001
00000001
00000000
,  // measure 59
00000100
00000000
00000000
00000001
00000000
00000000
00001000
00000000
00000000
00000100
00000000
00000000
00010000
00000000
00001000
00010000
00000000
00001000
00010000
00000000
00001000
00010000
00000000
00001000
;
