#VERSION:0.82;
#TITLE:Good Grief;
#SUBTITLE:;
#ARTIST:Bastille;
#TITLETRANSLIT:;
#SUBTITLETRANSLIT:;
#ARTISTTRANSLIT:;
#GENRE:Indie Pop;
#ORIGIN:;
#CREDIT:;
#BANNER:Good Grief.png;
#BACKGROUND:Good Grief-bg.png;
#PREVIEWVID:;
#JACKET:jacket.png;
#CDIMAGE:;
#DISCIMAGE:;
#LYRICSPATH:;
#CDTITLE:;
#MUSIC:Good Grief.ogg;
#OFFSET:-0.738000;
#SAMPLESTART:64.696251;
#SAMPLELENGTH:13.714000;
#SELECTABLE:YES;
#BPMS:0.000=120.000;
#STOPS:;
#DELAYS:;
#WARPS:;
#TIMESIGNATURES:0.000=4=4;
#TICKCOUNTS:0.000=4;
#COMBOS:0.000=1;
#SPEEDS:0.000=1.000=0.000=0;
#SCROLLS:0.000=1.000;
#FAKES:;
#LABELS:0.000=Song Start;
#BGCHANGES:0.000=Good Grief.avi=1.000=0=0=1=====,
99999=-nosongbg-=1.000=0=0=0 // don't automatically add -songbackground-
;
#KEYSOUNDS:;
#ATTACKS:
;

//---------------dance-single - ----------------
#NOTEDATA:;
#CHARTNAME:;
#STEPSTYPE:dance-single;
#DESCRIPTION:;
#CHARTSTYLE:;
#DIFFICULTY:Hard;
#METER:8;
#RADARVALUES:0.497421,0.514013,0.173736,0.188213,0.180974,431.000000,24.000000,26.000000,0.000000,0.000000,0.000000,0.000000,0.000000,0.497421,0.514013,0.173736,0.188213,0.180974,431.000000,24.000000,26.000000,0.000000,0.000000,0.000000,0.000000,0.000000;
#CREDIT:Ben Speirs;
#NOTES:
0000
0000
0000
0000
,
0000
0000
0000
0000
,
1000
0000
0011
0000
0001
1000
0010
0000
,
0100
0000
0101
0000
0001
1000
0000
0000
,
0010
0000
0000
1000
0000
0000
0001
0000
0000
0000
0010
0000
0001
0000
1000
0000
,
0200
0000
1300
0001
0200
0000
0301
0000
,
1000
0000
0000
0001
0000
0000
0100
0000
0000
0000
0001
0000
0010
0000
0100
0000
,
2000
0000
3010
1000
0002
0000
0103
0000
,
2001
0000
3100
0000
1000
0010
0100
0000
,
0001
1000
0100
0000
0010
0001
1000
0000
,
0001
0000
0100
0000
0001
0000
0100
0010
0000
1000
0000
0000
0001
0000
0000
0000
,
1000
0000
0100
0000
1000
0000
0100
0010
0000
0001
0000
0000
1000
0000
0000
0000
,
1002
0000
0013
0000
0001
0100
0010
0000
,
1000
0001
0010
0000
0100
1000
0001
0000
,
1000
0000
0010
0000
1000
0000
0010
0100
0000
0001
0000
0000
1000
0000
0000
0000
,
0001
0000
0010
0000
0001
0000
0010
0100
0000
1000
0000
0000
0001
0000
0000
0000
,
1000
0000
1000
0010
0000
0000
0100
0000
0000
0000
0010
0000
1000
0000
0200
0000
,
0000
0310
0001
2000
0000
3010
1000
0000
,
0001
0000
0001
0100
0000
0000
0010
0000
0000
0000
0100
0000
0001
0000
2000
0000
,
0000
3010
1000
0002
0000
0013
0000
0000
,
0001
0000
1000
0000
0010
0000
1000
0100
1000
0100
1000
0000
0010
0000
1000
0000
,
0100
0000
0100
0000
0010
0000
0001
1000
0001
1000
0001
0000
0100
0000
0000
0000
,
0010
0000
1000
0000
0010
0000
1000
0100
0000
0010
0000
0000
0001
0000
0000
0000
,
0100
0000
0001
0000
0100
0000
0001
0010
0000
0100
0000
0000
1001
0000
0000
0000
,
1000
0000
0001
0000
0100
0000
0001
0010
0001
0010
0001
0000
0100
0000
0001
0000
,
0010
0000
0010
0000
0100
0000
1000
0001
1000
0001
1000
0000
0010
0000
0000
0000
,
0100
0000
0001
0000
0100
0000
0001
0010
0000
0100
0000
0000
1000
0000
0000
0000
,
0010
0000
1000
0000
0010
0000
1000
0100
0000
0010
0000
0000
0001
0000
0000
0000
,
1000
0000
0100
1000
0100
0000
1000
0000
0100
0000
0010
0000
0002
0000
0000
0000
,
0003
0100
0100
0001
1000
1000
0000
0000
,
0001
0000
0010
0001
0010
0000
0001
0000
0010
0000
0100
0000
2000
0000
0000
0000
,
3001
0000
0000
0000
0000
0000
0000
0000
0000
0000
0100
0000
0100
0000
0001
1000
,
0002
0000
0000
0000
0103
0000
0000
0010
1000
0000
0010
0000
1000
0000
0000
0000
,
0200
0000
0000
0000
1300
0000
0000
0100
1000
0000
0001
0000
0100
0000
0110
0000
,
0000
0001
0100
0101
0000
1000
0100
1100
,
0000
0000
1001
0000
0000
0000
0001
0000
0010
0100
0010
0000
0100
0000
1000
0000
,
2001
0000
0000
0000
3010
0000
0000
0100
0001
0000
0100
0000
0001
0000
0000
0000
,
0020
0000
0000
0000
0031
0000
0000
0010
0001
0000
1000
0000
0010
0000
0110
0000
,
0000
1000
0010
1010
0000
0001
0010
0011
,
0000
0000
1001
0000
0000
0000
1000
0000
0100
0010
0001
0000
0001
0000
0100
0010
,
2000
0000
3100
0000
0000
1000
0001
0000
,
0020
0000
0031
0000
0000
1000
0010
0010
,
0200
0000
0301
0000
0100
0010
1000
0000
,
0100
0000
1000
0001
1000
0000
0001
0000
0000
0000
1001
0000
0000
0000
0000
0000
,
0101
0100
0000
0010
0000
1000
0010
0100
,
0001
0000
1000
0100
0000
1000
0001
0010
,
2001
0000
3100
1000
0000
0010
1000
0001
,
0100
0000
0010
0100
0000
0100
0001
0000
,
1001
1000
0100
0010
0000
0010
0001
1000
,
0001
1000
0000
0000
0001
0100
0010
1000
,
0200
0000
1300
0020
0000
0130
0001
1000
,
1000
0000
0010
1000
0000
0001
0010
0001
,
2001
0000
3100
0000
0000
1000
0100
0010
,
0002
0000
0103
0000
0000
0001
0100
0010
,
0100
1000
0100
0010
0100
0001
0010
1000
,
0010
0100
0010
0001
1000
0010
0100
0001
,
2000
0000
3100
0000
0000
1000
0100
0010
,
0002
0000
0103
0000
0000
0001
0100
0010
,
1000
1000
0001
0001
0100
0100
0010
0010
,
1010
0000
0000
0000
0101
0000
0000
0000
1001
0000
1000
0000
1001
0000
0001
0100
,
0010
0000
1000
0100
1000
0000
0000
0001
0100
0000
0100
0000
0010
0000
1000
0000
,
0001
0000
0010
0000
0100
0000
0010
0000
0001
0000
1000
0000
0010
0100
0010
0000
,
0000
0000
1000
0000
0001
0100
0001
0000
0000
0000
1000
0000
0100
1000
0100
0000
,
0000
1000
0001
0010
0100
1000
1001
0001
,
0100
0000
0001
0010
0001
0000
0000
1000
0010
0000
0010
0000
0100
0000
0001
0000
,
1000
0000
0100
0000
0010
0000
0100
0000
1000
0000
0001
0000
0100
0010
0100
0000
,
0000
0000
0001
0000
1000
0010
1000
0000
0000
0000
0001
0000
0010
0001
0010
0000
,
0000
0001
0000
0100
0001
1000
0000
0000
;

//---------------dance-double - ----------------
#NOTEDATA:;
#CHARTNAME:;
#STEPSTYPE:dance-double;
#DESCRIPTION:;
#CHARTSTYLE:;
#DIFFICULTY:Challenge;
#METER:8;
#RADARVALUES:0.496387,0.514013,0.130302,0.202691,0.195452,434.000000,18.000000,28.000000,0.000000,0.000000,0.000000,0.000000,0.000000,0.496387,0.514013,0.130302,0.202691,0.195452,434.000000,18.000000,28.000000,0.000000,0.000000,0.000000,0.000000,0.000000;
#CREDIT:Ben Speirs;
#NOTES:
// measure 0
00000000
00000000
00000000
00000000
,  // measure 1
00000000
00000000
00000000
00000000
,  // measure 2
10000000
00000000
10010000
00000000
00010000
10000000
00100000
00000000
,  // measure 3
01000000
00000000
01010000
00000000
00010000
10000000
00000000
00000000
,  // measure 4
01000000
00000000
00000000
10000000
00000000
00000000
00010000
00000000
00000000
00000000
00100000
00000000
00000000
00000000
00002000
00000000
,  // measure 5
00000000
00013000
00000100
00002000
00000000
00003010
00000100
00000000
,  // measure 6
00000001
00000000
00000000
00000100
00000000
00000000
00000010
00000000
00000000
00000000
00001000
00000000
00000010
00000000
00002000
00000000
,  // measure 7
00000000
00003001
00000010
00000002
00000000
00001000
00001003
00000000
,  // measure 8
00002001
00000000
00003100
00000000
00001000
00000010
00000100
00000000
,  // measure 9
00000001
00000100
00000010
00000000
00001000
00000100
00001000
00000000
,  // measure 10
00000001
00000000
00001000
00000000
00000001
00000000
00001000
00000100
00000000
00010000
00000000
00000000
00001000
00000000
00000000
00000000
,  // measure 11
00010000
00000000
00001000
00000000
00010000
00000000
00001000
00010000
00000000
00001000
00000000
00000000
00100000
00000000
00000000
00000000
,  // measure 12
00010000
00000000
00110000
00000000
00100000
00010000
10000000
00000000
,  // measure 13
00100000
00000000
10100000
00000000
00100000
10000000
00010000
00000000
,  // measure 14
10000000
00000000
00010000
00000000
10000000
00000000
00010000
01000000
00000000
00001000
00000000
00000000
00010000
00000000
00000000
00000000
,  // measure 15
00001000
00000000
00010000
00000000
00001000
00000000
00010000
00000100
00000000
00001000
00000000
00000000
00000001
00000000
00000000
00000000
,  // measure 16
00000010
00000000
00000000
00000001
00000000
00000000
00001000
00000000
00000000
00000000
00000100
00000000
00000000
00000000
00020000
00000000
,  // measure 17
00000000
00031000
00100000
00020000
00000000
01030000
00100000
00000000
,  // measure 18
10000000
00000000
00000000
00100000
00000000
00000000
01000000
00000000
00000000
00000000
00010000
00000000
01000000
00000000
00020000
00000000
,  // measure 19
00000000
10030000
01000000
20000000
00000000
00010000
30010000
00000000
,  // measure 20
10000000
00000000
00100000
00000000
01000000
00000000
00010000
10000000
00010000
10000000
00010000
00000000
01000000
00000000
00100000
00000000
,  // measure 21
10000000
00000000
01000000
00000000
00100000
00000000
00010000
10000000
00010000
10000000
00010000
00000000
00100000
00000000
00000000
00000000
,  // measure 22
00010000
00000000
00100000
00000000
00001000
00000000
00010000
00001000
00000000
00010000
00000000
00000000
00011000
00000000
00000000
00000000
,  // measure 23
00001000
00000000
00010000
00000000
00000100
00000000
00001000
00000100
00000000
00001000
00000000
00000000
00001001
00000000
00000000
00000000
,  // measure 24
00000001
00000000
00000100
00000000
00000010
00000000
00001000
00000001
00001000
00000001
00001000
00000000
00000010
00000000
00000100
00000000
,  // measure 25
00000001
00000000
00000010
00000000
00000100
00000000
00001000
00000001
00001000
00000001
00001000
00000000
00000100
00000000
00000000
00000000
,  // measure 26
00001000
00000000
00000100
00000000
00010000
00000000
00001000
00010000
00000000
00001000
00000000
00000000
00011000
00000000
00000000
00000000
,  // measure 27
00010000
00000000
00001000
00000000
00100000
00000000
00010000
00100000
00000000
00010000
00000000
00000000
10010000
00000000
00000000
00000000
,  // measure 28
10000000
00000000
00100000
10000000
00100000
00000000
10000000
00000000
01000000
00000000
00100000
00000000
00020000
00000000
00000000
00000000
,  // measure 29
00030000
00100000
00100000
00001000
00010000
00010000
00000000
00000000
,  // measure 30
00000100
00000000
00010000
00001000
00010000
00000000
00000100
00000000
00000010
00000000
00000001
00000000
00002000
00000000
00000000
00000000
,  // measure 31
00003010
00000000
00000000
00000000
00000000
00000000
00000000
00000000
00000000
00000000
00000100
00000000
00000100
00000000
00000001
00001000
,  // measure 32
00000010
00000000
00000000
00000010
00000100
00000000
00000000
00000100
00000001
00000000
00000010
00000000
00000100
00000000
00001000
00000000
,  // measure 33
00000100
00000000
00010000
00000000
00000100
00000000
00001000
00000000
00000010
00000000
00000100
00000000
00000001
00001000
00000100
00000000
,  // measure 34
00000000
00000000
00001000
00000000
00000001
00001000
00000100
00000000
00000000
00000000
00001000
00000000
00000001
00001000
00000100
00000000
,  // measure 35
00000000
00010100
00000000
00000100
00010000
00001000
01000000
00010000
,  // measure 36
00100000
00000000
00000000
00100000
00010000
00000000
00000000
00010000
10000000
00000000
00100000
00000000
01000000
00000000
00010000
00000000
,  // measure 37
10000000
00000000
01000000
00000000
10000000
00000000
00010000
00000000
01000000
00000000
00010000
00000000
10000000
01000000
00100000
00000000
,  // measure 38
00000000
00000000
00010000
00000000
10000000
01000000
00100000
00000000
00000000
00000000
00010000
00000000
10000000
01000000
00100000
00000000
,  // measure 39
00000000
00010000
10000000
00100000
01000000
01000000
00010000
00000000
,  // measure 40
02001000
00010000
00100000
03010000
,  // measure 41
10000000
00000000
01000000
00000000
10000000
01000000
00100000
00010000
,  // measure 42
02000000
00000000
03010000
00000000
00100000
00010000
00100000
00001000
,  // measure 43
00020000
00000000
00030100
00000000
00010000
00000100
00001000
00000000
,  // measure 44
00002100
00000000
00003001
00000000
00000000
00001000
00000010
00000100
,  // measure 45
00000002
00000000
00000103
00000000
00000000
00000010
00000100
00000001
,  // measure 46
00002000
00000000
00003100
00020000
00000000
00031000
00010000
00000100
,  // measure 47
00000020
00000000
00000031
00000000
00000010
00000001
00001000
00000000
,  // measure 48
00002010
00000000
00003001
00000100
00000000
00000010
00001000
00000100
,  // measure 49
00020000
00000000
00031000
00000000
00000100
00001000
00010000
00100000
,  // measure 50
20000000
00000000
31000000
10000000
00020000
00000000
01030000
00010000
,  // measure 51
20000000
00000000
30100000
00000000
10000000
00010000
00100000
00001000
,  // measure 52
00102000
00000000
00013000
00000000
00000000
00001000
00010000
00000100
,  // measure 53
00000020
00000000
00000031
00000000
00000000
00000010
00000001
00000100
,  // measure 54
00001000
00000100
00000010
00001000
00000000
00000010
00001000
00000100
,  // measure 55
00000010
00001000
00000010
00000001
00001000
00000010
00000100
00001000
,  // measure 56
00020000
00000000
00031000
00000000
00010000
00001000
00100000
00010000
,  // measure 57
02000000
00000000
03100000
00000000
01000000
00010000
10000000
00100000
,  // measure 58
01000000
01000000
00010000
00010000
00100000
00100000
00001000
00001000
,  // measure 59
00101000
00000000
00000000
00000000
00011000
00000000
00000000
00000000
00010100
00000000
00000100
00000000
00001100
00000000
00001000
00000001
,  // measure 60
00000100
00000000
00000000
00000100
00000010
00000000
00000000
00000010
00001000
00000000
00000010
00000000
00000100
00000000
00000001
00000000
,  // measure 61
00001000
00000000
00000100
00000000
00000010
00000000
00000001
00001000
00000001
00000000
00000100
00000000
00000010
00001000
00000100
00000000
,  // measure 62
00000000
00000000
00001000
00000000
00000010
00001000
00000100
00000000
00000000
00000000
00001000
00000000
00000010
00001000
00000100
00000000
,  // measure 63
00000000
00010000
00000000
00000100
00010000
00001000
00100000
00010000
,  // measure 64
01000000
00000000
00000000
01000000
00100000
00000000
00000000
00100000
10000000
00000000
00100000
00000000
01000000
00000000
00010000
00000000
,  // measure 65
10000000
00000000
01000000
00000000
00100000
00000000
00010000
10000000
00010000
00000000
01000000
00000000
00100000
10000000
01000000
00000000
,  // measure 66
00000000
00000000
10000000
00000000
00100000
10000000
01000000
00000000
00000000
00000000
10000000
00000000
00100000
10000000
01000000
00000000
,  // measure 67
00000000
00100000
00000000
00010000
00100000
00001000
00000000
00000000
;

//---------------dance-single - ----------------
#NOTEDATA:;
#CHARTNAME:;
#STEPSTYPE:dance-single;
#DESCRIPTION:;
#CHARTSTYLE:;
#DIFFICULTY:Medium;
#METER:5;
#RADARVALUES:0.322652,0.416106,0.123063,0.180974,0.000000,270.000000,17.000000,25.000000,0.000000,0.000000,0.000000,0.000000,0.000000,0.322652,0.416106,0.123063,0.180974,0.000000,270.000000,17.000000,25.000000,0.000000,0.000000,0.000000,0.000000,0.000000;
#CREDIT:Ben Speirs;
#NOTES:
0000
0000
0000
0000
,
0000
0000
0000
0000
,
1000
0000
0001
0000
0000
0100
0100
0000
,
0001
0000
1000
0000
0000
0010
0000
0000
,
1001
0000
1000
0000
0100
1000
0001
0000
,
0200
0300
0020
0030
,
1000
0000
0001
0000
0100
0001
1000
0000
,
0020
0030
0200
0300
,
0002
0013
0001
0100
,
0020
1030
0100
0000
,
1000
0100
0010
0001
1000
0000
0000
0000
,
0001
0010
0100
1000
0001
0000
0000
0000
,
0100
0001
1000
1000
,
0010
1000
0001
0000
,
1000
0010
0100
0001
1000
0000
0000
0000
,
0001
0100
0010
1000
0001
0000
0000
0000
,
0200
0000
0310
0000
0100
0000
0001
1000
,
0020
1030
0200
0300
,
2000
0000
3100
0000
1000
0001
0100
0000
,
0020
0130
0002
0003
,
1000
0100
1000
0000
0010
0000
0100
0000
,
0001
1000
0001
0000
0100
0000
0000
0000
,
0001
0010
0001
0010
0001
0000
0000
0000
,
0010
0001
0010
0001
0010
0000
0000
0000
,
0001
0000
0100
0000
0010
1000
0010
0000
,
1000
0000
0001
0000
1000
0100
1000
0000
,
0010
0100
0010
0100
0010
0000
0000
0000
,
0010
0100
0010
0100
0010
0000
0000
0000
,
1000
1000
0100
1000
,
0000
0000
0001
0000
0100
0100
0000
0000
,
0001
0001
1000
0001
,
0100
0000
0000
0000
0000
0010
0010
0100
,
0200
0000
0302
0000
1003
0100
1000
0000
,
0001
0000
1000
0000
0010
0000
1000
0100
,
0000
0000
1000
0100
0000
0000
1000
0001
,
0000
1000
0000
0010
0000
0010
0000
0000
,
1001
0000
1001
0000
0001
1000
0100
0000
,
1000
0000
0001
0000
0100
0000
0001
1000
,
0000
0000
0001
1000
0000
0000
0001
0100
,
0000
0001
0000
1000
0000
0100
0000
0000
,
2100
3001
0000
0001
,
0200
0310
0000
0100
,
0002
0013
0000
0001
,
2000
3100
0000
1000
,
0010
0000
0010
0000
0100
0000
0001
1000
,
0001
0000
1000
0001
,
1000
0000
0100
0000
1000
0000
0010
0100
,
0010
0000
0100
0001
,
2002
0000
3003
0000
1000
0000
0001
0100
,
0001
1000
0001
1000
,
0010
0000
0000
0000
0100
0000
0010
1000
,
0010
1000
0100
0000
,
1100
0000
1001
0000
0000
0000
0001
1000
,
0010
0000
0100
0000
0000
0000
0010
1000
,
0100
0000
1000
0000
0001
0000
0010
0001
,
0100
0001
1000
0000
,
2002
0000
3003
0000
0001
0010
0100
1000
,
0002
0003
0100
0100
,
0101
0010
1010
0001
,
1001
0110
1001
1001
,
2100
0000
3200
0000
1300
0001
1000
0000
,
0010
0000
0100
0000
0001
0000
0100
0010
,
0000
0000
0100
0010
0000
0000
0100
0001
,
0000
1000
0000
0010
1000
0001
0000
0000
,
0101
0000
1001
0000
1000
0100
0010
0000
,
0001
0000
1000
0100
1000
0000
0001
0100
,
0000
0000
0001
0100
0000
0000
0001
1000
,
0000
0010
0000
1000
0000
0001
0000
0000
;

//---------------dance-single - ----------------
#NOTEDATA:;
#CHARTNAME:;
#STEPSTYPE:dance-single;
#DESCRIPTION:;
#CHARTSTYLE:;
#DIFFICULTY:Easy;
#METER:3;
#RADARVALUES:0.185111,0.343309,0.057912,0.086868,0.000000,159.000000,8.000000,12.000000,0.000000,0.000000,0.000000,0.000000,0.000000,0.185111,0.343309,0.057912,0.086868,0.000000,159.000000,8.000000,12.000000,0.000000,0.000000,0.000000,0.000000,0.000000;
#CREDIT:Ben Speirs;
#NOTES:
0000
0000
0000
0000
,
0000
0000
0000
0000
,
0010
0000
0000
0100
,
0001
0000
0000
0000
,
1000
0000
1000
0000
,
0100
0100
0010
0000
,
0001
0000
0001
0000
,
0100
0100
0010
0000
,
2000
3000
0000
0000
,
0001
0000
1000
0000
,
0010
0100
0010
0000
,
0100
0010
0100
0000
,
0002
0003
0000
0000
,
1000
0000
1000
0000
,
0010
0100
0010
0000
,
0100
0010
0100
0000
,
0001
0000
1000
0000
,
0020
0030
0010
0000
,
1000
0000
0001
0000
,
0200
0300
0100
0000
,
0001
0001
0010
0000
,
0001
0001
0010
0000
,
0001
0010
0100
0000
,
0010
0100
1000
0000
,
1000
1000
0010
0000
,
1000
1000
0010
0000
,
1000
0010
0100
0000
,
0010
0100
0001
0000
,
1000
0000
0001
0000
,
0000
0100
0100
0000
,
0001
0000
1000
0000
,
0010
0000
0000
0000
,
1001
0000
1000
0000
,
0010
0100
0001
0000
,
1000
0000
1000
0000
,
1000
0100
1000
0000
,
0001
0000
0100
0000
,
0001
1000
0100
0000
,
0010
0000
0010
0000
,
0010
0001
0100
0000
,
0002
0003
0000
0000
,
2000
3000
0000
0000
,
0020
0030
0000
0000
,
0200
0300
0000
0000
,
0001
0001
0100
0001
,
1000
0000
0000
0000
,
1000
1000
0100
1000
,
0001
0000
0000
0000
,
0010
0010
0001
1000
,
0010
0000
0000
0000
,
0010
0010
1000
0001
,
0010
0000
0000
0000
,
0000
1001
0000
0100
,
0000
1001
0000
0100
,
0001
0000
1000
0000
,
0010
1000
0001
0100
,
0000
1001
0000
0010
,
0000
1001
0000
0010
,
0001
0001
1000
1000
,
0010
0100
0110
1001
,
2002
3003
0001
0000
,
1000
0001
0100
0000
,
0010
0010
0100
0100
,
0010
1000
0100
0000
,
1000
0000
0001
0000
,
0100
0001
1000
0000
,
0010
0010
0100
0100
,
0002
0003
2000
3000
;

//---------------dance-single - ----------------
#NOTEDATA:;
#CHARTNAME:;
#STEPSTYPE:dance-single;
#DESCRIPTION:;
#CHARTSTYLE:;
#DIFFICULTY:Beginner;
#METER:1;
#RADARVALUES:0.102380,0.146589,0.028956,0.000000,0.000000,95.000000,4.000000,0.000000,0.000000,0.000000,0.000000,0.000000,0.000000,0.102380,0.146589,0.028956,0.000000,0.000000,95.000000,4.000000,0.000000,0.000000,0.000000,0.000000,0.000000,0.000000;
#CREDIT:Ben Speirs;
#NOTES:
0000
0000
0000
0000
,
0000
0000
0000
0000
,
1000
0000
0000
0000
,
0001
0000
0000
0000
,
0100
0000
0100
0000
,
0100
0000
0000
0000
,
0010
0000
0010
0000
,
0010
0000
0000
0000
,
1000
0000
0000
0000
,
0001
0000
0000
0000
,
1000
1000
0000
0000
,
0100
0100
0000
0000
,
0100
0000
0000
0000
,
0010
0000
0000
0000
,
0001
0001
0000
0000
,
0001
0001
0000
0000
,
0100
0000
0000
0000
,
0010
0000
0000
0000
,
1000
0000
1000
0000
,
1000
0000
0000
0000
,
0001
0000
0100
0000
,
0001
0000
0000
0000
,
1000
1000
0000
0000
,
1000
1000
0000
0000
,
0001
0000
0100
0000
,
0001
0000
0000
0000
,
1000
1000
0000
0000
,
1000
1000
0000
0000
,
0010
0000
0000
0000
,
0000
0100
0100
0000
,
0001
0000
0000
0000
,
1000
0000
0000
0000
,
1001
0000
0000
0000
,
1000
0000
1000
0000
,
0010
0000
0010
0000
,
0010
0000
0000
0000
,
1001
0000
0000
0000
,
0001
0000
0001
0000
,
0100
0000
0100
0000
,
0100
0000
0000
0000
,
0001
0000
0000
0000
,
0000
0000
0000
0000
,
1000
0000
0000
0000
,
0000
0000
0000
0000
,
0010
0000
0010
0000
,
0010
0000
0000
0000
,
1000
0000
1000
0000
,
0001
0000
0000
0000
,
0100
0000
0100
0000
,
0100
0000
0000
0000
,
0001
0000
0001
0000
,
1000
0000
0000
0010
,
0010
0000
0000
0010
,
0010
0000
0000
0000
,
1000
0000
0000
0000
,
0001
0000
0000
0100
,
0100
0000
0000
0100
,
0100
0000
0000
0000
,
0001
0000
0001
0000
,
1000
0000
1000
0000
,
1001
0000
0000
0000
,
0001
0000
0000
0000
,
0100
0000
0100
0000
,
0100
0000
0000
0000
,
1001
0000
0000
0000
,
1000
0000
0000
0000
,
0010
0000
0010
0000
,
1000
0000
0001
0000
;
