#TITLE:Friends;
#SUBTITLE:;
#ARTIST:Eliza and The Bear;
#TITLETRANSLIT:;
#SUBTITLETRANSLIT:;
#ARTISTTRANSLIT:;
#GENRE:They'll Be There For You;
#CREDIT:;
#BANNER:Friends.png;
#BACKGROUND:Friends-bg.png;
#LYRICSPATH:;
#CDTITLE:cdtitle.png;
#MUSIC:Friends.ogg;
#OFFSET:-0.033000;
#SAMPLESTART:51.720165;
#SAMPLELENGTH:17.959999;
#SELECTABLE:YES;
#BPMS:0.000000=130.000000
;
#STOPS:
;
#BGCHANGES:8.000=Friends.avi=1.000=0=0=1=====,
99999=-nosongbg-=1.000=0=0=0 // don't automatically add -songbackground-
;
#KEYSOUNDS:;
#ATTACKS:;

//---------------dance-single - ----------------
#NOTES:
     dance-single:
     :
     Hard:
     8:
     0.502820,0.646523,0.212822,0.212822,0.155524,378.000000,26.000000,26.000000,0.000000,0.000000,0.000000,0.502820,0.646523,0.212822,0.212822,0.155524,378.000000,26.000000,26.000000,0.000000,0.000000,0.000000:
0000
0000
0000
0000
,
0000
0000
0000
0000
,
0000
0000
0000
0000
,
0000
0000
0000
0000
,
0102
1000
0100
1000
,
0100
0000
1000
0000
0103
0020
0000
0000
,
1030
0100
1000
0100
0010
0001
0010
0001
,
1000
0010
1000
0010
0100
0001
1000
0000
,
2100
0100
0100
3100
,
0102
0100
0103
1001
,
1000
0100
0010
0002
0000
0103
0010
0000
,
0100
0001
0010
0100
0100
1000
1000
0000
,
0012
0010
0010
0013
,
2010
0010
3010
1001
,
0001
0010
0100
2000
0000
3010
0100
0000
,
0010
1000
0100
0010
0010
0001
0001
0000
,
1100
0000
0000
0000
1001
0000
0000
0000
0100
0000
0000
0010
1000
0000
0000
0000
,
0001
0000
0000
0010
0100
0000
0000
0000
1000
0000
0000
0001
0100
0000
0010
0000
,
1000
0000
0000
1000
0000
0000
1000
0000
0100
0000
0010
0000
0100
0000
1000
0000
,
0001
0000
0000
0001
0000
0000
0001
0000
0100
0000
0010
0000
0100
0000
0001
0000
,
0020
1000
0001
1000
,
0032
0000
0100
0000
1003
0100
1000
0000
,
0001
0010
0100
0010
0001
1000
0010
0100
,
0010
1000
0100
0010
0001
0100
0010
1000
,
0101
0000
0010
1000
0010
0000
0000
0000
,
1100
0000
0001
0010
0001
0010
0001
0000
,
0101
0000
0010
1000
0010
0000
0000
0000
,
1100
0000
0000
0000
,
1001
1000
0100
1000
0002
0000
0103
0000
,
0001
0100
0010
1000
0100
0100
0010
0000
,
0011
0010
0100
1000
0020
0000
0130
0000
,
1001
1000
0100
0010
1001
0001
0100
0010
,
1000
0100
0001
0100
2000
0000
3001
0000
,
1000
0010
0100
0001
0001
1000
1000
0000
,
0001
0100
0010
1000
0100
0010
0001
1000
,
0010
0010
0100
0100
0001
0001
1000
1000
,
2100
0001
0001
3001
,
0102
1000
1000
1003
,
2010
0000
0001
0000
3001
0010
0100
0000
,
0012
0000
1000
0000
1003
0010
0100
0000
,
1010
0000
0000
0010
0000
0000
0100
0000
0001
0000
0000
1000
0000
0000
0100
0000
,
1100
0000
0000
0100
0000
0000
0010
0000
0001
0000
0000
1000
0000
0000
0001
0000
,
0101
0000
0000
0100
0000
0000
0010
0000
0010
0000
0000
1000
0000
0000
0100
0000
,
0110
0000
0000
0010
0000
0000
0001
0000
0001
0000
0000
1000
0000
0000
0010
0000
,
0100
0000
0000
0100
0001
0000
0000
0001
1000
0000
0000
1000
0100
0000
0010
0000
,
0002
0000
0103
0010
1000
0200
0010
0000
,
1300
0000
0001
0010
0100
0010
0001
1000
,
0020
0000
0130
0001
0100
0010
1000
0100
,
0020
0000
0031
0010
0100
1000
0001
0000
,
2000
0000
3010
0100
0001
0020
0100
0000
,
0031
0000
1000
0100
0010
0100
1000
0001
,
0200
0000
0310
1000
0010
0100
0001
0010
,
0100
0100
0100
1000
1000
0100
0010
0001
,
1000
0000
0010
0100
0010
0000
0100
0001
0100
0000
0010
1000
0010
0000
1000
0100
,
1000
0000
0001
0010
0001
0000
1000
0010
1000
0000
0001
0000
0010
0000
0100
0000
,
1000
0000
0001
0100
0001
0000
1000
0100
1000
0000
0001
0010
0001
0000
1000
0010
,
1000
0000
0001
1000
0001
0000
0100
0010
0100
0000
0001
0000
1000
0000
0100
0000
,
0010
0000
0001
0100
0001
0000
0001
1000
0001
0000
0001
0010
0001
0000
0001
1000
,
0001
0000
0001
0100
0001
0000
1000
0000
0100
0000
0010
0000
0010
0000
0001
0000
,
1000
0000
1000
0010
1000
0000
1000
0001
1000
0000
1000
0100
1000
0000
1000
0001
,
1000
0000
1000
0010
1000
0000
0001
0000
0010
0000
0100
0000
0100
0000
1000
0000
,
0022
0000
0000
0000
,
0000
0000
0000
0000
,
0000
0000
0000
0033
0000
0000
0000
0000
0000
0000
0000
0000
0000
0000
0000
0000
;

//---------------dance-double - ----------------
#NOTES:
     dance-double:
     :
     Challenge:
     8:
     0.474756,0.594801,0.163709,0.294676,0.114596,350.000000,20.000000,36.000000,0.000000,0.000000,0.000000,0.474756,0.594801,0.163709,0.294676,0.114596,350.000000,20.000000,36.000000,0.000000,0.000000,0.000000:
// measure 0
00000000
00000000
00000000
00000000
,  // measure 1
00000000
00000000
00000000
00000000
,  // measure 2
00000000
00000000
00000000
00000000
,  // measure 3
00000000
00000000
00000000
00000000
,  // measure 4
00102000
00010000
00100000
00010000
,  // measure 5
00100000
00000000
00010000
00000000
00103000
00020000
00000000
00000000
,  // measure 6
01030000
00100000
01000000
00100000
10000000
00100000
10000000
00100000
,  // measure 7
10000000
01000000
00100000
00010000
01000000
00010000
00100000
00001000
,  // measure 8
00020000
00000100
00030100
00010100
,  // measure 9
00002000
00100000
00103000
00011000
,  // measure 10
00001000
00010000
00000100
00001000
00000020
00000000
00000130
00000000
,  // measure 11
00000001
00000100
00000010
00001000
00001000
00000100
00010000
00000000
,  // measure 12
00020100
00001000
00030100
00011000
,  // measure 13
00102000
00010000
00103000
00011000
,  // measure 14
00010000
00001000
00100000
00010000
01000000
00100000
20000000
00000000
,  // measure 15
30100000
10000000
01000000
00100000
00010000
01000000
00200000
00000000
,  // measure 16
10300000
00000000
01000000
00000000
10000000
00000000
00000000
00000000
00010000
00000000
00000000
01000000
00100000
00000000
00000000
00000000
,  // measure 17
10000000
00000000
00000000
01000000
00100000
00000000
00000000
00000000
00010000
00000000
00000000
10000000
00100000
00000000
10000000
00000000
,  // measure 18
01000000
00100000
01000000
00100000
00010000
10000000
00100000
01000000
,  // measure 19
00010000
10000000
00010000
10000000
00100000
01000000
00010000
00100000
,  // measure 20
00002000
00023000
00030200
00002300
,  // measure 21
00003020
00000000
00000030
00000000
00000100
00000001
00001000
00000000
,  // measure 22
00000010
00000000
00000000
00000010
00000000
00000000
00000010
00000000
00001000
00000000
00000100
00000000
00000010
00000000
00000001
00000000
,  // measure 23
00000100
00000000
00000000
00000100
00000000
00000000
00000100
00000000
00000010
00000000
00001000
00000000
00000100
00000000
00010000
00000000
,  // measure 24
00002000
00100000
00100000
00100000
,  // measure 25
00023000
00000100
00000100
00000100
,  // measure 26
00032000
01000000
01000000
01000000
,  // measure 27
00020000
00000000
00000000
00033000
,  // measure 28
00001100
00001000
00000010
00000100
00000002
00000000
00001003
00000000
,  // measure 29
00000010
00000100
00000010
00001000
00001000
00000100
00000200
00000000
,  // measure 30
00010300
00000100
00010000
00001000
00200000
00000000
00301000
00000000
,  // measure 31
00011000
00010000
00001000
00100000
00110000
00010000
01000000
00100000
,  // measure 32
10000000
01000000
10000000
00010000
10000000
00100000
02000000
00000000
,  // measure 33
03010000
00100000
10000000
00100000
00010000
01000000
00200000
00000000
,  // measure 34
10300000
01000000
10000000
01000000
00100000
00010000
00100000
00010000
,  // measure 35
00100000
00001000
00100000
00001000
00010000
00000100
00001000
00000010
,  // measure 36
00000200
00000001
00000010
00001000
,  // measure 37
00000302
00000010
00001000
00000100
,  // measure 38
00002003
00000000
00000000
00000000
00003100
00000010
00000001
00000000
,  // measure 39
00002100
00000000
00003010
00000000
00001000
00000100
00010000
00000000
,  // measure 40
00001000
00000000
00000000
00001000
00000000
00000000
00100000
00000000
00010000
00000000
00000000
00010000
00000000
00000000
01000000
00000000
,  // measure 41
00100000
00000000
00000000
00100000
00000000
00000000
10000000
00000000
01000000
00000000
00000000
01000000
00000000
00000000
00100000
00000000
,  // measure 42
00010000
00000000
00000000
00010000
00000000
00000000
10000000
00000000
00100000
00000000
00000000
00100000
00000000
00000000
01000000
00000000
,  // measure 43
00010000
00000000
00000000
00010000
00000000
00000000
00100000
00000000
00001000
00000000
00000000
00001000
00000000
00000000
00010000
00000000
,  // measure 44
00000100
00000000
00000000
00000100
00000000
00000000
00001000
00000000
00000010
00000000
00000000
00000010
00000000
00000000
00000100
00000000
,  // measure 45
00000001
00001000
00000001
00001000
00000100
00000010
00002001
00000000
,  // measure 46
00003010
00000000
00001000
00000000
00000001
00000010
00000100
00000000
,  // measure 47
00010000
00000100
00010000
00000100
00001000
00000010
00000100
00000001
,  // measure 48
00002000
00000000
00003010
00000000
00001000
00000100
00000010
00000000
,  // measure 49
00001001
00000000
00000010
00000100
00000010
00000100
00001002
00000000
,  // measure 50
00000103
00000000
00000010
00000000
00001000
00000100
00010000
00000000
,  // measure 51
00001000
00010000
00001000
00010000
00001000
00100000
00010000
01000000
,  // measure 52
01100000
00100000
10000000
01000000
00100000
00100000
00010000
00000000
,  // measure 53
11000000
00000000
01000000
10000000
01000000
00000000
10000000
01000000
10000000
00000000
01000000
10000000
01000000
00000000
10000000
01000000
,  // measure 54
20000000
00000000
30100000
00000000
10000000
01000000
00100000
00010000
,  // measure 55
01000000
00000000
00010000
01000000
00010000
00000000
01000000
00010000
01000000
00000000
00010000
01000000
00010000
00000000
01000000
00010000
,  // measure 56
02000000
03001000
00020000
00030100
,  // measure 57
00001000
00000000
00000100
00001000
00000100
00000000
00001000
00000100
00001000
00000000
00000100
00001000
00000100
00000000
00001000
00000100
,  // measure 58
00002000
00003010
00000200
00000301
,  // measure 59
00001001
00001100
00001001
00000101
,  // measure 60
00001000
00000000
00000100
00000000
00010000
00000000
00000100
00000000
00100000
00000000
00001000
00010000
00001000
00000000
00010000
00000000
,  // measure 61
00000200
00000000
00000000
00000000
,  // measure 62
00000000
00000000
00000000
00000000
,  // measure 63
00000000
00000000
00000000
00000300
00000000
00000000
00000000
00000000
00000000
00000000
00000000
00000000
00000000
00000000
00000000
00000000
;

//---------------dance-single - ----------------
#NOTES:
     dance-single:
     :
     Medium:
     5:
     0.313386,0.465496,0.171894,0.384716,0.000000,200.000000,21.000000,47.000000,0.000000,0.000000,0.000000,0.313386,0.465496,0.171894,0.384716,0.000000,200.000000,21.000000,47.000000,0.000000,0.000000,0.000000:
0000
0000
0000
0000
,
0000
0000
0000
0000
,
0000
0000
0000
0000
,
0000
0000
0000
0000
,
2200
0000
0000
3300
,
0010
0000
1000
0000
0001
0020
0000
0000
,
0031
1000
0010
0000
,
0001
1000
0001
0000
1000
0100
1000
0000
,
0012
1000
1003
0000
,
2010
0001
3001
0000
,
0200
0310
1000
0001
,
0020
0000
0130
0000
1000
0100
0010
0000
,
2100
0000
3001
0001
,
0102
0000
1000
1003
,
0010
1000
0010
0000
2000
0000
3000
0000
,
0001
0010
0001
0000
0200
0000
0310
0000
,
2000
0100
3100
0000
,
0002
0100
0103
0000
,
1001
1000
0010
0100
,
0110
0100
0001
0010
,
0001
1000
0001
1000
0100
0000
0010
0000
,
0001
0000
1000
0000
,
0010
0010
0100
0100
,
0001
0100
0001
0100
0010
1000
0010
0000
,
0102
0000
0000
0003
,
2100
0000
0000
3000
,
0012
0000
0000
0003
,
2002
0000
0000
3003
,
0010
1000
0100
0000
,
0010
0000
1000
0000
0100
0010
0001
0000
,
0100
0010
1000
0000
,
0100
0010
1000
0000
,
0100
0010
0001
0000
1000
0000
0000
0000
,
0010
0000
0100
0000
0001
1000
0001
0000
,
0010
0001
1000
0000
0100
0000
0000
0000
,
1000
0001
1000
0001
0100
0001
0100
0000
,
2020
0000
0000
3030
,
0002
0000
0000
0003
,
0200
0300
0010
1000
,
0200
0300
0010
0001
,
1000
1000
0001
0001
,
0100
0100
0010
0010
,
2000
0000
3000
0000
0001
0010
0001
0000
,
1000
0100
0010
0000
,
0002
0000
0000
0003
,
1100
0000
0000
0010
0000
1001
0000
0000
,
0100
0001
1000
0000
,
1010
0000
0000
0001
0000
0011
0000
0000
,
1000
0000
0000
0001
0000
0011
0000
0000
,
0100
0000
0000
0010
0000
1001
0000
0000
,
1000
0001
0100
0000
,
0010
0000
0000
1000
0000
1100
0000
0000
,
0010
0000
0000
1000
0000
1100
0000
0000
,
0002
2003
3020
0230
,
0302
2003
3200
0320
,
0031
1000
0001
1000
0020
0000
0030
0000
,
1000
0001
1000
0001
0020
0000
0030
0000
,
0002
2003
3200
0320
,
0032
2003
3020
0230
,
0301
1000
0001
1000
0200
0000
0300
0000
,
1000
0001
1000
0001
0200
0000
0300
0000
,
2002
0000
0000
0000
,
0000
0000
0000
0000
,
0000
0000
0000
3003
0000
0000
0000
0000
0000
0000
0000
0000
0000
0000
0000
0000
;

//---------------dance-single - ----------------
#NOTES:
     dance-single:
     :
     Easy:
     2:
     0.176572,0.232748,0.049113,0.139153,0.000000,128.000000,6.000000,17.000000,0.000000,0.000000,0.000000,0.176572,0.232748,0.049113,0.139153,0.000000,128.000000,6.000000,17.000000,0.000000,0.000000,0.000000:
0000
0000
0000
0000
,
0000
0000
0000
0000
,
0000
0000
0000
0000
,
0000
0000
0000
0000
,
2002
0000
0000
3003
,
0010
0000
0100
0100
,
0002
0000
0000
0003
,
2000
0000
0000
3000
,
0010
0010
0010
0000
,
0010
0010
0010
0000
,
2000
3000
0100
0000
,
0020
0030
0001
0000
,
0100
0100
0100
0000
,
0100
0100
0100
0000
,
0002
0003
1000
0000
,
2000
3000
0001
0000
,
0100
0010
0100
0000
,
0001
0100
0001
0000
,
2000
3000
0010
0010
,
0200
0300
0001
0000
,
1000
0100
1000
0000
,
0001
0000
1000
0000
,
0010
0010
0010
0000
,
0100
0100
0100
0000
,
1001
0000
0000
0000
,
0100
0000
0000
0010
,
0010
0000
0000
0000
,
1000
0000
0000
0000
,
1001
0000
0001
0000
,
0100
0100
0010
0010
,
1000
0000
0001
0000
,
1000
0100
0010
0001
,
1000
0000
0001
0000
,
0100
0100
0100
0000
,
0010
0010
0010
0000
,
1000
0000
0001
0000
,
1001
0000
0000
0000
,
1000
0000
1000
0000
,
0020
0030
0000
0000
,
0200
0300
0000
0000
,
0001
0000
1000
0000
,
0010
0000
0100
0100
,
0001
0000
1000
0000
,
0200
0000
0300
0000
,
2000
0000
0000
3000
,
0001
0000
0010
0010
,
0000
0000
0001
0000
,
1000
0000
0010
0010
,
0100
0000
0010
0010
,
0100
0000
0001
0001
,
0000
0000
1000
0000
,
0100
0000
0010
0010
,
0200
0000
0000
0300
,
1001
0000
1000
0100
,
0100
0000
0010
0000
,
0001
0000
1000
0010
,
0010
0000
0100
0000
,
0001
0000
1000
0010
,
0010
0000
0100
0000
,
0001
0000
1000
0100
,
0100
0000
0010
0000
,
2002
0000
0000
0000
,
0000
0000
0000
0000
,
0000
0000
0000
3003
0000
0000
0000
0000
0000
0000
0000
0000
0000
0000
0000
0000
;

//---------------dance-single - ----------------
#NOTES:
     dance-single:
     :
     Beginner:
     1:
     0.100564,0.149794,0.040927,0.000000,0.000000,81.000000,5.000000,0.000000,0.000000,0.000000,0.000000,0.100564,0.149794,0.040927,0.000000,0.000000,81.000000,5.000000,0.000000,0.000000,0.000000,0.000000:
0000
0000
0000
0000
,
0000
0000
0000
0000
,
0000
0000
0000
0000
,
0000
0000
0000
0000
,
0100
0000
0000
0000
,
0010
0000
0010
0000
,
1000
0000
0000
0000
,
0001
0000
0000
0000
,
0010
0000
0000
0000
,
0010
0000
0000
0000
,
0001
0000
0001
0000
,
1000
0000
1000
0000
,
0010
0000
0000
0000
,
0010
0000
0000
0000
,
1000
0000
1000
0000
,
0001
0000
0001
0000
,
0100
0000
0000
0000
,
0010
0000
0000
0000
,
1000
1000
0000
0000
,
0001
0001
0000
0000
,
0010
0000
0000
0000
,
0100
0000
0000
0000
,
1000
0000
1000
0000
,
0001
0000
0001
0000
,
0100
0000
0000
0000
,
0010
0000
0000
0000
,
1000
0000
0000
0000
,
0001
0000
0000
0000
,
1001
0000
0000
0000
,
1000
0000
0100
0000
,
0100
0000
0000
0000
,
1000
0000
0001
0000
,
0100
0000
0000
0000
,
0001
0000
0010
0000
,
0010
0000
0000
0000
,
0001
0000
1000
0000
,
0010
0000
0000
0000
,
0100
0000
0000
0000
,
0001
0000
0000
0000
,
1000
0000
0000
0000
,
0100
0000
0100
0000
,
0100
0000
0000
0000
,
0010
0000
0010
0000
,
0010
0000
0000
0000
,
0001
0000
0000
0000
,
1001
0000
0000
0000
,
1000
0000
0000
0000
,
0010
0000
0010
0000
,
0010
0000
0010
0000
,
0100
0000
0000
0000
,
0001
0000
0000
0000
,
1000
0000
1000
0000
,
1000
0000
1000
0000
,
1001
0000
0000
0000
,
0010
0010
0000
0000
,
1000
0000
0000
0000
,
0100
0100
0000
0000
,
1001
0000
0000
0000
,
0001
0001
0000
0000
,
0100
0000
0000
0000
,
0010
0010
0000
0000
,
1001
0000
0000
0000
;
