#VERSION:0.82;
#TITLE:Far Away;
#SUBTITLE:;
#ARTIST:12 Stones;
#TITLETRANSLIT:;
#SUBTITLETRANSLIT:;
#ARTISTTRANSLIT:;
#GENRE:I'm Feeling This!;
#ORIGIN:;
#CREDIT:;
#BANNER:Far Away.png;
#BACKGROUND:Far Away-bg.png;
#PREVIEWVID:;
#JACKET:jacket.png;
#CDIMAGE:;
#DISCIMAGE:;
#LYRICSPATH:;
#CDTITLE:;
#MUSIC:Far Away.ogg;
#OFFSET:0.288000;
#SAMPLESTART:44.981178;
#SAMPLELENGTH:17.959999;
#SELECTABLE:YES;
#BPMS:0.000=195.975;
#STOPS:;
#DELAYS:;
#WARPS:;
#TIMESIGNATURES:0.000=4=4;
#TICKCOUNTS:0.000=4;
#COMBOS:0.000=1;
#SPEEDS:0.000=1.000=0.000=0;
#SCROLLS:0.000=1.000;
#FAKES:;
#LABELS:0.000=Song Start;
#BGCHANGES:4.000=Far Away.avi=1.000=0=0=1=====,
99999=-nosongbg-=1.000=0=0=0 // don't automatically add -songbackground-
;
#KEYSOUNDS:;
#ATTACKS:
;

//---------------dance-single - ----------------
#NOTEDATA:;
#CHARTNAME:;
#STEPSTYPE:dance-single;
#DESCRIPTION:;
#CHARTSTYLE:;
#DIFFICULTY:Hard;
#METER:9;
#RADARVALUES:0.770127,0.769833,0.171684,0.439512,0.006867,696.000000,25.000000,64.000000,0.000000,0.000000,0.000000,0.000000,0.000000,0.770127,0.769833,0.171684,0.439512,0.006867,696.000000,25.000000,64.000000,0.000000,0.000000,0.000000,0.000000,0.000000;
#CREDIT:Ben Speirs;
#NOTES:
0000
0000
0000
0000
,
0000
0000
0000
0000
,
0000
0000
0000
0000
,
0000
0000
0000
0000
,
1000
0100
1000
0100
1000
0100
0020
0000
,
0032
0000
2003
0000
3010
0100
0010
0100
,
0010
0100
0002
0000
2003
0000
3200
0000
,
1300
0010
0100
0010
1000
0010
0200
0000
,
0320
0000
2030
0000
3001
0010
0100
0010
,
0001
0010
0200
0000
0310
0001
2000
0000
,
3010
0100
0001
0100
0010
1000
0200
0000
,
0320
0000
0032
0000
1003
1100
0000
0000
,
1100
0000
1001
0000
0001
0010
0100
1000
,
0001
0000
0001
0100
0000
0100
0010
0000
,
1000
0010
0100
0001
2000
0000
0000
3200
,
0000
0310
0011
0001
,
1010
0000
1000
0010
0000
0010
0100
0000
,
0001
0100
0010
1000
0002
0000
0000
0023
,
0000
0000
0130
0000
1000
0001
1001
0000
,
0001
0100
0010
0100
0001
0000
1001
0000
,
0001
1000
0100
0000
0010
0000
0010
0001
,
0000
0001
1000
0000
0010
0100
0010
0000
,
0100
0001
0100
0010
1000
0010
0100
0001
,
0100
0010
1000
0100
0010
0001
0010
0100
,
1000
0100
0010
0001
0010
0100
2000
0000
,
3001
0000
0000
1100
0000
0000
0001
0100
,
0000
0100
0000
0010
1000
0100
0000
0100
,
0000
0010
0001
1000
0000
1000
0000
0000
,
1010
0000
0000
1001
0000
0000
1000
0100
,
0000
0100
0000
0010
0001
0100
0000
0100
,
0000
0001
1000
0010
0000
0010
0000
0000
,
1100
0000
0000
1001
0000
0000
0001
0010
,
0000
0010
0000
0100
1000
0001
0000
0001
,
0000
0100
0010
1000
0000
1000
0000
0001
,
0010
0100
0010
0100
0010
0001
0100
0010
,
0100
0010
0100
0010
1000
0100
0010
0100
,
0010
0100
1000
0010
0100
0010
0100
0010
,
2000
0000
3010
1000
0100
1000
0002
0000
,
0203
0000
0310
0000
1000
0100
1000
0100
,
0010
0001
1000
0010
0100
0001
1000
0000
,
0001
0100
0001
0100
0001
0100
0020
0000
,
2030
0000
3002
0000
1003
0100
0010
0001
,
0100
0001
2000
0000
3010
1000
0002
0000
,
0103
0010
0100
0010
1000
0010
0200
0000
,
0302
0000
2003
0000
3100
1000
0100
1000
,
0001
0010
0100
1000
0100
1000
0001
0010
,
0001
0100
0100
0010
1000
0100
0020
0000
,
0032
0000
1003
0000
0001
0100
0010
1000
,
0100
0010
0001
0100
0010
0100
0001
1000
,
0020
0000
0000
1000
0000
0000
0130
0000
,
0000
0000
0000
0000
0200
0000
0000
0001
,
0000
0310
0000
0000
,
2000
0000
0000
0010
0000
0000
3001
0000
,
0000
0000
0000
0000
0002
0000
0000
0100
,
0000
1003
0000
0000
,
1000
0100
1000
0100
1000
0100
0010
0000
,
0001
1000
0010
0000
0100
0001
0100
0001
,
0100
0001
1000
0000
0010
1000
0001
0000
,
0010
0100
0010
0100
0010
0100
1000
0000
,
0001
1000
0010
0000
0100
0010
0100
0010
,
0100
0010
1000
0000
0010
1000
0001
0000
,
1000
0000
1000
0100
0000
0100
0010
0000
,
0010
0001
0000
0001
0100
0000
0100
0010
,
0000
0010
1000
0000
1000
0001
0000
0001
,
0010
0000
0100
0010
0000
0001
0100
0000
,
0010
0100
0000
0001
2000
0000
3200
0000
,
0320
0000
0031
0010
0100
1000
0001
0000
,
1000
0100
1000
0100
0010
0000
0001
0100
,
0001
0100
0010
0000
1000
0010
1000
0010
,
0100
0000
0001
0010
0001
0010
0100
0000
,
1000
0100
0010
0001
0100
0010
1000
0001
,
0010
0100
1000
0001
0100
0010
0100
0010
,
1000
0100
0010
0001
0010
0001
1000
0010
,
0200
0000
0000
0001
0000
0000
0310
0100
,
0001
0100
0010
1000
0200
0000
0000
0010
,
0000
0000
1300
0100
0010
0001
1000
0010
,
1010
0000
0000
0001
0000
0000
0011
0000
,
0000
1000
0000
0000
1100
0000
1001
0000
,
0011
0000
1000
0001
1000
0100
0010
0000
,
1001
0001
0010
0100
0010
0001
1000
1000
,
0010
1000
0001
1000
0010
0010
0100
0001
,
1000
0010
0200
0000
0000
0000
0000
0000
,
0302
0000
0103
0001
0010
0001
2000
0000
,
3020
0000
0130
0000
0001
0010
0001
0010
,
0100
1000
0001
0100
0010
1000
0001
0000
,
1000
0010
1000
0010
1000
0010
0200
0000
,
0302
0000
2003
0000
3001
0010
0100
1000
,
0010
1000
0002
0000
0103
0001
2000
0000
,
3010
0100
0010
0100
0001
0100
0020
0000
,
2030
0000
3002
0000
0013
0001
0010
0001
,
1000
0100
0010
0001
0010
0001
1000
0100
,
1000
0010
0010
0100
0001
0010
0200
0000
,
2300
0000
3001
0000
1000
0010
0100
0001
,
0010
0100
1000
0010
0100
0010
1000
0001
,
0100
1000
0100
1000
0100
1000
0200
0000
,
0302
0000
2003
0000
3100
0010
0001
1000
,
0010
0100
0001
1000
0100
0010
0001
0000
,
1000
0010
0001
0010
0001
0010
2000
0000
,
3002
0000
0023
0000
0031
0010
0100
1000
,
0002
0000
1003
0100
0010
0001
2000
0000
,
3001
0100
0010
1000
0100
0010
0001
1000
,
0010
1000
0001
0010
0100
1000
0001
0100
,
1000
0100
0010
1000
0100
0010
0002
0000
,
1003
0010
1000
0001
0010
0100
0010
0001
,
1000
0010
0100
0001
1000
1000
0010
1000
,
0100
0010
0001
0001
0100
0010
0100
0001
,
1000
0000
1100
0100
0010
0000
0110
0010
,
0001
0000
0011
0001
1000
0000
1001
1000
,
0010
0000
1010
1000
0001
0000
1001
0000
,
0001
0100
1000
0100
0001
0000
1000
0100
,
0001
0100
1000
0000
0001
0100
1000
0100
,
0001
0000
1000
0100
0001
0100
1000
0000
,
0001
0010
0100
1000
0001
0100
0010
0010
,
1000
0100
0010
0001
0100
0010
1000
0001
,
0010
0100
1000
1000
0010
1000
0100
0010
,
0001
0000
1000
0000
0010
0000
0100
0000
0001
0000
1000
0100
1000
0000
0010
0000
,
1000
0000
0100
0000
0010
0000
0001
1000
0001
0000
0100
0000
0010
0000
1000
0000
,
0100
0010
0001
0100
1000
0100
0010
1000
,
1100
0000
0000
0000
;

//---------------dance-double - ----------------
#NOTEDATA:;
#CHARTNAME:;
#STEPSTYPE:dance-double;
#DESCRIPTION:;
#CHARTSTYLE:;
#DIFFICULTY:Challenge;
#METER:9;
#RADARVALUES:0.759336,0.810351,0.412043,0.425777,0.000000,652.000000,60.000000,62.000000,0.000000,0.000000,0.000000,0.000000,0.000000,0.759336,0.810351,0.412043,0.425777,0.000000,652.000000,60.000000,62.000000,0.000000,0.000000,0.000000,0.000000,0.000000;
#CREDIT:Ben Speirs;
#NOTES:
// measure 0
00000000
00000000
00000000
00000000
,  // measure 1
00000000
00000000
00000000
00000000
,  // measure 2
00000000
00000000
00000000
00000000
,  // measure 3
00000000
00000000
00000000
00000000
,  // measure 4
00000001
00000100
00000000
00000100
00000000
00000100
00001000
00000000
,  // measure 5
00010000
00000000
01000000
00000000
10000000
01000000
00000000
01000000
,  // measure 6
00000000
01000000
00010000
00000000
00001000
00000000
00000100
00000000
,  // measure 7
00000001
00000100
00001000
00000100
00000001
00000000
00002000
00000000
,  // measure 8
00003200
00000000
00020300
00000000
00031000
01000000
00001000
00010000
,  // measure 9
00001000
00020000
02030000
23000000
,  // measure 10
30010000
00100000
01000000
10000000
00010000
01000000
00200000
00000000
,  // measure 11
20300000
00000000
30020000
00000000
10030000
01000000
00000000
01000000
,  // measure 12
00100000
00010000
00110000
10010000
,  // measure 13
10000000
01000000
10000000
01000000
10000000
01000000
00200000
00000000
,  // measure 14
00000000
00000000
00310000
00100000
,  // measure 15
01000000
10000000
00100000
01000000
,  // measure 16
00010000
10000000
00010000
10000000
00010000
10000000
00200000
00000000
,  // measure 17
00000000
00000000
01300000
00010000
,  // measure 18
00100000
00001000
00010000
00000100
,  // measure 19
00001000
00000001
00001000
00000001
00001000
00000001
00000200
00000000
,  // measure 20
00000000
00000000
00000310
00001000
,  // measure 21
00000100
00000010
00000001
00001000
,  // measure 22
00000010
00000100
00000010
00000100
00000010
00000100
00000001
00000100
,  // measure 23
00000001
00000100
00000001
00000100
00000001
00001000
00000001
00001000
,  // measure 24
00000001
00001000
00000100
00001000
00000100
00000010
00000001
00000000
,  // measure 25
00001100
00000000
00000000
00001001
00000000
00000000
00000001
00000100
,  // measure 26
00000000
00000100
00000000
00000100
00000010
00001000
00000000
00001000
,  // measure 27
00000000
00001000
00000100
00010000
00000000
00010000
00000000
00000000
,  // measure 28
00011000
00000000
00000000
00101000
00000000
00000000
00100000
00010000
,  // measure 29
00000000
00010000
00000000
00010000
01000000
00100000
00000000
00100000
,  // measure 30
00000000
00100000
10000000
01000000
00000000
01000000
00000000
00000000
,  // measure 31
11000000
00000000
00000000
10010000
00000000
00000000
10000000
01000000
,  // measure 32
00000000
01000000
00000000
00100000
00010000
01000000
00000000
01000000
,  // measure 33
00000000
00100000
10000000
01000000
00000000
01000000
00000000
10000000
,  // measure 34
00100000
01000000
00100000
01000000
00100000
01000000
00010000
00100000
,  // measure 35
00010000
00100000
00010000
00100000
00001000
00010000
00001000
00010000
,  // measure 36
00001000
00010000
00000100
00001000
00000010
00000100
00000001
00000000
,  // measure 37
00001000
00000100
00001000
00000100
00001000
00000100
00000020
00000000
,  // measure 38
00000032
00000000
00002003
00000000
00003010
00000100
00000010
00000100
,  // measure 39
00000010
00000100
00000001
00000000
00001000
00000100
00002000
00000000
,  // measure 40
00003001
00000010
00000100
00001000
00000001
00000100
00000020
00000000
,  // measure 41
00002030
00003200
00020300
00032000
,  // measure 42
00103000
00010000
02000000
00000000
03100000
10000000
00020000
00000000
,  // measure 43
10030000
01000000
10000000
01000000
10000000
01000000
00200000
00000000
,  // measure 44
00320000
00000000
20030000
00000000
30100000
01000000
00100000
01000000
,  // measure 45
00100000
01000000
00010000
00000000
10000000
01000000
00200000
00000000
,  // measure 46
00310000
00100000
01000000
10000000
00010000
01000000
00200000
00000000
,  // measure 47
10300000
00100000
02000000
00000000
03010000
10000000
00000000
10000000
,  // measure 48
01000000
00000000
00110000
00000000
01000000
00100000
00010000
00000000
,  // measure 49
11000000
00000000
00000000
01010000
00000000
00000000
10010000
00000000
,  // measure 50
00000000
00000000
00000000
00000000
00110000
00000000
00000000
00101000
,  // measure 51
00000000
00011000
00000000
00000000
,  // measure 52
00010100
00000000
00000000
00011000
00000000
00000000
00001001
00000000
,  // measure 53
00000000
00000000
00000000
00000000
00000101
00000000
00000000
00001010
,  // measure 54
00000000
00000000
00001001
00000000
00001000
00000100
00000010
00000000
,  // measure 55
00000001
00000100
00000001
00000100
00000001
00000100
00000010
00001000
,  // measure 56
00000010
00001000
00000010
00001000
00000100
00010000
00000100
00010000
,  // measure 57
00000100
00010000
00001000
00100000
00001000
00100000
00001000
00100000
,  // measure 58
00010000
01000000
00010000
01000000
00010000
01000000
00100000
10000000
,  // measure 59
00100000
10000000
00100000
10000000
00010000
00100000
01000000
10000000
,  // measure 60
00100000
01000000
00010000
00100000
00001000
00010000
00000100
00001000
,  // measure 61
00000001
00000101
00001001
00001000
,  // measure 62
00001100
00001001
00000001
00000011
,  // measure 63
00001001
00001000
00001010
00001001
,  // measure 64
00000001
00000000
00000100
00001000
00000000
00001000
00010000
00000000
,  // measure 65
00010000
01000000
00000000
01000000
10000000
00000000
10000000
00010000
,  // measure 66
00000000
00010000
00100000
01000000
10000000
00010000
01000000
00000000
,  // measure 67
10000000
10100000
10010000
00010000
,  // measure 68
00110000
10010000
10000000
11000000
,  // measure 69
10010000
00010000
01010000
10010000
,  // measure 70
10000000
00000000
00100000
00010000
00000000
00010000
00001000
00000000
,  // measure 71
00001000
00000010
00000000
00000010
00000001
00000000
00000001
00001000
,  // measure 72
00000000
00001000
00000100
00000010
00000001
00001000
00000010
00000000
,  // measure 73
00000100
00000001
00000100
00000010
00001000
00000100
00000010
00000010
,  // measure 74
00000001
00000100
00000010
00001000
00000100
00001000
00000010
00000100
,  // measure 75
00000001
00001000
00000010
00000010
00001000
00000100
00010000
00001000
,  // measure 76
00010000
00001000
00100000
00010000
01000000
00010000
10000000
10000000
,  // measure 77
00100000
01000000
00010000
00100000
01000000
00100000
00010000
10000000
,  // measure 78
00100000
01000000
00010000
00010000
10000000
00100000
01000000
00000000
,  // measure 79
00010000
10000000
00100000
01000000
00010000
10000000
01000000
01000000
,  // measure 80
00100000
00010000
10000000
00100000
01000000
01000000
00010000
10000000
,  // measure 81
00100000
01000000
20020000
00000000
00000000
00000000
30030000
00000000
,  // measure 82
00010000
00100000
00010000
00100000
00010000
00100000
02000000
00000000
,  // measure 83
23000000
00000000
30020000
00000000
01030000
00100000
01000000
00100000
,  // measure 84
01000000
00100000
10000000
00000000
00010000
00100000
00020000
00000000
,  // measure 85
10030000
01000000
00100000
00010000
10000000
00100000
02000000
00000000
,  // measure 86
03020000
00230000
00302000
00023000
,  // measure 87
00030100
00001000
00000020
00000000
00000130
00000001
00002000
00000000
,  // measure 88
00003001
00000010
00000001
00000010
00000001
00000010
00000200
00000000
,  // measure 89
00002300
00000000
00003002
00000000
00000103
00000010
00000100
00000010
,  // measure 90
00000100
00000010
00001000
00000000
00000001
00000010
00000200
00000000
,  // measure 91
00001300
00000100
00000010
00000001
00001000
00000010
00000200
00000000
,  // measure 92
00000301
00000100
00000020
00000000
00001030
00000100
00001000
00000001
,  // measure 93
00000010
00000001
00001000
00000000
00000010
00001000
00000001
00000000
,  // measure 94
00001001
00001100
00000002
00000203
,  // measure 95
00000310
00001000
00000100
00000000
00001100
00000000
00010100
00000000
,  // measure 96
00001000
00010000
00000100
00010000
00001000
00100000
00010000
00000000
,  // measure 97
00110000
20010000
30100000
20000000
,  // measure 98
30020000
00000000
02030000
00000000
03100000
10000000
00100000
10000000
,  // measure 99
01000000
00100000
00020000
00000000
10030000
00100000
01000000
00000000
,  // measure 100
01010000
00000000
10010000
00000000
01000000
10000000
00010000
00000000
,  // measure 101
00110000
00000000
10010000
00000000
10000000
10000000
01000000
00100000
,  // measure 102
00010000
10000000
00100000
00000000
01000000
00010000
10000000
00000000
,  // measure 103
00100000
10000000
00100000
10000000
01000000
00100000
00020000
00000000
,  // measure 104
01030000
00000000
00020000
00000000
00130000
00010000
00100000
00010000
,  // measure 105
10000000
00000000
00100000
10000000
00100000
10000000
00010000
00000000
,  // measure 106
01000000
00000000
01010000
01000000
00100000
00000000
10100000
10000000
,  // measure 107
01000000
00000000
01100000
00100000
00010000
00000000
00101000
00100000
,  // measure 108
00001000
00000000
00011000
00010000
00000100
00000000
00001100
00001000
,  // measure 109
00000010
00000000
00001010
00001000
00000001
00000000
00000101
00000100
,  // measure 110
00000010
00000000
00001010
00001000
00000001
00000000
00000011
00000010
,  // measure 111
00000100
00000000
00001100
00000100
00000010
00000000
00001001
00000000
,  // measure 112
00000001
00000100
00001000
00000100
00001000
00000100
00000002
00000000
,  // measure 113
00000013
00000000
00000200
00000000
00001300
00000100
00010000
00000100
,  // measure 114
00001000
00000100
00020000
00000000
00032000
00000000
00203000
00000000
,  // measure 115
00310000
01000000
00100000
01000000
00010000
01000000
00100000
00100000
,  // measure 116
10000000
01000000
00100000
00010000
10000000
10000000
00100000
01000000
,  // measure 117
00010000
00100000
00001000
00100000
00001000
00010000
00000100
00000010
,  // measure 118
00000001
00000000
00000000
00000000
;

//---------------dance-single - ----------------
#NOTEDATA:;
#CHARTNAME:;
#STEPSTYPE:dance-single;
#DESCRIPTION:;
#CHARTSTYLE:;
#DIFFICULTY:Medium;
#METER:6;
#RADARVALUES:0.466982,0.526728,0.247226,0.309032,0.000000,395.000000,36.000000,45.000000,0.000000,0.000000,0.000000,0.000000,0.000000,0.466982,0.526728,0.247226,0.309032,0.000000,395.000000,36.000000,45.000000,0.000000,0.000000,0.000000,0.000000,0.000000;
#CREDIT:Ben Speirs;
#NOTES:
0000
0000
0000
0000
,
0000
0000
0000
0000
,
0000
0000
0000
0000
,
0000
0000
0000
0000
,
1000
0100
0000
0100
0000
0100
1000
0000
,
0010
0000
0100
0000
0001
0010
0000
0010
,
0000
0010
0001
0000
0100
0000
0010
0000
,
1000
0001
0000
0001
0000
0001
1000
0000
,
0010
0000
0100
0000
0001
1000
0000
1000
,
0000
1000
0001
0000
1000
0000
0001
0000
,
0100
0010
0000
0010
0000
0000
1010
0000
,
0001
0000
0010
0000
0001
0100
0000
0100
,
0010
0000
1000
0000
0100
0010
0100
0000
,
2000
0000
0000
0100
0000
0000
3001
0000
,
0000
0000
0000
0000
0001
0000
0000
1000
,
0000
0010
0010
1000
,
0002
0000
0000
0100
0000
0000
1003
0000
,
0000
0000
0000
0000
0001
0000
0000
1000
,
0000
0010
0010
1000
,
0100
0000
0000
0100
0000
0000
1001
0000
,
0000
0000
0001
0010
,
0100
1000
0010
0100
,
0001
0000
0000
1000
0000
0000
1001
0000
,
0000
0010
0000
0000
0100
0000
0000
0110
,
0000
2002
0000
3003
,
0010
1000
0010
0200
,
0300
0001
2000
3000
,
0100
0020
0030
0001
,
1000
0010
1000
0002
,
0003
0100
0020
0030
,
1000
0200
0300
1000
,
0001
0010
0001
2000
,
3000
0010
0200
0300
,
0001
2000
3000
0100
,
0010
0000
0000
0011
0000
0000
0001
0000
,
0000
0101
0000
0000
1000
0000
0000
1100
,
0000
2002
0000
3003
,
0010
1000
0000
1000
0000
1000
0010
0000
,
0100
0000
0001
0000
2000
0000
0000
3200
,
0000
0000
0320
0000
0000
0032
0000
0000
,
0103
0010
0000
0010
0000
0010
0100
0000
,
0001
0010
0100
0100
,
1000
0001
2000
0000
0000
0000
3000
0000
,
0001
0100
0000
0100
0000
0100
0010
0000
,
1000
0000
0001
0000
0020
0000
0000
0032
,
0000
0000
2003
0000
0000
3200
0000
0000
,
1300
0001
0000
0001
0000
0001
1000
0000
,
0010
0100
0002
2003
,
3010
0000
0100
0000
0001
1000
0001
0000
,
0200
0000
0000
0010
0000
0000
0310
0000
,
0000
0000
0000
0000
0020
0000
0000
1000
,
0000
1030
0000
0000
,
2000
0000
0000
0100
0000
0000
3100
0000
,
0000
0000
0000
0000
0200
0000
0000
0010
,
0000
0310
0001
1000
,
1001
0000
0000
1001
0000
0000
0010
0000
,
1000
0000
0010
0000
1001
0000
0000
1001
,
0000
0010
0001
0010
,
1100
0000
0000
1100
0000
0000
0010
0000
,
1000
0000
0010
0000
0101
0000
0000
0101
,
0000
1000
0001
1000
,
0010
0000
0000
0100
0000
0000
0110
0000
,
0000
1001
0000
0000
1000
0000
0000
0100
,
0000
0000
1100
0000
0000
0101
0000
0000
,
1000
0000
0000
0100
0000
0000
0010
0000
,
0000
0001
0000
0000
1000
0000
0010
0000
,
1000
0001
0100
0010
,
1000
0000
0000
1010
0000
0000
0001
0000
,
0000
0011
0000
0000
1000
0000
0000
1100
,
0000
0000
0001
0000
0000
0101
0000
0000
,
1000
0000
0100
1000
0000
0000
0001
0000
,
0100
0001
0000
0000
1000
0000
0010
0000
,
0100
0001
1000
0100
,
0020
0000
0000
0031
,
0010
0100
2000
0000
,
0000
3010
1000
0001
,
0100
0100
0010
1000
,
1000
0100
0010
0010
,
0001
2000
0000
3000
,
0001
0100
0010
1000
,
0001
0010
0100
1000
,
0010
0100
0010
0000
0000
0000
0000
0000
,
0100
0001
0000
0001
0000
0001
0100
0000
,
0010
0000
1000
0000
0002
0000
0000
0023
,
0000
0000
0230
0000
0000
2300
0000
0000
,
3010
0100
0000
0100
0000
0100
0010
0000
,
1000
0100
0010
0010
,
0001
1000
0002
0000
0000
0000
0003
0000
,
1000
0010
0000
0010
0000
0010
0100
0000
,
0001
0000
1000
0000
0200
0000
0000
2300
,
0000
0000
3002
0000
0000
0023
0000
0000
,
0031
1000
0000
1000
0000
1000
0001
0000
,
0100
0010
2000
3002
,
0103
0000
0010
0000
1000
0001
1000
0000
,
0001
0100
0010
1000
,
0100
0000
0010
0000
0001
0000
0000
1000
,
0000
0000
1001
0000
0000
1001
0000
0000
,
1000
0010
0100
0010
,
1000
0100
0010
0010
,
0001
1000
0002
0000
0000
0000
0003
0000
,
1000
0100
1000
0001
,
0010
0000
0001
0000
1000
0000
0000
1010
,
0000
0000
0001
0000
0000
0011
0000
0000
,
1000
0100
1000
0001
,
0010
0001
0100
0100
,
0010
1000
1000
0001
,
0100
0110
0000
0110
,
0001
1000
0100
0110
,
0000
0110
0010
0001
,
1000
0100
1000
0100
0000
0000
1000
0000
,
0001
0000
0100
0000
0001
1000
0001
1000
,
0000
0001
0100
0010
,
1000
0000
1000
0001
0000
0000
1001
0000
,
0000
0000
0000
0000
0001
0000
0001
0100
,
0000
0101
0000
0000
,
1000
0010
1000
0000
0100
0000
0010
0000
,
0001
0000
1000
0000
0010
0100
0010
0000
,
1000
0100
0010
0001
,
1001
0000
0000
0000
;

//---------------dance-single - ----------------
#NOTEDATA:;
#CHARTNAME:;
#STEPSTYPE:dance-single;
#DESCRIPTION:;
#CHARTSTYLE:;
#DIFFICULTY:Easy;
#METER:4;
#RADARVALUES:0.209946,0.364658,0.075541,0.041204,0.000000,197.000000,11.000000,6.000000,0.000000,0.000000,0.000000,0.000000,0.000000,0.209946,0.364658,0.075541,0.041204,0.000000,197.000000,11.000000,6.000000,0.000000,0.000000,0.000000,0.000000,0.000000;
#CREDIT:Ben Speirs;
#NOTES:
0000
0000
0000
0000
,
0000
0000
0000
0000
,
0000
0000
0000
0000
,
0000
0000
0000
0000
,
1000
0000
0000
0001
,
0000
0000
0100
0000
,
0000
0010
0000
0000
,
1000
0000
0000
0100
,
0000
0000
0010
0000
,
0000
0001
0000
0000
,
1000
0000
0000
1000
,
0000
0000
0001
0000
,
0000
0001
0000
0000
,
0100
0000
0000
0100
0000
0000
0000
0000
,
0000
0000
0010
0000
,
0000
1000
0000
0000
,
0001
0000
0000
0001
0000
0000
0000
0000
,
0000
0000
1000
0000
,
0000
0001
0000
0000
,
0100
0000
0000
0100
0000
0000
0000
0000
,
0000
0000
0001
0000
,
0000
1000
0000
0000
,
0010
0000
0000
0010
0000
0000
0000
0000
,
0000
0000
1000
0000
,
0000
0001
0000
0000
,
1001
0000
0000
1000
,
0000
0000
0100
0000
,
0000
0010
0000
0000
,
0001
0000
0000
0100
,
0000
0000
0010
0000
,
0000
1000
0000
0000
,
0001
0000
0000
1000
,
0000
0000
0010
0000
,
0000
0100
0000
0000
,
0001
0000
0000
0001
0000
0000
0001
0000
,
0000
0000
0000
0000
1000
0000
0000
1000
,
0000
1000
0000
0000
,
2002
0000
0000
3003
,
0000
0000
0000
0000
1000
0000
0000
1000
,
0000
0000
0001
0000
0000
0001
0000
0000
,
0100
0000
0000
0000
,
0000
0000
0001
0010
,
0100
1000
0000
0000
,
0010
0000
0000
1000
,
0000
0000
0000
0000
0001
0000
0000
0001
,
0000
0000
1000
0000
0000
1000
0000
0000
,
0010
0000
0000
1000
,
0000
0000
0001
0000
,
0000
0100
0100
0100
,
0010
0000
0000
1001
,
0000
0000
0010
0000
,
0000
1001
0000
0000
,
0010
0000
0000
1001
,
0000
0000
0010
0000
,
0000
1001
0000
0000
,
1000
1000
0100
0100
,
0000
0000
1000
0000
,
0000
0001
0000
0000
,
0100
0100
0001
0001
,
0000
0000
1000
0000
,
0000
0001
0000
0000
,
0010
0000
0000
0010
0000
0000
0010
0000
,
0000
0000
0000
0000
0001
0000
0000
0001
,
0000
0001
0000
0000
,
1000
0000
0000
1000
,
0000
0000
0001
0100
,
0010
1000
0000
0000
,
0001
0000
0000
0001
0000
0000
0001
0000
,
0000
0000
0000
0000
1000
0000
0000
1000
,
0000
1000
0000
0000
,
0010
0000
0000
0010
,
0000
0000
1000
0010
,
0100
0001
0000
0000
,
1000
0000
0000
0100
,
0000
0000
0010
0000
,
0000
0001
0000
0000
,
0100
0000
0000
0100
0000
0000
0010
0000
,
0000
0010
0000
0000
1000
0000
0000
1000
,
0000
0001
0000
0000
,
1000
0000
0000
0001
,
0000
0000
0100
0000
,
0000
0220
0000
0330
,
2002
0000
0000
3003
,
0000
0000
0000
0000
0001
0000
0000
0001
,
0000
0000
1000
0000
0000
1000
0000
0000
,
0010
0000
0000
0000
,
0000
0000
1000
0100
,
0010
0001
0000
0000
,
0100
0000
0000
0001
,
0000
0000
0000
0000
1000
0000
0000
1000
,
0000
0000
0001
0000
0000
0001
0000
0000
,
0100
0000
0000
0001
,
0000
0000
1000
0000
,
0000
0010
0010
0010
,
0100
0000
0000
0001
,
0100
0001
0100
0000
,
0000
0001
0000
0000
,
1000
0000
0000
1000
,
0010
1000
0010
0000
,
0000
0100
0000
0000
,
0001
0000
0000
1000
,
0100
1000
0100
0000
,
0000
0010
0000
0000
,
0001
0000
0000
1000
,
0000
0000
0010
0000
,
0000
0100
0000
0000
,
0000
0001
0000
0001
,
0000
1000
0000
1000
,
0000
0010
0000
0010
,
0100
0001
0000
0001
,
0000
1000
0000
1000
,
0000
0010
0000
1000
,
0100
0000
0000
1001
,
0000
0000
0010
0000
,
0000
1001
0000
0000
,
1000
0100
1000
0100
,
0000
0000
0010
0001
,
0010
0001
0000
0000
,
1001
0000
0000
0000
;

//---------------dance-single - ----------------
#NOTEDATA:;
#CHARTNAME:;
#STEPSTYPE:dance-single;
#DESCRIPTION:;
#CHARTSTYLE:;
#DIFFICULTY:Beginner;
#METER:2;
#RADARVALUES:0.120670,0.202588,0.034337,0.000000,0.000000,118.000000,5.000000,0.000000,0.000000,0.000000,0.000000,0.000000,0.000000,0.120670,0.202588,0.034337,0.000000,0.000000,118.000000,5.000000,0.000000,0.000000,0.000000,0.000000,0.000000,0.000000;
#CREDIT:Ben Speirs;
#NOTES:
0000
0000
0000
0000
,
0000
0000
0000
0000
,
0000
0000
0000
0000
,
0000
0000
0000
0000
,
0001
0000
0000
0000
,
0000
0000
1000
0000
,
0000
0000
0000
0000
,
0010
0000
0000
0000
,
0000
0000
0100
0000
,
0000
0000
0000
0000
,
0001
0000
0000
0000
,
0000
0000
1000
0000
,
0000
0000
0000
0000
,
0010
0000
0000
0000
,
0000
0000
1000
0000
,
0000
1000
0000
0000
,
0100
0000
0000
0000
,
0000
0000
0010
0000
,
0000
0010
0000
0000
,
0001
0000
0000
0000
,
0000
0000
1000
0000
,
0000
1000
0000
0000
,
0010
0000
0000
0000
,
0000
0000
0100
0000
,
0000
0000
0000
0000
,
1001
0000
0000
0000
,
0000
0000
0001
0000
,
0000
0001
0000
0000
,
0010
0000
0000
0000
,
0000
0000
0001
0000
,
0000
0001
0000
0000
,
1000
0000
0000
0000
,
0000
0000
1000
0000
,
0000
1000
0000
0000
,
0010
0000
0000
0010
,
0000
0000
0010
0000
,
0000
0010
0000
0000
,
1001
0000
0000
0000
,
0000
0000
1000
0000
,
0000
0100
0000
0000
,
0100
0000
0000
0000
,
0000
0000
0010
0000
,
0000
0010
0000
0000
,
0001
0000
0000
0000
,
0000
0000
1000
0000
,
0000
1000
0000
0000
,
0010
0000
0000
0000
,
0000
0000
0100
0000
,
0000
0100
0000
0000
,
0001
0000
0000
0000
,
0000
0000
1000
0000
,
0000
0000
0000
0000
,
0001
0000
0000
0000
,
0000
0000
1000
0000
,
0000
0000
0000
0000
,
0010
0010
0000
0000
,
0000
0000
1000
0000
,
0000
1000
0000
0000
,
0100
0100
0000
0000
,
0000
0000
0010
0000
,
0000
0010
0000
0000
,
0001
0000
0000
0000
,
0000
0000
1000
0000
,
0000
0000
0000
0000
,
0010
0010
0000
0000
,
0000
0000
0010
0010
,
0000
0000
0000
0000
,
1000
0000
0000
0000
,
0000
0000
0001
0000
,
0000
0000
0000
0000
,
0100
0100
0000
0000
,
0000
0000
0100
0100
,
0000
0000
0000
0000
,
0001
0000
0000
0000
,
0000
0000
1000
0000
,
0000
0000
0000
0000
,
0010
0000
0000
0010
,
0000
0000
0010
0000
,
0000
0010
0000
0000
,
1001
0000
0000
0000
,
0000
0000
0000
0100
,
0100
0100
0000
0000
,
1001
0000
0000
0000
,
0000
0000
1000
0000
,
0000
0100
0000
0000
,
0010
0000
0000
0000
,
0000
0000
0001
0000
,
0000
0001
0000
0000
,
1000
0000
0000
0000
,
0000
0000
0001
0000
,
0000
0100
0000
0000
,
0010
0000
0000
0000
,
0000
0000
1000
0000
,
0000
1000
0000
0000
,
1001
0000
0000
0000
,
0000
0000
0001
0000
,
0000
1000
0000
0000
,
0010
0000
0000
0000
,
0000
0000
1000
0000
,
0000
0000
0000
0000
,
0001
0000
0000
0000
,
0000
0000
1000
0000
,
0000
0100
0000
0000
,
0010
0000
0000
0000
,
0000
0000
0001
0000
,
0001
0001
0000
0000
,
0000
1000
0000
1000
,
0000
0000
0000
0001
,
0000
0001
0000
0000
,
0000
0100
0000
0100
,
0000
0000
0000
0010
,
0000
0010
0000
0000
,
1000
0000
0000
0001
,
0000
0000
1000
0000
,
0000
0001
0000
0000
,
0100
0000
0000
0100
,
0000
0000
0010
0000
,
0000
0010
0010
0000
,
1000
0000
0000
0000
;
