#TITLE:Elastic Heart;
#SUBTITLE:[ANOTHER];
#ARTIST:Sia;
#TITLETRANSLIT:;
#SUBTITLETRANSLIT:;
#ARTISTTRANSLIT:;
#GENRE:Symbolism;
#CREDIT:;
#BANNER:Elastic Heart.png;
#BACKGROUND:Elastic Heart-bg.png;
#LYRICSPATH:;
#CDTITLE:;
#MUSIC:../Elastic Heart/Elastic Heart.ogg;
#OFFSET:-1.170000;
#SAMPLESTART:99.023842;
#SAMPLELENGTH:13.714000;
#SELECTABLE:YES;
#BPMS:0.000000=130.000000
;
#STOPS:
;
#BGCHANGES:4.000=../Elastic Heart/Elastic Heart.mp4=1.000=0=0=1===CrossFade_Faster==,
99999=-nosongbg-=1.000=0=0=0 // don't automatically add -songbackground-
;
#KEYSOUNDS:;
#ATTACKS:;

//---------------dance-single - ----------------
#NOTES:
     dance-single:
     :
     Challenge:
     11:
     0.743607,0.929150,0.153526,0.029243,0.796871,687.000000,21.000000,4.000000,0.000000,0.000000,0.000000,0.743607,0.929150,0.153526,0.029243,0.796871,687.000000,21.000000,4.000000,0.000000,0.000000,0.000000:
// measure 0
0000
0000
0000
0000
,  // measure 1
0000
0000
0000
0000
,  // measure 2
0000
0000
0000
0000
,  // measure 3
0000
0000
0000
0000
,  // measure 4
1000
0100
0010
0001
1000
0000
1000
0000
0001
0010
0100
1000
0001
0000
0001
0000
,  // measure 5
0100
0000
0010
0010
1000
0010
0100
0001
,  // measure 6
0010
0000
0100
0000
1000
0000
0001
0000
0100
0010
0100
0010
1000
0000
0000
0000
,  // measure 7
0010
0000
1000
0100
0010
0100
1000
0001
,  // measure 8
0100
0000
0001
0010
0001
0000
1000
0000
0001
0100
0001
0100
0010
0000
0000
0000
,  // measure 9
1000
0000
0010
0100
0010
1000
0100
0010
,  // measure 10
0001
1000
0001
0000
0100
0000
0010
0000
1000
0100
1000
0100
1000
0000
0000
0000
,  // measure 11
0010
0000
0100
0010
1000
0100
0010
0001
,  // measure 12
1000
0001
1000
0001
1000
0001
1000
0000
0001
0000
0100
0010
0100
0000
0010
0000
,  // measure 13
1000
0000
0001
0010
0100
1000
0001
0101
,  // measure 14
1000
0000
1100
0000
0001
0000
0101
0000
1000
0000
0010
0100
0001
0000
0000
0000
,  // measure 15
1000
0000
0001
0010
0100
1000
0001
1000
,  // measure 16
0010
0100
0010
0000
1000
0000
0100
0000
0010
0001
0010
0001
1000
0000
0000
0000
,  // measure 17
0001
0000
0000
0000
0100
0000
0010
0000
1000
0000
0001
0000
0100
0000
0001
1000
,  // measure 18
0001
0000
0100
0000
0010
0000
1000
0000
0001
0010
0100
1000
0001
0000
0000
0000
,  // measure 19
0100
0000
0001
1000
0001
0100
0010
1000
,  // measure 20
0001
0000
0100
0010
0100
0000
0001
0000
1000
0100
1000
0100
1000
0000
0001
0000
,  // measure 21
0100
0000
0000
0000
0010
0000
1000
0000
0001
0010
0001
0010
0100
1000
0100
1000
,  // measure 22
0010
0100
0010
0100
0001
1000
0001
1000
0100
0010
0100
0010
0100
0010
0100
0010
,  // measure 23
0001
0000
1000
0010
0100
0001
0010
0100
,  // measure 24
1000
0000
0001
0100
0010
1000
0001
0010
,  // measure 25
1001
0000
0000
0000
0100
0000
0001
0000
1000
0100
1000
0100
0010
0001
0010
0001
,  // measure 26
0100
0010
0100
0010
1000
0001
1000
0001
0010
0100
0010
0100
0010
0100
0010
0100
,  // measure 27
1000
0000
1000
0001
0000
0001
0100
0000
0010
0000
0010
0100
0000
0100
0001
0000
,  // measure 28
1000
0000
0000
0000
0000
0000
0001
0000
0000
0010
0000
0000
0100
0000
0000
0000
0000
0000
1000
0000
0000
0000
0000
0000
0001
0000
0010
0000
0001
0000
0010
0000
0001
0000
0010
0000
0001
0000
0000
0000
0100
0000
0000
0000
0010
0000
0000
0000
,  // measure 29
1010
0000
0000
0000
1000
0010
0100
0001
0010
0100
1000
0001
1000
0000
0000
0000
,  // measure 30
0001
0000
0000
0000
0100
0001
0010
0100
1000
0001
0100
0010
1000
0000
0000
0000
,  // measure 31
0001
0000
0010
0100
1000
0001
0100
0010
,  // measure 32
1000
0000
0001
0010
0100
0000
1000
0000
0001
0000
0100
0000
0010
0000
0000
0000
,  // measure 33
1001
0000
0000
0000
0001
0100
0010
1000
0100
0010
0001
1000
0001
0000
0000
0000
,  // measure 34
1000
0000
0000
0000
0010
1000
0100
0010
0001
1000
0010
0100
0001
0000
0000
0000
,  // measure 35
1000
0000
0100
0010
0001
1000
0010
0100
,  // measure 36
0001
0000
1000
0100
0010
0000
0001
0000
1000
0000
0010
0000
0100
0000
0010
0000
,  // measure 37
1010
0000
0001
0010
0001
0100
0010
1000
0100
0010
0100
1000
0001
0100
0010
1000
,  // measure 38
0100
0000
0000
0010
0000
0000
0100
0000
0000
1000
0000
0000
0001
0000
0000
0100
0000
0000
0010
0000
0000
1000
0000
0000
0100
0000
0000
0010
0000
0000
0001
0000
0000
1000
0000
0000
0010
0000
0100
0000
0010
0000
0100
0000
0010
0000
0100
0000
,  // measure 39
0001
0000
1000
0010
0001
1000
0100
0001
,  // measure 40
1000
0000
0001
0010
1000
0001
0100
1000
,  // measure 41
0001
0000
1000
0100
1000
0010
0100
0001
0010
0100
0010
0001
1000
0010
0100
0001
,  // measure 42
0010
0000
0000
0100
0000
0000
0010
0000
0000
0001
0000
0000
1000
0000
0000
0010
0000
0000
0100
0000
0000
0001
0000
0000
0010
0000
0000
0100
0000
0000
1000
0000
0000
0001
0000
0000
0100
0000
0010
0000
0100
0000
0010
0000
0100
0000
0010
0000
,  // measure 43
1000
0000
0001
0100
1000
0001
0010
1000
,  // measure 44
0001
0000
1000
0100
0001
1000
0010
0001
,  // measure 45
1000
0000
0010
0100
0110
0010
1000
0100
,  // measure 46
0010
0000
0011
0100
1010
0000
0011
0000
,  // measure 47
1001
0001
0100
0010
0000
0000
0000
0000
,  // measure 48
1010
0000
0000
0000
0011
0000
0000
0000
1001
0000
0100
0010
0100
0000
0001
0000
,  // measure 49
1000
0000
0001
0000
0010
0100
1000
0001
,  // measure 50
1000
0000
0110
1010
1001
0011
1001
0000
,  // measure 51
0100
0000
0010
1000
1001
0001
0010
0000
,  // measure 52
0001
0000
0000
1000
0000
0000
0001
0000
0000
0000
0000
0000
0100
0000
0000
0010
0000
0000
0100
0000
0000
0000
0000
0000
0001
0000
1000
0000
0001
0000
1000
0000
0001
0000
1000
0000
0001
0000
0000
0000
0100
0000
0000
0000
0010
0000
0000
0000
,  // measure 53
1000
0001
0010
0001
0100
0010
1000
0100
0010
0100
1000
0001
0100
0010
1000
0100
,  // measure 54
0010
0000
0000
0001
0000
0000
1000
0000
0000
0001
0000
0000
0100
0000
0000
0010
0000
0000
1000
0000
0000
0100
0000
0000
0010
0000
0000
0001
0000
0000
1000
0000
0000
0010
0000
0000
0100
0000
0001
0000
0100
0000
0001
0000
0100
0000
0001
0000
,  // measure 55
1000
0000
0000
0000
0010
0000
0100
0001
1000
0000
0100
0000
0010
0000
0001
0000
,  // measure 56
1000
0000
0000
0000
0000
0000
0001
0000
0000
0010
0000
0000
0100
0000
0000
0000
0000
0000
1000
0000
0000
0000
0000
0000
0001
0000
0000
0000
0000
0000
0100
0000
0000
0000
0000
0000
0010
0000
1000
0000
0010
0000
1000
0000
0010
0000
1000
0000
,  // measure 57
0001
1000
0100
1000
0010
0100
0001
0010
0100
0010
0001
1000
0010
0100
0001
0010
,  // measure 58
0100
0000
0000
1000
0000
0000
0001
0000
0000
1000
0000
0000
0010
0000
0000
0100
0000
0000
0001
0000
0000
0010
0000
0000
0100
0000
0000
1000
0000
0000
0001
0000
0000
0100
0000
0000
0010
0000
1000
0000
0010
0000
1000
0000
0010
0000
1000
0000
,  // measure 59
0001
0000
0000
0000
0100
0000
0010
1000
0001
0000
0010
0000
0100
0000
1000
0000
,  // measure 60
0001
0000
0000
0000
0000
0000
1000
0000
0000
0100
0000
0000
0010
0000
0000
0000
0000
0000
0001
0000
0000
0000
0000
0000
1000
0000
0000
0000
0000
0000
0010
0000
0000
0000
0000
0000
0100
0000
0001
0000
0100
0000
0001
0000
0100
0000
0001
0000
,  // measure 61
1000
0000
0000
0000
0001
0010
0001
0010
0100
1000
0100
1000
0001
0100
0001
0100
,  // measure 62
0010
0000
0000
1000
0000
0000
0010
0000
0000
1000
0000
0000
0001
0000
0000
0010
0000
0000
0001
0000
0000
0010
0000
0000
0100
0000
0000
1000
0000
0000
0100
0000
0000
1000
0000
0000
0001
0000
0010
0000
0100
0000
1000
0000
0010
0000
0100
0000
,  // measure 63
0001
0000
0000
0000
0100
0000
0010
1000
0001
0000
1000
0000
0100
0010
0001
0000
,  // measure 64
1000
0000
0000
0000
0000
0000
0001
0000
0000
0100
0000
0000
0010
0000
0000
0000
0000
0000
1000
0000
0000
0000
0000
0000
0001
0000
0000
0010
0000
0000
0100
0000
0000
0000
0000
0000
0010
0000
0001
0000
0010
0000
0001
0000
0010
0000
0001
0000
,  // measure 65
1000
0000
0000
0000
1000
0100
1000
0100
0010
0001
0010
0001
1000
0010
1000
0010
,  // measure 66
0100
0000
0000
0001
0000
0000
0100
0000
0000
0001
0000
0000
1000
0000
0000
0100
0000
0000
1000
0000
0000
0100
0000
0000
0010
0000
0000
0001
0000
0000
0010
0000
0000
0001
0000
0000
1000
0000
0100
0000
0010
0000
0001
0000
0100
0000
0010
0000
,  // measure 67
1000
0000
0000
0000
0010
0000
0100
0001
1000
0000
0001
0000
0010
0100
1000
0000
,  // measure 68
0001
0000
0000
0000
0000
0000
1000
0000
0000
0010
0000
0000
0100
0000
0000
0000
0000
0000
0001
0000
0000
0000
0000
0000
1000
0000
0000
0100
0000
0000
0010
0000
0000
0000
0000
0000
0100
0000
1000
0000
0100
0000
1000
0000
0100
0000
1000
0000
,  // measure 69
0001
0000
0000
0100
0010
0000
1000
0000
,  // measure 70
0200
0000
0000
0320
0000
0000
0032
0000
,  // measure 71
0200
0000
0000
0000
,  // measure 72
0000
0000
0000
0000
0000
0303
0000
0000
;
