#TITLE:Don't Take The Money;
#SUBTITLE:;
#ARTIST:Bleachers;
#TITLETRANSLIT:;
#SUBTITLETRANSLIT:;
#ARTISTTRANSLIT:;
#GENRE:Pop-Rock;
#CREDIT:;
#BANNER:Don't Take The Money.png;
#BACKGROUND:Don't Take The Money-bg.png;
#LYRICSPATH:;
#CDTITLE:;
#MUSIC:Don't Take The Money.ogg;
#OFFSET:0.000000;
#SAMPLESTART:43.632973;
#SAMPLELENGTH:13.714000;
#SELECTABLE:YES;
#BPMS:0.000000=110.000000
;
#STOPS:
;
#BGCHANGES:3.750=Don't Take The Money.avi=1.000=0=0=1=====,
99999=-nosongbg-=1.000=0=0=0 // don't automatically add -songbackground-
;
#KEYSOUNDS:;
#ATTACKS:;

//---------------dance-single - ----------------
#NOTES:
     dance-single:
     :
     Hard:
     8:
     0.478780,0.479819,0.239909,0.079970,0.298069,461.000000,428.000000,33.000000,11.000000,0.000000,0.000000,0.478780,0.479819,0.239909,0.079970,0.298069,461.000000,428.000000,33.000000,11.000000,0.000000,0.000000:
0000
0000
0000
0000
,
0000
0000
0000
0000
,
1000
0100
0000
0100
0000
0000
1000
0000
0000
0001
0000
0000
1000
0000
0010
0000
,
0100
0000
0000
0001
0000
0000
0100
0000
0010
0000
0100
0000
0001
0000
0010
0000
,
0200
0000
1000
0000
0310
0100
1000
0010
,
0200
0000
0001
0000
0310
0100
0001
0010
,
0002
0000
0100
0000
0013
0001
0100
0010
,
2000
0000
0100
0000
3010
1000
0100
0010
,
0012
0000
0103
0000
0001
0100
0010
1000
,
2100
3001
0102
1003
,
2001
0000
0010
0000
0100
0000
3010
1000
,
0001
1000
0001
0000
1000
0100
0010
1100
,
0000
0010
1000
0101
0000
0010
0001
1010
,
0000
1000
0100
0011
0000
0010
0100
1001
,
0000
1000
0010
0101
0000
1000
1000
0110
,
0000
0001
0001
0110
0000
1000
0001
1010
,
0000
0100
0001
1100
0000
0010
0001
1010
,
0000
0000
0100
0000
0010
0000
1001
0000
0000
0001
0100
0000
0001
0000
0101
0000
,
0000
1000
0100
1100
0000
0001
0010
0011
,
0001
0000
0000
1000
0000
0000
0010
0000
0000
0100
0000
0000
0001
1000
0001
1000
,
0010
0000
0000
0000
1010
0000
0000
0000
0001
0000
0100
0000
0100
0000
0010
1000
,
0000
0000
0001
0000
0001
0000
1000
0100
0000
0000
1000
0000
1000
0000
0100
1000
,
0010
0000
0000
0000
0101
0000
0000
0000
1000
0000
0100
0000
0100
0000
0010
0001
,
0000
0000
1000
0000
1000
0000
0001
1000
0000
0000
0010
0000
0010
0000
1000
0010
,
0100
0000
0000
0000
0110
0000
0000
0000
0001
0000
0100
0000
0100
0000
0001
1000
,
0000
0000
0010
0000
0010
0000
1000
0001
0000
0000
1000
0000
1000
0000
0100
1000
,
0001
0000
0001
0100
0000
0100
0010
0000
0010
1000
0000
1000
0001
0000
0000
0000
,
1000
0000
1000
0100
0000
0100
0010
0000
0010
0000
0010
0000
0001
1000
0001
1000
,
0010
0000
0000
0000
1010
0000
0000
0000
0001
0000
1000
0000
0010
0000
1000
0100
,
1000
0000
0010
0000
0100
0000
0001
0100
0001
0000
1000
0000
0001
0000
0010
0001
,
1000
0000
0000
0000
1100
0000
0000
0000
0001
0000
1000
0000
0100
0000
0010
0100
,
0010
0000
0001
0000
1000
0000
0010
1000
0010
0000
1000
0000
0001
0000
0100
0001
,
1000
0000
0000
0000
1100
0000
0000
0000
0001
0000
1000
0000
0100
0000
0010
0100
,
0010
0000
0001
0000
1000
0000
0010
1000
0010
0000
1000
0000
0001
0000
0100
0010
,
1000
0000
1000
0001
0000
0001
0010
0000
0010
0001
0000
0001
0100
0000
0000
0000
,
0001
0000
0001
0100
0000
0100
0010
0000
1000
0000
1000
0000
0001
1000
0001
1000
,
0010
0100
0000
0000
0001
0000
0100
0000
0010
0000
1000
0000
0100
0000
0100
0000
,
1000
0000
0000
0000
0100
0000
1000
0000
0010
0000
0000
0100
0000
0000
0110
0000
,
1000
0000
0000
0000
0010
0000
1000
0000
0100
1000
0100
0000
0010
0000
0001
0000
,
1000
0000
0000
0000
0001
0000
1000
0000
0010
0000
0000
0100
0000
0000
0101
0000
,
0100
0000
0000
0000
0010
0000
0100
0000
0001
1000
0001
0000
1000
0000
0001
0000
,
0010
0000
0000
0000
0001
0000
0010
0000
0100
0000
0000
1000
0000
0000
1100
0000
,
0100
0000
0000
0000
0010
0000
0100
0000
1000
0100
1000
0000
0010
0000
1000
0000
,
0001
0000
0000
0000
0100
0000
0001
0000
1000
0000
0000
0010
0000
0000
0100
0000
,
0202
0000
0000
0000
0303
0000
0000
0000
0000
0000
0001
0000
0001
0000
0100
0001
,
0000
0000
1000
0000
1000
0000
0100
1000
0000
0000
0001
0000
0001
0000
0010
0001
,
0000
0000
1000
0000
0000
0000
0000
0000
0000
0000
0001
0000
0001
0000
1000
0010
,
0000
0000
1000
0000
1000
0000
0001
0100
0000
0000
0001
0000
0001
0000
1000
0100
,
0000
0000
1000
0000
0000
0000
0000
0000
0000
0000
0100
0000
0100
0000
1000
0001
,
0000
0000
1000
0000
1000
0000
0001
0100
0000
0000
0001
0000
0001
0000
0100
0010
,
0100
0000
0000
0001
0000
0000
1000
0000
0000
0010
0000
0000
1001
0000
0000
0000
,
0001
0000
0001
1000
0000
0000
0010
0000
0100
0000
0100
0000
0001
1000
0001
1000
,
0010
0000
0000
0000
0101
0000
0000
0000
1000
0000
0001
0000
0100
0000
0010
1000
,
0100
0000
0010
0000
0001
0000
0100
0001
0010
0000
0100
0000
1000
0000
0010
1000
,
0001
0000
0000
0000
1001
0000
0000
0000
1000
0000
0010
0000
0100
0000
0010
1000
,
0100
0000
0010
0000
0001
0000
1000
0100
0010
0000
0001
0000
1000
0000
0010
1000
,
0001
0000
0000
0000
0101
0000
0000
0000
1000
0000
0001
0000
0100
0000
0010
1000
,
0100
0000
0010
0000
0001
0000
1000
0001
0100
0000
0010
0000
1000
0000
0001
0010
,
0100
0000
0100
1000
0000
1000
0010
0000
0010
0100
0000
0100
0001
0000
0000
0000
,
0100
0000
0100
0001
0000
0001
1000
0000
2000
0000
0000
3000
0001
0100
0001
0100
,
0010
0000
0000
0000
;

//---------------dance-double - ----------------
#NOTES:
     dance-double:
     :
     Challenge:
     8:
     0.427890,0.436199,0.225369,0.109050,0.243544,412.000000,381.000000,31.000000,15.000000,0.000000,0.000000,0.427890,0.436199,0.225369,0.109050,0.243544,412.000000,381.000000,31.000000,15.000000,0.000000,0.000000:
00000000
00000000
00000000
00000000
,
00000000
00000000
00000000
00000000
,
00001000
00010000
00000000
00010000
00000000
00000000
00001000
00000000
00000000
00010000
00000000
00000000
00000100
00000000
00001000
00000000
,
00000010
00000000
00000000
00000100
00000000
00000000
00000010
00000000
00001000
00000000
00000100
00000000
00000010
00000000
00000001
00000000
,
00000102
00000000
00000000
00000000
00001000
00000000
00000000
00000000
00000100
00000000
00000000
00000000
00001000
00000003
00000000
00000000
,
00002000
00000100
00000001
00003100
,
00020100
00001000
00000100
00031000
,
00010200
00001000
00010000
00001300
,
00021000
00000000
00031000
00000000
00010000
00001000
00100000
00000000
,
00120000
10030000
20100000
30010000
,
10020000
00000000
01000000
00000000
10000000
00000000
10030000
01000000
,
00100000
00010000
01000000
00000000
00010000
01000000
00100000
10000000
,
00000000
00100000
10000000
00010000
00000000
00100000
00010000
01000000
,
00000000
00001000
00001000
00001000
00000000
00010000
00010000
00010000
,
00000000
00001000
00010000
00000100
00000000
00001000
00000010
00000100
,
00000000
00000001
00001000
00000100
00000000
00000010
00000010
00001001
,
00000000
00000100
00000100
00001001
00000000
00001000
00000010
00000101
,
00000000
00000001
00000010
00001100
00000000
00000100
00001000
00010100
,
00000000
00010000
00001000
00101000
00000000
00010000
00001000
00011000
,
00002000
00000000
00000000
00000000
00000000
00000000
00000000
00000000
00003000
00000000
00000000
00000000
00010000
00001000
00010000
00001000
,
00100000
00000000
00000000
00000000
00110000
00000000
00000000
00000000
00100000
00000000
00010000
00000000
00010000
00000000
01000000
00010000
,
00000000
00000000
10000000
00000000
10000000
00000000
01000000
10000000
00000000
00000000
00100000
00000000
00100000
00000000
01000000
00100000
,
10000000
00000000
00000000
00000000
10100000
00000000
00000000
00000000
10000000
00000000
01000000
00000000
01000000
00000000
00100000
00010000
,
00000000
00000000
01000000
00000000
01000000
00000000
00010000
00100000
00000000
00000000
00001000
00000000
00001000
00000000
00100000
00010000
,
01000000
00000000
00000000
00000000
01010000
00000000
00000000
00000000
01000000
00000000
00001000
00000000
00001000
00000000
00010000
00001000
,
00000000
00000000
00010000
00000000
00010000
00000000
00000010
00001000
00000000
00000000
00000100
00000000
00000100
00000000
00001000
00000100
,
00000010
00000000
00000000
00000001
00000000
00000000
00001000
00000000
00000000
00000010
00000000
00000000
00001001
00000000
00000000
00000000
,
00000001
00000000
00000001
00000100
00000000
00000000
00000010
00000000
00000010
00000000
00000100
00000000
00000001
00001000
00000001
00001000
,
00000010
00000000
00000000
00000000
00001001
00000000
00000000
00000000
00001000
00000000
00000100
00000000
00000100
00000000
00000010
00000001
,
00000000
00000000
00000100
00000000
00000100
00000000
00000001
00001000
00000000
00000000
00000010
00000000
00000010
00000000
00001000
00000100
,
00010000
00000000
00000000
00000000
00010100
00000000
00000000
00000000
00001000
00000000
00100000
00000000
00100000
00000000
00010000
01000000
,
00000000
00000000
00100000
00000000
00100000
00000000
10000000
01000000
00000000
00000000
10000000
00000000
10000000
00000000
01000000
00100000
,
00010000
00000000
00000000
00000000
11000000
00000000
00000000
00000000
00010000
00000000
10000000
00000000
10000000
00000000
00100000
01000000
,
00000000
00000000
00010000
00000000
00010000
00000000
00100000
00010000
00000000
00000000
01000000
00000000
01000000
00000000
00010000
00100000
,
00001000
00000000
00000000
00010000
00000000
00000000
00001000
00000000
00000000
00100000
00000000
00000000
00010000
00000000
00000000
00000000
,
01000000
00000000
01000000
00010000
00000000
00000000
10000000
00000000
00010000
00000000
01000000
00000000
00100000
10000000
00100000
10000000
,
01000000
00000000
11000000
00000000
00010000
10000000
00100000
01000000
,
00010000
00000000
00000000
00000000
00100000
00000000
00000000
00000000
00010000
00000000
00000000
00100000
00000000
00000000
00101000
00000000
,
00001000
00000000
00000000
00000000
00010000
00000000
00000000
00000000
00000100
00010000
00000100
00010000
00000100
00000000
00010000
00000000
,
00000100
00000000
00000000
00000000
00001000
00000000
00000010
00000000
00000100
00000000
00000000
00000001
00000000
00000000
00001001
00000000
,
00001000
00000000
00000010
00000000
00001000
00000100
00000010
00000010
,
00000001
00000000
00000000
00000000
00001000
00000000
00000000
00000000
00000001
00000000
00000000
00000100
00000000
00000000
00000101
00000000
,
00000100
00000000
00000000
00000000
00000010
00000000
00000000
00000000
00001000
00000010
00001000
00000010
00001000
00000000
00000010
00000000
,
00001000
00000000
00000000
00000000
00000100
00000000
00001000
00000000
00000100
00000000
00000000
00010000
00000000
00000000
00001000
00000000
,
00022000
00000000
00000000
00000000
00033000
00000000
00000000
00000000
00000000
00000000
00010000
00000000
00001000
00000000
00010000
00001000
,
00000000
00000000
00100000
00000000
00010000
00000000
00100000
00010000
00000000
00000000
00100000
00000000
00001000
00000000
00100000
00001000
,
00000000
00000000
00010000
00000000
00000000
00000000
00000000
00000000
00000000
00000000
00001000
00000000
00001000
00000000
00010000
00001000
,
00000000
00000000
00010000
00000000
00000100
00000000
00010000
00000100
00000000
00000000
00001000
00000000
00001000
00000000
00000100
00001000
,
00000000
00000000
00000100
00000000
00000000
00000000
00000000
00000000
00000000
00000000
00001000
00000000
00000100
00000000
00001000
00000100
,
00000000
00000000
00010000
00000000
00010000
00000000
00000100
00010000
00000000
00000000
00001000
00000000
00001000
00000000
00010000
00001000
,
00020000
00001000
00001000
00031000
,
00022000
00000000
00000000
00000000
00000000
00000000
00000000
00000000
00033000
00000000
00000000
00000000
00001000
00010000
00001000
00010000
,
00100000
00000000
00000000
00000000
10100000
00000000
00000000
00000000
00100000
00000000
10000000
00000000
01000000
00000000
00100000
01000000
,
00100000
00000000
00010000
00000000
10000000
00000000
00100000
10000000
00100000
00000000
10000000
00000000
01000000
00000000
00100000
00010000
,
01000000
00000000
00000000
00000000
01010000
00000000
00000000
00000000
01000000
00000000
00100000
00000000
01000000
00000000
00010000
00100000
,
00010000
00000000
01000000
00000000
00001000
00000000
00010000
00001000
00010000
00000000
00000100
00000000
00001000
00000000
00000010
00001000
,
00000100
00000000
00000000
00000000
00001100
00000000
00000000
00000000
00000100
00000000
00001000
00000000
00000010
00000000
00000100
00000010
,
00000100
00000000
00000010
00000000
00001000
00000000
00000100
00001000
00000100
00000000
00001000
00000000
00000001
00000000
00000010
00000001
,
00000010
00000000
00000000
00000100
00000000
00000000
00000010
00000000
00000000
00000001
00000000
00000000
00001001
00000000
00000000
00000000
,
00000001
00000000
00000000
00001000
00000000
00000000
00000010
00000000
00000200
00000000
00000000
00000000
00000310
00001000
00000010
00001000
,
00000100
00000000
00000000
00000000
;

//---------------dance-single - ----------------
#NOTES:
     dance-single:
     :
     Medium:
     5:
     0.305339,0.327149,0.167209,0.152670,0.036350,294.000000,271.000000,23.000000,21.000000,0.000000,0.000000,0.305339,0.327149,0.167209,0.152670,0.036350,294.000000,271.000000,23.000000,21.000000,0.000000,0.000000:
0000
0000
0000
0000
,
0000
0000
0000
0000
,
1000
0000
0000
0100
0000
0000
1000
0000
0000
0001
0000
0000
1000
0000
0000
0000
,
0001
0000
0000
0100
0000
0000
0001
0000
0000
1000
0000
0000
0001
0000
0000
0000
,
2000
0000
0000
0000
0100
0000
0000
0000
0100
3000
0000
0000
0000
0000
0000
0000
,
0002
0100
0103
0000
,
2000
0010
3010
0000
,
0002
0010
0013
0000
,
0002
0103
0010
1000
,
2000
3100
0010
0001
,
2002
0000
3003
0000
0000
0000
0001
1000
,
0001
0000
0000
0000
1000
0100
1000
0100
,
0000
1000
0001
1000
0000
0001
0100
0001
,
0000
1000
0001
1000
0000
0010
0010
0010
,
0000
0010
0010
0010
0000
1000
0001
1000
,
0000
0010
0010
0010
0000
1000
0100
0010
,
0000
0001
1000
0010
0000
1000
0010
0100
,
0000
0001
1000
0100
0000
1000
1000
0100
,
0000
0001
0001
0100
0000
1000
0001
1000
,
2002
0000
0000
3003
,
0101
0000
1000
0000
0010
0000
1000
0100
,
0010
0000
0100
0010
0001
0000
0010
0001
,
0100
0000
0001
0000
1000
0000
0001
0010
,
0100
0000
0010
0100
1000
0000
0100
1000
,
0010
0000
0100
0000
0001
0000
1000
0010
,
0100
0000
0010
0100
0001
0000
1000
0001
,
2000
0000
3100
1000
0100
0000
0010
0000
,
0002
0000
0103
0000
0001
1000
0010
0010
,
0110
0000
1001
0000
0000
0000
1000
0100
,
0010
0000
0100
0010
0001
0000
0010
0000
,
0101
0000
1010
0000
0000
0000
0001
0100
,
0010
0000
0100
0010
1000
0000
0100
0000
,
1100
0000
0011
0000
0000
0000
0010
0001
,
1000
0000
0001
1000
0010
0000
0100
0000
,
2001
0000
3010
0000
1000
0100
1000
0000
,
1002
0000
0103
0000
0001
1000
0001
0000
,
0100
0000
0000
0000
0010
1000
0010
1000
,
0000
0000
0000
0000
0000
0000
0000
0000
0001
0000
0000
1000
0000
0000
0100
0000
,
0100
0000
0000
0000
1000
0100
1000
0100
,
0000
0000
0000
0000
0000
0000
0000
0000
1000
0000
0000
0100
0000
0000
0010
0000
,
0010
0000
0000
0000
0001
0010
0001
0010
,
0000
0000
0000
0000
0000
0000
0000
0000
0001
0000
0000
1000
0000
0000
0010
0000
,
0010
0000
0000
0000
1000
0010
1000
0010
,
0000
0000
0000
0000
0000
0000
0000
0000
1000
0000
0000
0010
0000
0000
0100
0000
,
0002
0000
0000
0000
0003
0000
0100
0001
,
0100
0000
0001
1000
0001
0000
1000
0100
,
2000
0000
0000
0000
3000
0000
0100
1000
,
0100
0000
1000
0001
1000
0000
0001
0010
,
0002
0000
0000
0000
0003
0000
0010
0001
,
0010
0000
0001
1000
0001
0000
1000
0010
,
1000
0000
0000
0100
0000
0000
0010
0000
0000
0001
0000
0000
1000
0000
0000
0000
,
1001
0110
1001
1001
,
0201
0000
0310
0000
0100
0000
0001
0100
,
0010
0000
0100
0010
1000
0000
0100
0000
,
1200
0000
0310
0000
0100
0000
1000
0100
,
0010
0000
0100
0010
0001
0000
0100
0000
,
1002
0103
2001
3100
,
1001
0110
1001
1000
,
0010
1000
0010
1000
0100
0000
0100
0000
,
0010
0001
0010
0001
0100
0000
0100
0000
,
1001
0000
0000
0000
;

//---------------dance-single - ----------------
#NOTES:
     dance-single:
     :
     Easy:
     3:
     0.160978,0.196289,0.058160,0.189019,0.000000,155.000000,147.000000,8.000000,26.000000,0.000000,0.000000,0.160978,0.196289,0.058160,0.189019,0.000000,155.000000,147.000000,8.000000,26.000000,0.000000,0.000000:
// measure 0
0000
0000
0000
0000
,  // measure 1
0000
0000
0000
0000
,  // measure 2
0001
0100
0010
0010
,  // measure 3
1000
0100
0010
0010
,  // measure 4
0002
0003
0010
0010
,  // measure 5
0200
0300
1000
1000
,  // measure 6
0020
0030
1000
1000
,  // measure 7
0002
0003
0001
0001
,  // measure 8
0200
0300
0010
0010
,  // measure 9
2000
3000
0002
0003
,  // measure 10
0200
0000
0300
0000
,  // measure 11
0100
0000
0000
0000
,  // measure 12
0001
0000
1000
0000
,  // measure 13
0010
0000
0010
0000
,  // measure 14
1000
0000
0001
0000
,  // measure 15
1000
0000
1000
0000
,  // measure 16
0100
0100
0010
0000
,  // measure 17
0010
0010
0001
0000
,  // measure 18
0001
0001
1000
1000
,  // measure 19
2002
0000
0000
3003
,  // measure 20
1001
0000
0000
1000
,  // measure 21
0010
1000
0001
0000
,  // measure 22
1001
0000
0000
0001
,  // measure 23
0100
0001
1000
0000
,  // measure 24
1001
0000
0000
1000
,  // measure 25
0100
1000
0001
0000
,  // measure 26
2000
3000
0000
0001
,  // measure 27
0002
0003
0000
0000
,  // measure 28
0110
0000
0000
0001
,  // measure 29
0001
1000
1000
0010
,  // measure 30
0010
0000
0000
1000
,  // measure 31
1000
0100
0100
0010
,  // measure 32
0010
0000
0000
0001
,  // measure 33
0001
1000
1000
0010
,  // measure 34
0020
0030
0000
0100
,  // measure 35
0200
0300
0000
0000
,  // measure 36
0001
0000
0100
0100
,  // measure 37
0010
0000
1000
0100
,  // measure 38
0010
0000
0100
0100
,  // measure 39
1000
0000
0020
0030
,  // measure 40
1000
0000
0001
0001
,  // measure 41
0100
0000
0001
1000
,  // measure 42
0010
0000
1000
1000
,  // measure 43
0001
0000
0200
0300
,  // measure 44
1001
0000
0000
0000
,  // measure 45
0002
0003
2000
3000
,  // measure 46
0020
0030
0000
0000
,  // measure 47
2000
3000
0002
0003
,  // measure 48
0200
0300
0000
0000
,  // measure 49
0002
0003
2000
3000
,  // measure 50
0010
0010
0010
0000
,  // measure 51
0100
0100
0010
0100
,  // measure 52
1001
0000
0000
0001
,  // measure 53
1000
0100
0010
0001
,  // measure 54
0100
0000
0000
0001
,  // measure 55
0100
0010
1000
0001
,  // measure 56
1000
0000
0000
1000
,  // measure 57
0100
0010
0001
0100
,  // measure 58
0200
0300
0000
0010
,  // measure 59
0020
0030
1000
0001
,  // measure 60
1001
0000
0000
0000
;

//---------------dance-single - ----------------
#NOTES:
     dance-single:
     :
     Beginner:
     1:
     0.094510,0.109050,0.036350,0.000000,0.000000,91.000000,86.000000,5.000000,0.000000,0.000000,0.000000,0.094510,0.109050,0.036350,0.000000,0.000000,91.000000,86.000000,5.000000,0.000000,0.000000,0.000000:
// measure 0
0000
0000
0000
0000
,  // measure 1
0000
0000
0000
0000
,  // measure 2
1000
0000
0000
0000
,  // measure 3
0001
0000
0000
0000
,  // measure 4
0100
0000
0000
0000
,  // measure 5
0010
0000
0000
0000
,  // measure 6
1000
0000
0000
0000
,  // measure 7
0001
0000
0000
0000
,  // measure 8
1000
0000
0000
0000
,  // measure 9
0100
0000
0100
0000
,  // measure 10
0100
0000
0000
0000
,  // measure 11
0100
0000
0000
0000
,  // measure 12
1000
0000
1000
0000
,  // measure 13
1000
0000
1000
0000
,  // measure 14
0001
0000
0001
0000
,  // measure 15
0001
0000
0001
0000
,  // measure 16
0100
0000
0100
0000
,  // measure 17
0100
0000
0100
0000
,  // measure 18
0010
0000
0010
0000
,  // measure 19
0000
0000
0000
0000
,  // measure 20
1001
0000
0000
0001
,  // measure 21
0001
0000
0000
0000
,  // measure 22
1000
0000
0000
0100
,  // measure 23
0100
0000
0000
0000
,  // measure 24
1000
0000
0000
0001
,  // measure 25
0001
0000
0000
1000
,  // measure 26
1000
0000
0000
1000
,  // measure 27
1000
0000
0000
0000
,  // measure 28
1001
0000
0000
0000
,  // measure 29
1000
0000
1000
0000
,  // measure 30
1000
0000
0000
0000
,  // measure 31
0010
0000
0010
0000
,  // measure 32
0010
0000
0000
0000
,  // measure 33
0100
0000
0100
0000
,  // measure 34
0100
0000
0000
0000
,  // measure 35
0001
0000
0000
0000
,  // measure 36
1000
0000
0000
0000
,  // measure 37
0001
0000
0000
0001
,  // measure 38
0001
0000
0000
0000
,  // measure 39
0100
0000
0000
0100
,  // measure 40
0100
0000
0000
0000
,  // measure 41
0010
0000
0000
0010
,  // measure 42
0010
0000
0000
0000
,  // measure 43
1000
0000
1000
0000
,  // measure 44
1001
0000
0000
0000
,  // measure 45
0001
0000
0001
0000
,  // measure 46
0001
0000
0000
0000
,  // measure 47
1000
0000
1000
0000
,  // measure 48
1000
0000
0000
0000
,  // measure 49
0010
0000
0010
0000
,  // measure 50
0010
0000
0000
0000
,  // measure 51
0010
0000
0000
0000
,  // measure 52
1001
0000
0000
0001
,  // measure 53
0001
0000
0000
0000
,  // measure 54
0100
0000
0000
0010
,  // measure 55
0010
0000
0000
0000
,  // measure 56
1000
0000
0000
0100
,  // measure 57
0100
0000
0000
1000
,  // measure 58
1000
0000
0000
0001
,  // measure 59
0001
0000
0000
0000
,  // measure 60
1001
0000
0000
0000
;
