#TITLE:Don't Be So Hard On Yourself;
#SUBTITLE:;
#ARTIST:Jess Glynne;
#TITLETRANSLIT:;
#SUBTITLETRANSLIT:;
#ARTISTTRANSLIT:;
#GENRE:Fiery Ginger Queen Pop;
#CREDIT:;
#BANNER:Don't Be So Hard On Yourself.png;
#BACKGROUND:Don't Be So Hard On Yourself-bg.png;
#LYRICSPATH:;
#CDTITLE:;
#MUSIC:Don't Be So Hard On Yourself.ogg;
#OFFSET:0.000000;
#SAMPLESTART:96.894135;
#SAMPLELENGTH:13.714000;
#SELECTABLE:YES;
#BPMS:0.000000=120.000000
;
#STOPS:
;
#BGCHANGES:6.000=Don't Be So Hard On Yourself.avi=1.000=0=0=1=====,
99999=-nosongbg-=1.000=0=0=0 // don't automatically add -songbackground-
;
#KEYSOUNDS:;
#ATTACKS:;

//---------------dance-single - ----------------
#NOTES:
     dance-single:
     :
     Hard:
     8:
     0.459538,0.491167,0.285030,0.135728,0.159481,412.000000,42.000000,20.000000,0.000000,0.000000,0.000000,0.459538,0.491167,0.285030,0.135728,0.159481,412.000000,42.000000,20.000000,0.000000,0.000000,0.000000:
0000
0000
0000
0000
,
0000
0000
0000
0000
,
0000
0000
0000
0000
0000
0000
0000
0000
1000
0000
0000
0100
0000
0000
0010
0000
,
0010
0000
0000
0001
0000
0000
1000
0000
1000
0000
0000
0010
0000
0000
0100
0000
,
0001
0000
0000
0000
0000
0000
0000
0000
1000
0000
0000
0001
0000
0000
0010
0000
,
0010
0000
0000
0100
0000
0000
1000
0000
1000
0000
0000
0010
0000
0000
0100
0000
,
0001
0000
0000
0000
1000
0100
1000
0000
,
0001
0100
0001
2000
0000
0000
0100
0000
,
0100
0000
3001
0000
1100
0100
1000
0100
,
0010
0010
0001
0000
0101
0100
0001
0100
,
0010
0010
1000
0000
0001
1000
0001
1000
,
0100
0010
0100
0100
1000
0001
1000
0001
,
0100
0010
0100
0100
0001
0010
0100
1000
,
0001
1000
0001
0100
0100
0010
0010
1000
,
0100
0010
0001
1000
1000
0010
0100
0001
,
0001
0010
0100
1000
0001
0010
0001
1000
,
0010
0000
0100
0000
0001
0000
0000
0000
1000
0100
1000
0000
1100
0000
0000
0000
,
0001
0100
0001
0000
0101
0000
0000
0000
0100
0000
0001
0000
0010
0000
0100
0000
,
1000
0000
0001
0000
0100
0000
0000
0000
0001
1000
0001
0000
1001
0000
0000
0000
,
1000
0001
1000
0000
1001
0000
0000
0000
0001
0000
0010
0000
0100
0000
1000
0000
,
0001
0000
0100
0000
0010
0000
0000
0000
1000
0010
1000
0000
1010
0000
0000
0000
,
0001
0010
0001
0000
0011
0000
0000
0000
0001
0000
0010
0000
0100
0000
1000
0000
,
0010
0000
0100
0000
0001
0000
0000
0000
1000
0100
1000
0000
1100
0000
0000
0000
,
0001
0100
0001
0000
0101
0000
0000
0000
0001
0000
0100
0000
0010
0000
1000
0000
,
0100
0010
0001
0000
2100
0000
3002
0000
,
0103
0000
0010
0000
1000
0000
0001
0000
0100
0000
0000
0000
0010
0000
0000
0010
,
0000
0010
0100
0001
2000
0000
3002
0000
,
0013
0000
0001
0000
1000
0000
0010
0000
0200
0000
0000
0000
0301
0000
0000
0001
,
0000
0100
0001
1000
1100
0000
0101
0000
,
1000
0100
0010
0000
0011
0000
1010
0000
,
1000
0000
0001
0000
0010
0000
0000
0000
0001
1000
0001
0000
1001
0000
0000
0000
,
1000
0001
1000
0000
1001
0000
0000
0000
0001
0000
0100
0000
0010
0000
1000
0000
,
0100
0000
0000
0100
0000
0000
0100
0000
0020
0000
0000
0000
0001
0000
0000
0000
,
0000
0001
0000
0031
,
0001
0000
0000
0010
0000
0000
0100
0000
2000
0000
0000
0000
0010
0000
0000
0000
,
0000
0010
0000
3010
,
0010
0000
0000
0100
0000
0000
0001
0000
0020
0000
0000
0000
0100
0000
0000
0000
,
0000
0100
0000
0100
,
0031
0000
0000
0010
0000
0000
0100
0000
1000
0000
0001
0000
1000
0000
0010
0000
,
0100
0000
0001
1000
0001
0000
0100
0000
,
0010
0000
0000
1000
0000
0000
0001
0000
0100
0000
0000
0000
0101
0000
0000
0000
,
1000
1100
0001
0011
,
0001
0000
0000
1000
0000
0000
0010
0000
0100
0000
0000
0000
0110
0000
0000
0000
,
0001
0101
1000
1100
,
0001
0000
0000
1000
0000
0000
0010
0000
0100
0000
0000
0000
0110
0000
0000
0000
,
1000
1010
0001
0011
,
0001
0000
0000
1000
0000
0000
0010
0000
0200
0000
0000
0000
0000
0000
0000
0000
,
0000
0000
0020
0000
,
0330
0000
0000
0000
1001
0000
0000
0000
0001
0010
0001
0000
0011
0000
0000
0000
,
1000
0010
1000
0000
1010
0000
0000
0000
0010
0000
1000
0000
0100
0000
0010
0000
,
0001
0000
1000
0000
0010
0000
0000
0000
1000
0001
1000
0000
1001
0000
0000
0000
,
0001
1000
0001
0000
1001
0000
0000
0000
1000
0000
0100
0000
0010
0000
0001
0000
,
1000
0000
0010
0000
0100
0000
0000
0000
0001
0100
0001
0000
0101
0000
0000
0000
,
1000
0100
1000
0000
1100
0000
0000
0000
1000
0000
0100
0000
0010
0000
0001
0000
,
0100
0000
0010
0000
1000
0000
0000
0000
0001
0010
0001
0000
0011
0000
0000
0000
,
1000
0010
1000
0000
1010
0000
0000
0000
1000
0000
0010
0000
0100
0000
0001
0000
,
0010
0100
1000
0000
0102
0000
2003
0000
,
3010
0000
0100
0000
0001
0000
1000
0000
0020
0000
0000
0000
0130
0000
0000
0001
,
0000
1000
0001
0000
2010
0000
3002
0000
,
0103
0000
0010
0000
1000
0000
0001
0000
0200
0000
0000
0000
0310
0000
0000
1000
,
0000
0001
1000
0100
0020
0000
0032
0000
,
1003
0000
0010
0000
0100
0000
0001
0000
2000
0000
0000
0000
3001
0000
0000
0100
,
0000
0000
0010
0000
1000
0000
0000
0000
0001
0100
0001
0000
0101
0000
0000
0000
,
1000
0100
1000
0000
1100
0000
0000
0000
0001
0000
0010
0000
0100
0000
1000
0000
,
0010
0000
0100
0000
0001
0000
1000
0000
0010
0000
0000
0000
1000
0000
0000
1000
,
0000
0000
0000
0000
0001
0000
0000
0000
0000
0000
0000
0000
0010
0000
0000
0010
,
0000
0000
0000
0000
0100
0000
0000
0000
0000
0000
0000
0000
1000
0000
0000
1000
,
0000
0000
0010
0000
0000
0000
1001
1000
,
0100
0000
0010
0000
0001
0000
0000
0000
0010
0000
0000
0000
0001
0000
0000
1000
,
0000
0000
0010
0000
0100
0000
0001
0000
1000
0000
0000
0000
0100
0000
0000
0010
,
0000
0000
0001
0000
0010
0000
0000
0000
0001
0100
0001
0000
0101
0000
0000
0000
,
1000
0100
1000
0000
1100
0000
0000
0000
0001
0000
0000
0000
0100
0000
0000
0000
,
0010
0000
0000
1000
0000
0000
0001
0000
0000
0000
0000
0000
0000
0000
0000
0000
;

//---------------dance-single - ----------------
#NOTES:
     dance-single:
     :
     Challenge:
     9:
     0.622412,0.613959,0.095010,0.115369,0.600599,611.000000,14.000000,17.000000,0.000000,0.000000,0.000000,0.622412,0.613959,0.095010,0.115369,0.600599,611.000000,14.000000,17.000000,0.000000,0.000000,0.000000:
// measure 0
0000
0000
0000
0000
,  // measure 1
0000
0000
0000
0000
,  // measure 2
0000
0000
0000
0000
0000
0000
0000
0000
1000
0000
0010
1000
0000
0100
1000
0000
,  // measure 3
0001
0000
0100
0001
0000
0010
0001
0000
1000
0000
0010
0100
0000
0001
0010
0000
,  // measure 4
0002
0000
0000
2003
0000
0000
3010
0000
0100
0000
0001
0100
0000
0100
0010
0000
,  // measure 5
1000
0000
0100
0010
0000
0010
0001
0000
1000
0000
0010
0100
0000
0100
0001
0000
,  // measure 6
2000
0000
0000
3002
0000
0000
0013
0100
1000
0100
1000
0000
0001
0000
0000
1000
,  // measure 7
0010
1000
0010
0000
1000
0000
0002
0000
0100
0000
0000
0000
1000
0000
0000
0000
,  // measure 8
1003
0000
0000
0010
0000
0000
0100
0000
0001
0000
1000
0000
0010
0000
0100
0001
,  // measure 9
0100
0000
0010
0000
1000
0000
0100
0010
0100
0000
0010
0000
0001
0000
1000
0100
,  // measure 10
1000
0000
1000
0001
0000
0001
0100
0000
0010
0000
1000
0000
0001
0000
0010
0100
,  // measure 11
0010
0000
0001
0000
1000
0000
0001
0100
0001
0000
1000
0000
0001
0000
1000
0100
,  // measure 12
1000
0000
1000
0001
0000
0001
0100
0000
0010
0000
1000
0000
0001
0000
1000
0100
,  // measure 13
0010
0000
0001
0000
1000
0000
0010
1000
0001
0000
0100
0000
0001
0000
1000
0100
,  // measure 14
0010
0000
0010
0001
0000
0001
1000
0000
0010
0000
0100
0000
0001
0000
1000
0100
,  // measure 15
0010
0000
0001
0000
1000
0000
0010
0100
0001
0000
1000
0000
0010
0000
0100
0000
,  // measure 16
0001
0000
0000
1000
0000
0000
0001
0010
0100
0010
0100
0000
1000
0000
0000
1000
,  // measure 17
0010
0100
0010
0000
0100
0000
0001
0000
1000
0000
0010
0000
0100
0000
0100
0001
,  // measure 18
0000
0001
1000
0000
0100
0000
0000
1000
0010
1000
0010
0000
0100
0000
0000
0001
,  // measure 19
0010
0001
0010
0000
0100
0000
1000
0000
0010
0000
0100
0000
0001
0000
0001
1000
,  // measure 20
0000
1000
0010
0000
0100
0000
0000
0001
1000
0010
0100
0000
0001
0000
0000
1000
,  // measure 21
0100
0010
0001
0000
1000
0000
0001
0000
0100
0000
0010
0000
1000
0000
0001
0010
,  // measure 22
0000
0010
0001
0000
1000
0000
0000
0010
1000
0100
0010
0000
0001
0000
0000
1000
,  // measure 23
0010
0100
0001
0000
1000
0000
0001
0000
1000
0000
0010
0000
0100
0000
0001
1000
,  // measure 24
0100
1000
0001
0000
1000
0000
0010
0000
0100
0001
0100
0000
0010
1000
0010
0000
,  // measure 25
1000
0100
1000
0000
0001
1000
0001
0010
0200
0000
0000
0000
1300
0000
1000
0100
,  // measure 26
0000
0100
0010
0000
0001
0000
1000
0000
0010
1000
0010
0000
1000
0001
1000
0000
,  // measure 27
0010
0100
0010
0000
0100
0001
0100
0001
2000
0000
0000
0000
3100
0000
0010
0001
,  // measure 28
0000
0001
1000
0000
0010
0000
0100
0000
0001
1000
0100
0000
0010
0001
1000
0000
,  // measure 29
0010
0100
0001
0000
1000
0100
0010
0001
2000
0000
0000
0000
3010
0000
1000
0001
,  // measure 30
0000
0001
0010
0000
0001
0000
0000
1000
0100
0010
0001
0000
1001
0000
0000
0001
,  // measure 31
0100
0010
1000
0000
1001
0000
0000
0000
0001
0000
0010
0000
0100
0000
1000
0000
,  // measure 32
0010
0100
0001
0010
0100
1000
0010
0100
0002
0000
0000
0000
0100
0000
0000
0000
,  // measure 33
0010
1000
0010
0103
,  // measure 34
0100
0000
0100
0001
0000
0001
1000
0000
2000
0000
0000
0000
0100
0000
0000
0000
,  // measure 35
0010
0001
0010
3100
,  // measure 36
1000
0000
1000
0010
0000
0010
0100
0000
0200
0000
0000
0000
1000
0000
0000
0000
,  // measure 37
0010
0001
0010
1000
,  // measure 38
0310
0000
0010
0100
0000
0100
0001
0000
0002
0000
0000
0000
0010
0000
0000
0000
,  // measure 39
1000
0100
2000
3003
,  // measure 40
0001
0000
0001
1000
0000
1000
0100
0000
1000
0000
0001
0000
0100
0000
0000
0010
,  // measure 41
1000
0000
0000
0001
0010
0000
0000
0100
1000
0000
0001
0000
1000
0000
0000
0000
,  // measure 42
0010
0000
0010
0100
0000
0100
0001
0000
1000
0000
0001
0000
0100
0000
0000
0001
,  // measure 43
1000
0000
0000
0100
0010
0000
0000
0001
1000
0000
0000
0000
0010
0000
0000
0000
,  // measure 44
1000
0000
1000
0001
0000
0001
0100
0000
0010
0000
0000
1000
0100
0000
0000
0010
,  // measure 45
0001
0000
0000
1000
0010
0000
0000
0000
0100
0000
0001
0000
1000
0000
0000
0000
,  // measure 46
0010
1000
0100
0000
1000
0100
0010
0001
,  // measure 47
1000
0010
0100
0001
2000
0000
3001
0000
,  // measure 48
1000
0010
0100
0001
0010
0100
1000
0100
0010
0100
0010
0000
0001
0000
0000
0001
,  // measure 49
0100
0010
0100
0000
0010
0000
1000
0000
0001
0000
0100
0000
0010
0000
0010
1000
,  // measure 50
0000
1000
0001
0000
0010
0000
0000
0001
0100
0001
0100
0000
0010
0000
0000
1000
,  // measure 51
0100
1000
0100
0000
0010
0000
0001
0000
0100
0000
0010
0000
1000
0000
1000
0001
,  // measure 52
0000
0001
0100
0000
0010
0000
0000
1000
0001
0100
0010
0000
1000
0000
0000
0001
,  // measure 53
0010
0100
1000
0000
0001
0000
1000
0000
0010
0000
0100
0000
0001
0000
1000
0100
,  // measure 54
0000
0100
1000
0000
0001
0000
0000
0100
0001
0010
0100
0000
1000
0000
0000
0001
,  // measure 55
0100
0010
1000
0000
0001
0000
1000
0000
0001
0000
0100
0000
0010
0000
1000
0001
,  // measure 56
0010
0001
1000
0000
0001
0000
0100
0000
0010
1000
0010
0000
0100
0001
0100
0000
,  // measure 57
0001
0010
0001
0000
1000
0001
1000
0100
0020
0000
0000
0000
0031
0000
0001
0010
,  // measure 58
0000
0010
0100
0000
1000
0000
0001
0000
0100
0001
0100
0000
0001
1000
0001
0000
,  // measure 59
0100
0010
0100
0000
0010
1000
0010
1000
0002
0000
0000
0000
0013
0000
0100
1000
,  // measure 60
0000
1000
0001
0000
0100
0000
0010
0000
1000
0001
0010
0000
0100
1000
0001
0000
,  // measure 61
0100
0010
1000
0000
0001
0010
0100
1000
0002
0000
0000
0000
0103
0000
0001
1000
,  // measure 62
0000
1000
0100
0000
1000
0000
0000
0001
0010
0100
1000
0000
1001
0000
0000
1000
,  // measure 63
0010
0100
0001
0000
1001
0000
0000
0000
1000
0000
0100
0000
0010
0000
0001
0000
,  // measure 64
0100
0010
1000
0100
0010
0001
1000
0010
0100
0000
0000
0000
0101
0000
0000
0001
,  // measure 65
0000
0000
0001
0000
1001
0000
1000
0000
0100
0000
0000
0000
1100
0000
0000
1000
,  // measure 66
0000
0000
1000
0000
1010
0000
0010
0000
0100
0000
0000
0000
0110
0000
0000
0010
,  // measure 67
0000
0010
0110
0100
0001
0000
0101
0000
,  // measure 68
0001
0000
0100
0000
0010
0000
1000
0000
0100
0000
0000
0000
1100
0000
0100
0010
,  // measure 69
0000
0000
0010
0000
0001
0000
1000
0000
0010
0000
0000
0000
1010
0000
0010
0100
,  // measure 70
0000
0000
0001
0000
1000
0000
0000
0001
0100
0010
1000
0000
0001
0000
0000
1000
,  // measure 71
0100
0010
0001
0000
1000
0000
0001
0000
0100
0000
0010
0000
1000
0000
0000
0000
,  // measure 72
0001
0000
0000
1000
0000
0000
0101
0000
0000
0000
0000
0000
0000
0000
0000
0000
;

//---------------dance-double - ----------------
#NOTES:
     dance-double:
     :
     Challenge:
     8:
     0.495409,0.491167,0.291816,0.210379,0.115369,437.000000,43.000000,31.000000,0.000000,0.000000,0.000000,0.495409,0.491167,0.291816,0.210379,0.115369,437.000000,43.000000,31.000000,0.000000,0.000000,0.000000:
00000000
00000000
00000000
00000000
,
00000000
00000000
00000000
00000000
,
00000000
00000000
00000000
00000000
00000000
00000000
00000000
00000000
00000100
00000000
00000000
00000010
00000000
00000000
00001000
00000000
,
00001000
00000000
00000000
00000100
00000000
00000000
00000010
00000000
00000010
00000000
00000000
00000001
00000000
00000000
00000100
00000000
,
00000100
00000000
00000010
00000000
00001000
00000000
00000001
00000000
00001000
00000000
00000000
00000100
00000000
00000000
00010000
00000000
,
00010000
00000000
00000000
00001000
00000000
00000000
01000000
00000000
01000000
00000000
00000000
00010000
00000000
00000000
10000000
00000000
,
10000000
00100000
01000000
00100000
10000000
01000000
11000000
00000000
,
00010000
01000000
01010000
20000000
00000000
00000000
01000000
00000000
,
00100000
00000000
30010000
00000000
10000000
01000000
10000000
01000000
,
00100000
00100000
00100000
00010000
01000000
00100000
01000000
00100000
,
10000000
10000000
10000000
01000000
00100000
00001000
00100000
00001000
,
00010000
00010000
00010000
00001000
00010000
00000100
00010000
00000100
,
00001000
00001000
00001000
00000010
00000100
00000001
00000010
00000100
,
00001000
00001000
00001000
00000010
00000100
00000010
00001000
00000100
,
00000010
00000010
00000010
00000001
00000100
00001000
00000100
00000001
,
00001000
00001000
00001000
00000100
00001000
00010000
00000100
00010000
,
00001000
00000000
00000100
00000000
00010000
00000000
00000000
00000000
00001000
00010000
00001000
00000000
00011000
00000000
00000000
00000000
,
00010000
00001000
00010000
00000000
00011000
00000000
00000000
00000000
00010000
00000000
00001000
00000000
01000000
00000000
00010000
00000000
,
10000000
00000000
01000000
00000000
10000000
00000000
00100000
00000000
01000000
00010000
01000000
00000000
01010000
00000000
00000000
00000000
,
00010000
10000000
00010000
00000000
10010000
00000000
00000000
00000000
10000000
00000000
00100000
00000000
00010000
00000000
00100000
00000000
,
10000000
00000000
01000000
00000000
00100000
00000000
00010000
00000000
10000000
01000000
10000000
00000000
11000000
00000000
00000000
00000000
,
00010000
01000000
00010000
00000000
01010000
00000000
00000000
00000000
10000000
00000000
00100000
00000000
00010000
00000000
00001000
00000000
,
00000010
00000000
00000001
00000000
00001000
00000000
00000010
00000000
00000100
00000001
00000100
00000000
00000101
00000000
00000000
00000000
,
00000010
00001000
00000010
00000000
00001010
00000000
00000000
00000000
00000001
00000000
00000010
00000000
00000100
00000000
00001000
00000000
,
00000010
00000100
00000001
00000000
00000201
00000000
00000320
00000000
,
00001030
00001000
00000010
00010000
00002000
00000000
00013000
00000000
,
00001000
00010000
01000000
10000000
00200000
00000000
01300000
00000000
,
01000000
00010000
10000000
00010000
20000000
00000000
31000000
00000000
,
11000000
01010000
10200000
02300000
,
03010000
00010000
01000000
00001000
00020000
00000000
00031000
00000000
,
00010000
00000000
00001000
00000000
00000010
00000000
00000001
00000000
00000100
00000010
00000100
00000000
00000110
00000000
00000000
00000000
,
00000010
00000100
00000010
00000000
00000110
00000000
00000000
00000000
00000100
00000000
00000001
00000000
00000010
00000000
00000100
00000000
,
00001000
00000000
00000000
00000010
00000000
00000000
00000100
00000000
00000002
00000000
00000000
00000000
00001000
00000000
00000000
00000000
,
00000000
00001000
00000000
00001003
,
00001000
00000000
00000000
00000100
00000000
00000000
00010000
00000000
00002000
00000000
00000000
00000000
00010000
00000000
00000000
00000000
,
00000000
00010000
00000000
00013000
,
00010000
00000000
00000000
00001000
00000000
00000000
00100000
00000000
00020000
00000000
00000000
00000000
10000000
00000000
00000000
00000000
,
00000000
10000000
00000000
10030000
,
10000000
00000000
00000000
00100000
00000000
00000000
01000000
00000000
01000000
00000000
00000000
00000000
00010000
00000000
00000000
00000000
,
10000000
01000000
00100000
00000000
20020000
00000000
30030000
00000000
,
10000000
00000000
00000000
00010000
00000000
00000000
10000000
00000000
11000000
00000000
01000000
00000000
00100000
00000000
00000000
00000000
,
00010000
10000000
00010000
00000000
01010000
00010000
00100000
00000000
,
00001000
00010000
00000100
00001000
00001100
00000100
00000010
00000000
,
00000001
00000010
00000001
00000000
00001010
00000010
00000100
00000000
,
00000001
00001000
00000001
00001000
00000200
00000000
00000310
00000000
,
00000020
00000031
00000002
00001003
,
00001000
00000010
00000100
00000001
00002000
00000000
00000000
00000000
,
00000000
00000000
00020000
00000000
,
00033000
00000000
00000000
00000000
00011000
00000000
00000000
00000000
00010000
00001000
00010000
00000000
00011000
00000000
00000000
00000000
,
00001000
00010000
00001000
00000000
00011000
00000000
00000000
00000000
00001000
00000000
00010000
00000000
00000010
00000000
00001000
00000000
,
00000001
00000000
00000010
00000000
00000001
00000000
00000100
00000000
00000010
00001000
00000010
00000000
00001010
00000000
00000000
00000000
,
00001000
00000001
00001000
00000000
00001001
00000000
00000000
00000000
00000001
00000000
00000100
00000000
00001000
00000000
00000100
00000000
,
00000001
00000000
00000010
00000000
00000100
00000000
00001000
00000000
00000001
00000010
00000001
00000000
00000011
00000000
00000000
00000000
,
00001000
00000010
00001000
00000000
00001010
00000000
00000000
00000000
00000001
00000000
00000100
00000000
00001000
00000000
00010000
00000000
,
01000000
00000000
10000000
00000000
00010000
00000000
01000000
00000000
00100000
10000000
00100000
00000000
10100000
00000000
00000000
00000000
,
01000000
00010000
01000000
00000000
01010000
00000000
00000000
00000000
10000000
00000000
01000000
00000000
00100000
00000000
00010000
00000000
,
01000000
00100000
10000000
00000000
10200000
00000000
02300000
00000000
,
03010000
00010000
01000000
00001000
00020000
00000000
00031000
00000000
,
00010000
00001000
00000010
00000001
00000200
00000000
00000310
00000000
,
00000010
00001000
00000001
00001000
00000002
00000000
00000013
00000000
,
00000011
00001010
00000201
00000320
,
00001030
00001000
00000010
00010000
00002000
00000000
00013000
00000000
,
00001000
00000000
00010000
00000000
01000000
00000000
10000000
00000000
00100000
01000000
00100000
00000000
01100000
00000000
00000000
00000000
,
01000000
00100000
01000000
00000000
01100000
00000000
00000000
00000000
00100000
00000000
10000000
00000000
01000000
00000000
00100000
00000000
,
00010000
00000000
00000000
01000000
00000000
00000000
00100000
00000000
10000000
00000000
00000000
00000000
11000000
00000000
00000000
00000000
,
10000000
01000000
00100000
00010000
20000000
00000000
30100000
00000000
,
10000000
00010000
10000000
00000000
00020000
00000000
00130000
00000000
,
00010000
00100000
01000000
10000000
00200000
00000000
01300000
00000000
,
00010000
10000000
00010000
00000000
01010000
00000000
00011000
00000000
,
00001100
00001001
00000200
00000310
,
00001000
00000000
00000001
00000000
00001000
00000000
00000000
00000000
00000001
00000010
00000001
00000000
00000011
00000000
00000000
00000000
,
00001000
00000010
00001000
00000000
00001010
00000000
00000000
00000000
00000001
00000000
00000000
00000000
00000010
00000000
00000000
00000000
,
00000001
00000100
00001000
00010000
00000000
00000000
00000000
00000000
;

//---------------dance-single - ----------------
#NOTES:
     dance-single:
     :
     Medium:
     5:
     0.305389,0.392255,0.128942,0.176447,0.000000,270.000000,19.000000,26.000000,0.000000,0.000000,0.000000,0.305389,0.392255,0.128942,0.176447,0.000000,270.000000,19.000000,26.000000,0.000000,0.000000,0.000000:
0000
0000
0000
0000
,
0000
0000
0000
0000
,
0000
0000
2000
3010
,
0200
0000
0301
0000
2000
0000
3100
0010
,
0001
0000
0200
0310
,
2000
0000
3100
0000
0020
0000
0031
1000
,
0010
0000
0000
0000
1000
0100
1000
0000
,
0001
0100
0001
0000
1000
0000
0000
0000
,
0001
0000
0010
0001
,
0100
0100
0100
0000
0010
0000
1000
0000
,
0100
0100
0100
0000
1000
0001
1000
0000
,
0001
1000
0001
0000
0200
0000
0300
0000
,
0020
0030
1000
0001
,
1000
1000
1000
0000
0100
0000
0010
0000
,
0001
0001
0001
0000
1000
0000
0001
0000
,
0100
0100
0010
1000
,
0001
0000
1100
0101
,
1000
0101
1000
0001
,
0010
0100
1000
0000
1100
0000
0011
0000
,
1000
0011
1000
0001
,
0100
0010
1000
0000
0101
0000
1100
0000
,
0010
1100
0001
0100
,
0010
1000
0100
0000
1000
0001
1000
0000
,
0001
1000
0001
0000
0200
0000
0300
0000
,
0010
0000
1000
0010
,
0100
0000
0001
1000
0002
0000
0003
0000
,
2000
3000
0001
0010
,
0100
0000
1000
0001
2000
0000
3000
0000
,
0002
0003
0100
0100
,
0010
0100
0010
0000
1000
0000
1000
0000
,
0001
0000
0000
0000
1000
0100
1000
0000
,
0001
0100
0001
0000
1000
0000
0000
0000
,
0010
0010
0000
1000
,
0000
0001
0000
0010
,
0001
0100
0010
0000
0000
0000
1000
0000
,
0000
0001
0000
0010
,
0001
1000
0010
0000
0000
0000
0100
0000
,
0000
0001
0000
1000
,
0100
0010
0001
0000
0000
0000
1000
0000
,
0000
0010
0000
1000
,
0001
0010
0100
1000
0000
0000
0001
0000
,
1000
0010
0010
0000
,
1000
0100
0010
0001
0000
0000
1000
0000
,
0001
0100
0100
0000
,
0001
0100
0010
1000
0000
0000
0100
0000
,
1000
0010
0010
0000
,
1000
0100
0010
0000
0002
0000
0003
0000
,
2000
3000
2002
0000
,
0000
0000
3003
0000
0001
1000
0001
0000
,
1000
0001
1000
0000
0200
0000
0300
0000
,
0200
0000
0300
0000
1000
0001
1000
0000
,
0001
1000
0001
0000
0020
0000
0030
0000
,
0020
0030
0101
1100
,
0001
1100
0001
0100
,
0010
1000
0100
0000
0101
0000
1000
0000
,
0101
1010
2002
3003
,
0010
0100
0001
0000
1000
0000
1000
0000
,
0001
0100
0001
0000
2000
0000
3000
0000
,
0010
1000
0001
0001
,
0100
0001
0100
0000
0002
0000
0003
0000
,
0010
0001
1000
1000
,
0010
0010
0000
0001
,
1000
0000
0100
0000
1000
0001
1000
0010
,
0100
0001
1000
0000
0020
0000
0030
0000
,
1000
0000
0001
0000
0000
0000
1000
1000
,
0000
0000
1000
0000
0000
0000
0001
0001
,
0000
0000
0001
0000
0000
0000
0010
0010
,
0000
0000
0010
0000
0000
0000
0100
0100
,
0000
0100
0000
1000
,
0010
0100
0001
0000
0000
0000
1000
0000
,
0001
0010
0100
0000
1000
1000
1000
0000
,
0001
0001
0001
0000
0000
0000
0000
0000
,
0101
1100
0000
0000
;

//---------------dance-single - ----------------
#NOTES:
     dance-single:
     :
     Easy:
     3:
     0.169661,0.196128,0.027146,0.013573,0.000000,169.000000,4.000000,2.000000,0.000000,0.000000,0.000000,0.169661,0.196128,0.027146,0.013573,0.000000,169.000000,4.000000,2.000000,0.000000,0.000000,0.000000:
0000
0000
0000
0000
,
0000
0000
0000
0000
,
0000
0000
0100
0000
,
0001
0000
1000
0000
,
0100
0000
1000
0000
,
0001
0000
0100
0000
,
0010
0000
1000
0100
,
0010
0001
1000
0000
,
0001
0000
0100
0100
,
0100
0000
0010
0010
,
0010
0000
1000
1000
,
1000
0000
0001
0001
,
0001
0000
1000
0100
,
0010
0000
0001
1000
,
0010
0000
0100
0000
,
0001
0000
1000
1000
,
1000
0000
0010
0100
,
0010
0100
0000
0001
,
0000
0000
1000
0100
,
1000
0100
0000
0010
,
0000
0000
0001
0100
,
0001
0100
0000
0010
,
0000
0000
1000
0001
,
1000
0001
0000
0100
,
0000
0000
0001
0100
,
0010
1000
1000
0000
,
0000
0000
1000
0100
,
0010
0001
0001
0000
,
0000
0000
1000
0010
,
1000
0001
0100
0000
,
0000
0000
0001
0010
,
0001
0010
0000
0100
,
0000
0000
0000
1000
,
0000
1000
0000
1000
,
0000
1001
0000
0001
,
0000
0001
0000
0001
,
0000
1001
0000
0100
,
0000
0100
0000
0100
,
0000
1001
0000
0010
,
0000
0010
0000
0010
,
0000
1001
0000
1000
,
0100
0010
0001
0000
,
0100
0000
0001
0010
,
0100
1000
0001
0000
,
0100
0000
0001
1000
,
0001
0000
1000
0001
,
1000
0000
0020
0000
,
0000
0030
0200
0000
,
0000
0300
0001
0100
,
0001
0100
0000
0010
,
0000
0000
1000
0001
,
1000
0001
0000
0010
,
0000
0000
0100
1000
,
0100
1000
0000
0010
,
0000
0000
1000
0000
,
0001
0000
0100
0000
,
0100
0000
0001
1000
,
0001
0001
1000
0000
,
0000
0000
0010
0100
,
0010
0010
0100
0000
,
0000
0000
0001
0100
,
0001
0001
0100
0000
,
0000
0000
0001
0000
,
1000
0000
0100
0000
,
0000
0000
0000
1000
,
0000
1000
0000
0010
,
0100
0001
0000
0010
,
0000
0010
0000
0001
,
1000
0010
0000
0100
,
0000
0100
0000
0001
,
1000
0100
0100
0000
,
0010
0000
0001
0000
,
1000
1000
0000
0000
;

//---------------dance-single - ----------------
#NOTES:
     dance-single:
     :
     Beginner:
     1:
     0.104705,0.122580,0.000000,0.000000,0.000000,108.000000,0.000000,0.000000,0.000000,0.000000,0.000000,0.104705,0.122580,0.000000,0.000000,0.000000,108.000000,0.000000,0.000000,0.000000,0.000000,0.000000:
0000
0000
0000
0000
,
0000
0000
0000
0000
,
0000
0000
1000
0000
,
0000
0000
0001
0000
,
0000
0000
0010
0000
,
0000
0000
0100
0000
,
0000
0000
1000
0000
,
1000
0000
0010
0000
,
0000
0000
0100
0100
,
0000
0000
0001
0001
,
0000
0000
1000
1000
,
0000
0000
0010
0010
,
0000
0000
1000
0000
,
0000
0000
0001
0000
,
0000
0000
0010
0000
,
0010
0000
0010
0000
,
0000
0000
0001
0000
,
1000
1000
0000
0000
,
0000
0000
0010
0000
,
0100
0100
0000
0000
,
0000
0000
0001
0000
,
0010
0010
0000
0000
,
0000
0000
0100
0000
,
1000
1000
0000
0000
,
0000
0000
0010
0000
,
0010
0000
0010
0000
,
0000
0000
0100
0000
,
0100
0000
0100
0000
,
0000
0000
0001
0000
,
0001
0000
0001
0000
,
0000
0000
1000
0000
,
0100
0100
0000
0000
,
0000
0000
0000
1000
,
0000
1000
0000
1000
,
0000
0000
0000
0001
,
0000
0001
0000
0001
,
0000
0000
0000
0010
,
0000
0010
0000
0010
,
0000
0000
0000
0100
,
0000
0100
0000
0100
,
0000
0000
0000
1000
,
1000
0000
1000
0000
,
0010
0000
0000
0100
,
0100
0000
0100
0000
,
0001
0000
0000
0010
,
0010
0000
0010
0000
,
0100
0000
1000
0000
,
0000
0000
0001
0000
,
0000
0000
0100
0000
,
0010
0010
0000
0000
,
0000
0000
1000
0000
,
0100
0100
0000
0000
,
0000
0000
0010
0000
,
0001
0001
0000
0000
,
0000
0000
1000
0000
,
0001
0001
0000
0000
,
0000
0000
1000
0000
,
1000
0000
0010
0000
,
0000
0000
0100
0000
,
0100
0000
0001
0000
,
0000
0000
0010
0000
,
0010
0000
0100
0000
,
0000
0000
1000
0000
,
0001
0001
0000
0000
,
0000
0000
0000
0100
,
0000
0100
0000
0100
,
0000
0000
0000
0010
,
0000
0010
0000
0010
,
0000
0000
0000
1000
,
0000
1000
0000
1000
,
0000
0000
0001
0000
,
0010
0010
0000
0000
,
0001
0001
0000
0000
;
