#VERSION:0.82;
#TITLE:Domino;
#SUBTITLE:;
#ARTIST:Jessie J;
#TITLETRANSLIT:;
#SUBTITLETRANSLIT:;
#ARTISTTRANSLIT:;
#GENRE:More like DomiYES right;
#ORIGIN:;
#CREDIT:;
#BANNER:Domino.png;
#BACKGROUND:Domino-bg.png;
#PREVIEWVID:;
#JACKET:jacket.png;
#CDIMAGE:;
#DISCIMAGE:;
#LYRICSPATH:;
#CDTITLE:cdtitle.png;
#MUSIC:Domino.ogg;
#OFFSET:0.040000;
#SAMPLESTART:52.893372;
#SAMPLELENGTH:14.339993;
#SELECTABLE:YES;
#BPMS:0.000=127.000;
#STOPS:;
#DELAYS:;
#WARPS:;
#TIMESIGNATURES:0.000=4=4;
#TICKCOUNTS:0.000=4;
#COMBOS:0.000=1;
#SPEEDS:0.000=1.000=0.000=0;
#SCROLLS:0.000=1.000;
#FAKES:;
#LABELS:0.000=Song Start;
#BGCHANGES:2.500=Domino.avi=1.000=0=0=1=====,
99999=-nosongbg-=1.000=0=0=0 // don't automatically add -songbackground-
;
#KEYSOUNDS:;
#ATTACKS:
;

//---------------dance-single - ----------------
#NOTEDATA:;
#CHARTNAME:;
#STEPSTYPE:dance-single;
#DESCRIPTION:;
#CHARTSTYLE:;
#DIFFICULTY:Hard;
#METER:8;
#RADARVALUES:0.527374,0.569409,0.286067,0.272444,0.098761,460.000000,42.000000,40.000000,0.000000,0.000000,0.000000,0.000000,0.000000,0.527374,0.569409,0.286067,0.272444,0.098761,460.000000,42.000000,40.000000,0.000000,0.000000,0.000000,0.000000,0.000000;
#CREDIT:Ben Speirs;
#NOTES:
// measure 0
0000
0000
0000
0000
,  // measure 1
0000
0000
0000
0000
,  // measure 2
0000
0000
0000
0000
,  // measure 3
0000
0000
0000
0000
,  // measure 4
1000
0000
1100
0000
0000
0001
0000
0100
,  // measure 5
0000
0010
0010
1000
0010
0100
0001
0000
,  // measure 6
1000
0000
0101
0000
0000
1000
0000
0001
,  // measure 7
0000
0010
0010
0001
1000
1000
0100
0000
,  // measure 8
0010
0000
1001
0000
0000
1100
0000
0101
,  // measure 9
0000
1000
0100
1000
0001
0100
0001
0000
,  // measure 10
1000
0000
1001
0000
0000
1010
0000
0011
,  // measure 11
0000
1000
0000
0001
0100
0000
0010
1000
,  // measure 12
0100
0000
1100
0100
0010
0000
0110
0010
,  // measure 13
0001
0000
0011
0001
1000
0000
1001
0000
,  // measure 14
0001
0100
0001
0100
0010
1000
0010
1000
,  // measure 15
0100
0010
0001
1000
1000
0001
0100
0010
,  // measure 16
1000
0000
1010
0000
0001
0010
0000
0010
,  // measure 17
0000
0001
0010
0100
1000
0001
0100
0000
,  // measure 18
0001
0000
1001
0000
1000
0100
0000
0100
,  // measure 19
0000
1000
0010
0100
0010
1000
0100
0010
,  // measure 20
0001
0000
2100
0000
3001
0010
1000
0010
,  // measure 21
0002
0000
0203
0000
0310
1000
0010
1000
,  // measure 22
0200
0000
0320
0000
0031
0010
0100
1000
,  // measure 23
0001
0000
0101
0000
1000
1000
0000
0001
,  // measure 24
1000
0000
0012
0000
1003
0100
0001
0100
,  // measure 25
2000
0000
3020
0000
0130
0001
0100
0001
,  // measure 26
0020
0000
0230
0000
1300
0100
0010
0001
,  // measure 27
1000
0000
1010
0000
0001
0001
0010
0100
,  // measure 28
1000
0000
0000
0000
0001
0010
0001
0000
0000
0000
0100
0000
0100
0000
0010
0000
,  // measure 29
1000
0000
0001
0000
0010
0000
0100
0000
1000
0001
1000
0001
1000
0000
0000
0000
,  // measure 30
0010
0000
0000
0000
1000
0100
1000
0000
0000
0000
0001
0000
0010
0000
0001
0000
,  // measure 31
1000
0000
0010
0000
0100
0000
0100
0000
0001
1000
0001
1000
0001
0000
0000
0000
,  // measure 32
0100
0000
0000
0000
0010
1000
0010
0000
0000
0000
0100
0000
0100
0000
0001
0000
,  // measure 33
1000
0000
0100
0000
0010
0000
0010
0000
0001
1000
0001
1000
0001
0000
0000
0000
,  // measure 34
1000
0000
0012
0000
0000
1003
0010
1000
,  // measure 35
0001
0000
0010
0000
0100
0000
1000
0000
0010
0100
0010
0100
0010
0000
0000
0000
,  // measure 36
0100
0001
2000
0100
3100
0020
0000
0031
,  // measure 37
0010
0000
0100
0000
1000
0000
0001
0000
0100
0010
0100
0000
0110
0000
0000
0000
,  // measure 38
0001
0100
0020
1000
1030
0002
0000
0013
,  // measure 39
0100
0000
0010
0000
0001
0000
1000
0000
0010
1000
0010
0000
1010
0000
0000
0000
,  // measure 40
0001
0100
0010
1000
0100
0010
0001
1000
,  // measure 41
0010
0000
0001
0000
0010
0000
1000
0000
0100
0010
0100
0000
0110
0000
0000
0000
,  // measure 42
0001
0010
0100
1000
0001
0100
1000
0100
,  // measure 43
0001
0000
0010
0000
0100
0000
1000
0000
0010
0100
0010
0000
0110
0000
0000
0000
,  // measure 44
2000
0000
0010
0000
0000
0010
0000
0002
,  // measure 45
0000
0000
0000
3003
,  // measure 46
0002
0000
0010
0000
0000
0010
0000
2000
,  // measure 47
0000
0000
0000
3003
,  // measure 48
2000
0000
3100
0000
0010
0200
0000
2300
,  // measure 49
0000
3100
0000
1000
0100
0010
0001
0100
,  // measure 50
0002
0000
0013
0000
0100
0020
0000
0032
,  // measure 51
0000
0013
0000
0001
0010
0100
1000
0010
,  // measure 52
2000
3200
0302
0203
,  // measure 53
2300
3020
0032
0023
,  // measure 54
1030
0100
1000
0100
0010
0001
0010
0001
,  // measure 55
1000
1010
1001
0101
,  // measure 56
1000
0001
0010
0100
0010
0100
0000
0010
,  // measure 57
0010
0001
0100
0010
1000
0001
1000
0000
,  // measure 58
0001
0100
0010
0100
0010
1000
0000
1000
,  // measure 59
0001
0100
0000
0000
0000
0000
0000
0000
,  // measure 60
1001
0000
0100
0000
1001
0000
0000
0000
0100
0001
0100
0000
0010
0000
1000
0000
,  // measure 61
1000
0000
0001
0000
0010
0000
0100
0000
1000
0001
1000
0001
1000
0000
0000
0000
,  // measure 62
0010
0100
0201
0000
0310
1000
1000
0001
,  // measure 63
0001
0000
0010
0000
0100
0000
1000
0000
0001
0010
0001
0000
1001
0000
0000
0000
,  // measure 64
0100
1000
1010
1000
0001
0101
0100
2001
,  // measure 65
0000
0000
3010
0000
1000
0000
0100
0000
0010
0100
0010
0000
0110
0000
0000
0000
,  // measure 66
0001
0010
0100
0100
0010
0100
1000
0002
,  // measure 67
0000
0000
0103
0000
0010
0000
1000
0000
0001
0010
0001
0010
0001
0000
0000
0000
,  // measure 68
1001
0000
0010
0000
1001
0000
0000
0000
0010
1000
0010
0000
0100
0000
0001
0000
,  // measure 69
0001
0000
1000
0000
0100
0000
0010
0000
0001
1000
0001
1000
0001
0000
0000
0000
,  // measure 70
0100
0010
1020
0000
0130
0001
0001
1000
,  // measure 71
1000
0000
0100
0000
0010
0000
0001
0000
1000
0100
1000
0000
1001
0000
0000
0000
,  // measure 72
0010
0001
0101
0001
1000
1010
0010
1002
,  // measure 73
0000
0000
0103
0000
0001
0000
0010
0000
0100
0010
0100
0000
0110
0000
0000
0000
,  // measure 74
1000
0100
0010
0010
0100
0010
0001
2000
,  // measure 75
0000
0000
3010
0000
0100
0000
0001
0000
1000
0100
1000
0100
2000
0000
0000
0000
,  // measure 76
3001
0000
0000
0000
;

//---------------dance-double - ----------------
#NOTEDATA:;
#CHARTNAME:;
#STEPSTYPE:dance-double;
#DESCRIPTION:;
#CHARTSTYLE:;
#DIFFICULTY:Challenge;
#METER:8;
#RADARVALUES:0.521536,0.569409,0.224767,0.435911,0.091950,439.000000,33.000000,64.000000,0.000000,0.000000,0.000000,0.000000,0.000000,0.521536,0.569409,0.224767,0.435911,0.091950,439.000000,33.000000,64.000000,0.000000,0.000000,0.000000,0.000000,0.000000;
#CREDIT:Ben Speirs;
#NOTES:
00000000
00000000
00000000
00000000
,
00000000
00000000
00000000
00000000
,
00000000
00000000
00000000
00000000
,
00000000
00000000
00000000
00000000
,
00001000
00000000
00001100
00000000
00000000
00000100
00000000
00000100
,
00000000
00001000
00000100
00001000
00000010
00000100
00000001
00000000
,
00001000
00000000
00000101
00000000
00000000
00000100
00000000
00000100
,
00000000
00000001
00000100
00000001
00000010
00000100
00001000
00000000
,
00000100
00000000
00020100
00000000
00000000
00001000
00000000
00031000
,
00000000
00010000
00001000
00010000
00001000
00100000
00010000
00000000
,
01000000
00000000
01020000
00000000
00000000
10000000
00000000
10030000
,
00000000
01000000
00010000
00100000
01000000
10000000
00010000
00000000
,
10000000
00000000
11000000
01000000
00100000
00000000
01100000
00100000
,
00010000
00000000
00110000
00010000
01000000
00000000
10010000
00000000
,
01010000
00010000
01000000
00010000
00100000
00001000
00100000
00001000
,
00010000
00000100
00001000
00000010
00000000
00000100
00000010
00001000
,
00000001
00000000
00000101
00000000
00000100
00000010
00000100
00000010
,
00001000
00001000
00000100
00000010
00000001
00000001
00001000
00000000
,
00000010
00000000
00001002
00000000
00000000
00000103
00000010
00002000
,
00000000
00000000
00003200
00000000
00000310
00000001
00000010
00000100
,
00001000
00000000
00001002
00000000
00000103
00000010
00000100
00000010
,
00002000
00000000
00003200
00000000
00010300
00000100
00010000
00000100
,
00020000
00000000
00032000
00000000
00103000
00001000
00010000
00100000
,
20000000
00000000
32000000
00000000
03100000
00100000
00010000
10000000
,
00100000
00000000
20010000
00000000
30100000
00100000
01000000
00100000
,
10100000
00000000
01020000
00000000
10030000
10000000
01000000
00100000
,
00120000
00000000
20030000
00000000
30100000
01000000
00100000
01000000
,
00010000
00000000
01010000
00000000
00100000
00100000
00010000
00100000
,
00001000
00000000
00000000
00000000
00101000
00000000
00000000
00000000
00001000
00010000
00001000
00000000
00010000
00000000
00000100
00000000
,
00000100
00000000
00001000
00000000
00000010
00000000
00000100
00000000
00000001
00001000
00000001
00001000
00000001
00000000
00000000
00000000
,
00000100
00000000
00000010
00000000
00001000
00000100
00001000
00000000
00000010
00000000
00000100
00000000
00000100
00000000
00000001
00000000
,
00000010
00000000
00000100
00000000
00001000
00000000
00000001
00000000
00001000
00000100
00001000
00000100
00001000
00000000
00000000
00000000
,
00000010
00000100
00000201
00000000
00000000
00000310
00001000
00000010
,
00000100
00000000
00000001
00000000
00000010
00000000
00000100
00000000
00001000
00000100
00001000
00000000
00001100
00000000
00000000
00000000
,
00000001
00000010
00000100
00001000
00001000
00000100
00010000
00002000
,
00000000
00000000
00103000
00000000
00100000
00000000
00010000
00000000
01000000
00010000
01000000
00010000
01000000
00000000
00000000
00000000
,
00100000
00000000
10020000
00000000
01030000
00200000
00000000
20300000
,
00000000
00000000
30010000
00000000
00100000
00000000
01000000
00000000
10000000
01000000
10000000
01000000
10000000
00000000
00000000
00000000
,
00100000
10000000
00020000
00000000
00130000
00002000
00000000
00023000
,
00000000
00031000
00100000
00010000
01000000
01000000
01000000
00000000
,
00100000
00000000
01000000
00000000
00010000
10000000
00010000
00000000
01000000
00000000
00100000
00000000
10000000
00000000
01000000
00000000
,
01000000
00000000
00100000
00000000
00010000
00000000
10000000
00000000
00100000
01000000
00100000
00000000
01100000
00000000
00000000
00000000
,
00010000
01000000
00200000
00000000
00000000
20300000
00000000
30020000
,
00000000
00130000
00001000
00100000
00001000
00010000
00000100
00000000
,
00002000
00000000
00000100
00000000
00000000
00000100
00000000
00000002
,
00000000
00000000
00000000
00003003
,
00000002
00000000
00000100
00000000
00000000
00000100
00000000
00002000
,
00000000
00000000
00000000
00003003
,
00000001
00000000
00000200
00000000
00000310
00000200
00000000
00000302
,
00000000
00000023
00000000
00000130
00000010
00000001
00000100
00000000
,
00000010
00000000
00002000
00000000
00003100
00000020
00000000
00000230
,
00000000
00002300
00000000
00003010
00000100
00000010
00002000
00000000
,
00003100
00000200
00010300
00020000
,
00031000
00002000
00103000
00200000
,
00310000
01000000
00020000
00000000
10030000
01000000
20000000
00000000
,
30010000
00100000
01000000
00000000
11000000
00000000
01010000
00000000
,
10000000
00100000
01000000
00100000
01000000
00100000
00000000
10000000
,
10000000
00100000
01000000
00010000
20000000
00000000
30010000
00000000
,
00010000
00100000
01000000
00100000
01000000
10000000
00000000
10000000
,
00100000
01000000
00010000
00000000
00000000
00000000
00000000
00000000
,
01001000
00000000
20010000
00000000
30100000
01000000
00100000
10000000
,
01000000
00000000
01000000
00000000
00100000
00000000
00010000
00000000
10000000
01000000
10000000
01000000
10000000
00000000
00000000
00000000
,
00100000
10000000
00020000
00000000
00130000
00002000
00000000
00023000
,
00000000
00000000
00130000
00000000
10000000
00000000
01000000
00000000
00100000
00010000
00100000
00010000
00100000
00000000
00000000
00000000
,
00010000
01000000
02010000
00000000
00000000
03200000
00000000
10300000
,
01000000
10000000
00010000
00100000
00110000
00000000
00102000
00000000
,
00013000
00000100
00002000
00000000
00003010
00000100
00000010
00001000
,
00000100
00000000
00001000
00000001
00001000
00000000
00000010
00000000
00000100
00000001
00000100
00000001
00000100
00000000
00000000
00000000
,
00000010
00000000
00001002
00000000
00000103
00000010
00000100
00000001
,
00000010
00000000
00000010
00000000
00000100
00000000
00001000
00000000
00000001
00000010
00000001
00000010
00000001
00000000
00000000
00000000
,
00000100
00000001
00002000
00000000
00003100
00020000
00000000
00032000
,
00000000
00000000
00003100
00000000
00000001
00000000
00000010
00000000
00000100
00001000
00000100
00001000
00000100
00000000
00000000
00000000
,
00001000
00000010
00001020
00000000
00000000
00000230
00000000
00000301
,
00000010
00000001
00001000
00000100
00001100
00000000
00020100
00000000
,
00031000
00100000
00020000
00000000
01030000
00100000
01000000
00010000
,
00100000
00000000
00010000
10000000
00010000
00000000
01000000
00000000
00100000
10000000
00100000
10000000
00200000
00000000
00000000
00000000
,
00301000
00000000
00000000
00000000
;

//---------------dance-single - ----------------
#NOTEDATA:;
#CHARTNAME:;
#STEPSTYPE:dance-single;
#DESCRIPTION:;
#CHARTSTYLE:;
#DIFFICULTY:Medium;
#METER:6;
#RADARVALUES:0.320122,0.362351,0.163467,0.177089,0.000000,279.000000,24.000000,26.000000,0.000000,0.000000,0.000000,0.000000,0.000000,0.320122,0.362351,0.163467,0.177089,0.000000,279.000000,24.000000,26.000000,0.000000,0.000000,0.000000,0.000000,0.000000;
#CREDIT:Ben Speirs;
#NOTES:
0000
0000
0000
0000
,
0000
0000
0000
0000
,
0000
0000
0000
0000
,
0000
0000
0000
0000
,
1000
0000
0010
0000
0000
0100
0000
0100
,
0000
0000
0001
0000
1000
0100
1000
0000
,
0001
0000
0010
0000
0000
0001
0000
0001
,
0000
0000
0100
0000
0010
1000
0010
0000
,
0100
0000
0001
0000
0000
1000
0000
1000
,
0000
0000
0001
0000
0010
0100
0010
0000
,
0001
0000
1000
0000
0000
0100
0000
0100
,
0000
1000
0001
0000
,
0100
0110
0000
1010
,
0000
1001
0000
0101
,
0100
1001
0000
1100
,
0000
0000
0011
0000
0000
0000
1000
0001
,
2000
3010
0100
0001
,
1000
0000
1000
0000
0001
0010
0001
0000
,
0200
0000
0300
0000
0010
1000
0010
0000
,
0100
0001
1000
0000
,
0001
0000
0001
0000
1000
0100
1000
0000
,
0001
0000
0001
0000
1000
0100
1000
0000
,
0001
0000
0001
0000
1000
0100
1000
0200
,
0000
0000
0310
0000
0001
1000
0001
0000
,
1000
0000
1000
0000
0001
0100
0001
0000
,
1000
0000
1000
0000
0001
0100
0001
0000
,
1000
0000
1000
0000
0001
0100
0001
0200
,
0000
0310
1000
0001
,
0010
0000
1002
0000
0000
0100
0000
0103
,
0000
0010
0010
0000
0100
0000
0001
0000
,
1000
0000
2100
0000
0000
0010
0000
3010
,
0000
1000
1000
0000
0001
1000
0001
0000
,
0000
0120
0000
1030
,
0001
0000
0010
0000
0001
1000
0001
0000
,
1000
1200
0000
0310
,
0001
0000
1000
0000
0010
0100
0010
0000
,
1000
1010
0001
1000
,
0001
0010
0001
1000
0001
0000
0200
0000
,
0300
0010
1000
0001
,
0010
0000
0001
1000
0001
1000
0200
0000
,
0300
2100
0000
3001
,
1000
0000
0010
0100
0020
0000
1030
0000
,
0000
2010
0000
3001
,
0010
0001
0010
0000
0001
1000
0001
0000
,
0200
0000
0000
0300
,
0020
0000
0000
0030
,
2000
0000
0000
3000
,
0002
0000
0000
0003
,
1000
1100
1100
0000
,
0100
0100
1000
0001
,
0100
0101
0101
0000
,
0001
1000
0010
0010
,
0000
0000
1000
0100
1000
0100
0000
0000
,
1000
1000
0010
0100
,
0000
0000
0001
0100
0001
0100
0000
0000
,
0010
0010
0100
0001
,
0000
0000
1000
0001
1000
0001
0000
0000
,
0010
0010
0001
1000
,
0000
0000
0001
1000
0001
1000
0000
0010
,
0000
0000
0000
0000
,
0010
1001
0100
0010
,
1000
0000
0001
0100
0002
0000
1003
0000
,
0000
0001
0010
0001
,
0100
0000
0010
1000
0010
1000
0100
0000
,
0000
2100
3000
0002
,
1003
0000
0010
0000
0100
0001
0100
0000
,
0010
2000
0000
3001
,
1000
0000
0101
0000
1000
0100
0010
0000
,
0001
2100
0000
3010
,
1000
0001
1000
0000
0010
0000
0102
0000
,
0003
0000
1000
0200
0000
0000
0310
0000
,
0001
1000
0001
0000
0100
0100
0100
0000
,
0010
1000
0001
0010
,
0001
1000
0001
0000
0100
0000
0201
0000
,
0300
0000
0010
0000
1000
0100
1000
0000
,
0010
1000
0010
0000
0100
0100
0200
0000
,
0301
0000
0000
0000
;

//---------------dance-single - ----------------
#NOTEDATA:;
#CHARTNAME:;
#STEPSTYPE:dance-single;
#DESCRIPTION:;
#CHARTSTYLE:;
#DIFFICULTY:Easy;
#METER:3;
#RADARVALUES:0.219901,0.258822,0.020433,0.217955,0.000000,191.000000,3.000000,32.000000,0.000000,0.000000,0.000000,0.000000,0.000000,0.219901,0.258822,0.020433,0.217955,0.000000,191.000000,3.000000,32.000000,0.000000,0.000000,0.000000,0.000000,0.000000;
#CREDIT:Ben Speirs;
#NOTES:
0000
0000
0000
0000
,
0000
0000
0000
0000
,
0000
0000
0000
0000
,
0000
0000
0000
0000
,
1000
0000
0010
0000
,
1000
0100
0010
0010
,
0001
0000
1000
0000
,
0001
0100
0010
0010
,
1000
0000
0001
0000
,
1000
0100
0010
0010
,
0100
0000
1000
0000
,
0010
0000
0100
0000
,
0001
0100
0001
0100
,
0020
0030
0020
0030
,
1000
0100
1000
0100
,
0020
0030
0020
0030
,
0001
0000
1000
0000
,
0010
0010
0100
0100
,
0001
0000
1000
0000
,
0100
0100
0100
0000
,
0020
0030
0001
0001
,
0200
0300
0010
0010
,
2000
3000
0001
1000
,
0001
0000
1000
0000
,
0020
0030
1000
1000
,
0200
0300
0010
0010
,
0002
0003
1000
0001
,
1000
0000
0001
0000
,
1001
0000
1000
0000
,
0010
1000
0100
0100
,
0010
0000
0001
0000
,
1000
0100
0010
0001
,
0100
0000
0001
0000
,
1000
0001
1000
1000
,
0010
0000
0100
0000
,
0001
0010
0100
1000
,
0020
0030
2000
3000
,
0001
0001
1000
1000
,
0200
0300
0020
0030
,
0001
0000
1000
0001
,
2000
3000
0002
0003
,
0100
0001
1000
1000
,
0020
0030
2000
3000
,
0001
0010
0100
1000
,
0020
0000
0000
0000
,
0000
0000
0000
0030
,
0200
0000
0000
0000
,
0000
0000
0000
0300
,
0002
0000
0000
0003
,
2000
0000
0000
3000
,
0020
0000
0000
0030
,
0200
0000
0000
0300
,
0001
0100
0001
0000
,
1000
0100
1000
0000
,
0001
0010
0001
0000
,
1000
0010
1000
0000
,
0001
0001
0100
0000
,
0100
0100
0010
0000
,
0010
0010
1000
1000
,
0001
0000
0000
0000
,
1001
0000
1000
0000
,
0010
0010
1000
1000
,
0100
0000
0010
0000
,
0001
0010
0100
1000
,
0010
0000
1000
0000
,
0001
0001
0100
0100
,
0010
0000
0100
0000
,
0001
0010
0100
1000
,
0020
0030
2000
3000
,
0001
0100
0001
0001
,
2000
3000
0200
0300
,
0010
0010
0010
0001
,
2000
3000
0002
0003
,
0100
0100
0100
0000
,
0020
0030
2000
3000
,
0001
1000
0100
0100
,
1001
0000
0000
0000
;

//---------------dance-single - ----------------
#NOTEDATA:;
#CHARTNAME:;
#STEPSTYPE:dance-single;
#DESCRIPTION:;
#CHARTSTYLE:;
#DIFFICULTY:Beginner;
#METER:1;
#RADARVALUES:0.105086,0.155293,0.054489,0.000000,0.000000,100.000000,8.000000,0.000000,0.000000,0.000000,0.000000,0.000000,0.000000,0.105086,0.155293,0.054489,0.000000,0.000000,100.000000,8.000000,0.000000,0.000000,0.000000,0.000000,0.000000,0.000000;
#CREDIT:Ben Speirs;
#NOTES:
0000
0000
0000
0000
,
0000
0000
0000
0000
,
0000
0000
0000
0000
,
0000
0000
0000
0000
,
0001
0000
0000
0000
,
1000
0000
0010
0000
,
0010
0000
0000
0000
,
1000
0000
0000
0000
,
0001
0000
0000
0000
,
0010
0000
0010
0000
,
0001
0000
0000
0000
,
0100
0000
0000
0000
,
0000
0010
0000
0010
,
0000
0010
0000
0000
,
0000
1000
0000
1000
,
0000
1000
0000
0000
,
0001
0000
0000
0000
,
1000
0000
0010
0000
,
0010
0000
0000
0000
,
1000
0000
0000
0000
,
1001
0000
0000
0000
,
0100
0100
0000
0000
,
0010
0010
0000
0000
,
1000
0000
0000
0000
,
1001
0000
0000
0000
,
0001
0001
0000
0000
,
1000
1000
0000
0000
,
0010
0000
0000
0000
,
1001
0000
0000
0000
,
1000
0000
1000
0000
,
0001
0000
0000
0000
,
0010
0000
0010
0000
,
0001
0000
0000
0000
,
1000
0000
1000
0000
,
0010
0000
0000
0000
,
0100
0100
0100
0000
,
1001
0000
0000
0000
,
1000
0000
1000
0000
,
0010
0000
0000
0000
,
1000
0000
1000
0000
,
0001
0000
0000
0000
,
0001
0000
0001
0000
,
0100
0000
0000
0000
,
0010
0010
0010
0000
,
1001
0000
0000
0000
,
0000
0000
0000
0000
,
1000
0000
0000
0000
,
0000
0000
0000
0000
,
0001
0000
0000
0000
,
1000
0000
0000
0000
,
0010
0000
0000
0000
,
0010
0000
0000
0000
,
0100
0000
0000
0000
,
0100
0000
0000
0000
,
0001
0000
0000
0000
,
1000
0000
0000
0000
,
0010
0000
0000
0000
,
0010
0000
0000
0000
,
1000
0000
0000
0000
,
0001
0000
0000
0000
,
1001
0000
0000
0000
,
1000
0000
0010
0000
,
0010
0000
0000
0000
,
0100
0000
0001
0000
,
0001
0000
0000
0000
,
1000
0000
0100
0000
,
0100
0000
0000
0000
,
0010
0010
0010
0000
,
1001
0000
0000
0000
,
0001
0000
0100
0000
,
0100
0000
0000
0000
,
0001
0000
1000
0000
,
1000
0000
0000
0000
,
0100
0000
0010
0000
,
0010
0000
0000
0000
,
0001
0001
0001
0000
,
1001
0000
0000
0000
;
