#VERSION:0.82;
#TITLE:Ditmas;
#SUBTITLE:;
#ARTIST:Mumford & Sons;
#TITLETRANSLIT:;
#SUBTITLETRANSLIT:;
#ARTISTTRANSLIT:;
#GENRE:RIP Banjo;
#ORIGIN:;
#CREDIT:;
#BANNER:Ditmas.png;
#BACKGROUND:Ditmas-bg.png;
#PREVIEWVID:;
#JACKET:jacket.png;
#CDIMAGE:;
#DISCIMAGE:;
#LYRICSPATH:;
#CDTITLE:;
#MUSIC:Ditmas.ogg;
#OFFSET:-1.032000;
#SAMPLESTART:76.802048;
#SAMPLELENGTH:17.133999;
#SELECTABLE:YES;
#BPMS:0.000=144.010;
#STOPS:;
#DELAYS:;
#WARPS:;
#TIMESIGNATURES:0.000=4=4;
#TICKCOUNTS:0.000=4;
#COMBOS:0.000=1;
#SPEEDS:0.000=1.000=0.000=0;
#SCROLLS:0.000=1.000;
#FAKES:;
#LABELS:0.000=Song Start;
#BGCHANGES:0.000=Ditmas.avi=1.000=0=0=1=====,
99999=-nosongbg-=1.000=0=0=0 // don't automatically add -songbackground-
;
#KEYSOUNDS:;
#ATTACKS:
;

//---------------dance-single - ----------------
#NOTEDATA:;
#CHARTNAME:;
#STEPSTYPE:dance-single;
#DESCRIPTION:;
#CHARTSTYLE:;
#DIFFICULTY:Hard;
#METER:8;
#RADARVALUES:0.541297,0.578667,0.348786,0.221954,0.000000,406.000000,44.000000,28.000000,0.000000,0.000000,0.000000,0.000000,0.000000,0.541297,0.578667,0.348786,0.221954,0.000000,406.000000,44.000000,28.000000,0.000000,0.000000,0.000000,0.000000,0.000000;
#CREDIT:Ben Speirs;
#NOTES:
// measure 0
0000
0000
0000
0000
,  // measure 1
0000
0000
0000
0000
,  // measure 2
0000
0000
0000
0000
,  // measure 3
0000
0000
0000
0000
,  // measure 4
0001
0100
1000
0010
,  // measure 5
0100
0000
0001
0000
1000
0100
1000
0000
,  // measure 6
0001
1000
1000
0010
,  // measure 7
0100
0001
0100
0001
1000
0000
0010
1000
,  // measure 8
0001
1000
1000
0100
,  // measure 9
0010
0000
0001
0000
1000
0100
1000
0000
,  // measure 10
0001
0000
0011
0000
1000
0001
1000
0000
,  // measure 11
0010
0000
1000
0100
0010
0001
1000
0000
,  // measure 12
0020
0000
0130
0000
0001
1000
0001
0000
,  // measure 13
0020
0000
0130
0000
1000
0001
1000
0000
,  // measure 14
1100
0000
0011
0000
0100
0001
1000
0000
,  // measure 15
1010
0000
0011
0000
1000
0001
0100
0000
,  // measure 16
0010
1000
0002
0000
0100
0000
1003
0000
,  // measure 17
1001
0000
1000
0100
0010
0000
0010
0001
,  // measure 18
2000
0010
3001
1001
,  // measure 19
0001
0010
0100
0000
0100
1000
0010
0100
,  // measure 20
2010
0000
3001
0100
0100
0000
1001
0000
,  // measure 21
0010
1000
0001
0000
0100
0000
0001
1000
,  // measure 22
0100
0010
0001
0000
2100
0000
3010
1000
,  // measure 23
0002
0000
0103
0001
1000
0100
1000
0100
,  // measure 24
0010
0001
1000
0010
0101
0000
1100
0000
,  // measure 25
0011
0000
0100
0001
1000
0000
0010
0000
,  // measure 26
1000
0000
0001
0010
0100
1000
0010
0100
,  // measure 27
1001
0000
0010
1000
0101
0000
0010
0001
,  // measure 28
1000
0001
1000
0001
0100
0000
0010
1000
,  // measure 29
1100
0000
0010
0100
0101
0000
0010
1000
,  // measure 30
1001
0000
0001
0000
0010
0001
0100
0000
,  // measure 31
0010
1000
0010
1000
0001
1000
0001
1000
,  // measure 32
0010
0100
0001
0000
0010
0001
1000
0100
,  // measure 33
1100
0000
0001
1000
1001
0000
0001
0100
,  // measure 34
0010
1000
0100
0010
0001
0000
1000
0010
,  // measure 35
1000
0001
0100
0000
2001
0000
0100
0000
,  // measure 36
0010
0000
3001
0100
0100
0010
1000
0100
,  // measure 37
0100
0000
0010
0001
1000
0010
0100
0001
,  // measure 38
1000
0100
1000
0001
0010
0001
1000
0001
,  // measure 39
0200
0000
0310
0100
0001
0010
0100
0000
,  // measure 40
1100
0000
0011
0000
2001
0000
3010
0100
,  // measure 41
0001
0000
1000
0100
0010
0000
0001
1000
,  // measure 42
0010
0100
0001
0000
1002
0000
0010
0000
,  // measure 43
0100
0000
1003
0010
0010
0100
0001
0010
,  // measure 44
0010
0000
0100
1000
0001
0100
0010
1000
,  // measure 45
0001
0010
0001
1000
0100
1000
0001
1000
,  // measure 46
0201
0000
0310
1000
1200
0000
0310
0001
,  // measure 47
1000
0000
0010
1000
0001
0000
0100
0001
,  // measure 48
1000
0100
0010
0000
0012
0000
1003
0100
,  // measure 49
2000
0000
3010
0100
0001
0100
0010
1000
,  // measure 50
0100
0100
0010
0001
1100
0000
0101
0000
,  // measure 51
2001
0000
3010
1000
0001
0000
0010
0001
,  // measure 52
1000
0000
0100
1000
0010
0100
0001
0000
,  // measure 53
2100
0000
3001
0100
0020
0000
1030
0001
,  // measure 54
0100
0001
1000
0010
0010
0000
0100
0001
,  // measure 55
0101
0000
1000
0100
1100
0000
0001
0010
,  // measure 56
0012
1000
0100
0103
,  // measure 57
1010
0000
0001
0010
0011
0000
1000
0100
,  // measure 58
2100
0001
0010
3010
,  // measure 59
0100
0001
1000
0100
0010
0001
1000
0000
,  // measure 60
0001
0100
0010
1000
0100
0010
0001
0000
,  // measure 61
1100
0000
0001
0000
0101
0000
1000
0001
,  // measure 62
0100
0000
0010
1000
0100
0000
0010
0001
,  // measure 63
1000
0010
0100
0001
1000
0000
0010
1000
,  // measure 64
0100
0010
0001
0000
1100
0000
0101
0000
,  // measure 65
1001
0000
0010
1000
0001
0000
0100
0001
,  // measure 66
1000
0000
0100
0010
0001
1000
0010
0100
,  // measure 67
0200
0000
0301
1000
2000
0000
3100
0010
,  // measure 68
0020
0000
0031
0100
0200
0000
0310
1000
,  // measure 69
0001
0000
1000
0100
0010
0000
0001
0010
,  // measure 70
0100
1000
0001
0100
0200
0000
0310
1000
,  // measure 71
2000
0000
3100
0010
0010
0001
1000
0010
,  // measure 72
0202
0000
0000
0000
,  // measure 73
0303
0000
0000
0000
;

//---------------dance-single - ----------------
#NOTEDATA:;
#CHARTNAME:;
#STEPSTYPE:dance-single;
#DESCRIPTION:;
#CHARTSTYLE:;
#DIFFICULTY:Medium;
#METER:6;
#RADARVALUES:0.348786,0.549734,0.253662,0.380493,0.000000,228.000000,32.000000,48.000000,0.000000,0.000000,0.000000,0.000000,0.000000,0.348786,0.549734,0.253662,0.380493,0.000000,228.000000,32.000000,48.000000,0.000000,0.000000,0.000000,0.000000,0.000000;
#CREDIT:Ben Speirs;
#NOTES:
0000
0000
0000
0000
,
0000
0000
0000
0000
,
0000
0000
0000
0000
,
0000
0000
0000
0000
,
0100
0010
1000
1000
,
0100
0010
0001
0001
,
1000
0000
0001
0000
,
0100
0010
0100
0100
,
0001
0000
1000
0000
,
0100
0000
0010
0001
,
1000
1001
0000
0010
,
1000
0001
0100
0100
,
0010
1000
0100
0100
,
0010
0000
0001
0000
,
1000
0001
1000
0000
,
0010
0100
0010
0000
,
1000
0000
0001
0000
,
0010
0001
1000
1000
,
0100
0000
1000
0000
,
0010
0000
0010
0000
0100
0010
0100
0000
,
2002
3003
0220
0330
,
0001
0010
0001
0001
,
1000
0010
2020
3030
,
0202
0000
0303
0000
1000
0001
1000
0000
,
0100
0000
1100
0011
,
2002
3003
0010
1000
,
0100
0000
0100
0000
0010
0001
0010
0000
,
0002
0003
2000
3000
,
0010
0100
0010
0000
0200
0000
0300
0000
,
0202
0303
2200
3300
,
2002
3003
0010
1000
,
0001
0000
0010
0000
0001
1000
0001
0000
,
0200
0300
0010
0000
,
1000
0100
1000
0000
0002
0000
0003
0000
,
0100
0010
0100
0100
,
0001
0000
2000
0000
,
3100
0000
0000
1000
1000
0000
0000
0001
,
0001
0000
0100
0010
,
0100
0000
0100
0000
0001
0010
0100
0000
,
2000
3000
0100
1000
,
0020
0030
2002
3003
,
0100
0001
1000
1000
,
0100
0010
0100
0000
0020
0000
0030
0000
,
0001
0000
0000
0100
0100
0000
0000
0010
,
0010
0000
1000
0001
,
0100
0000
0000
0000
0001
1000
0001
0000
,
2002
3003
0220
0330
,
0001
0010
0001
0001
,
1000
0100
1000
0000
0101
0000
0000
1000
,
1000
0000
0010
1000
,
0001
0000
1001
0011
,
2200
3300
0001
1000
,
0100
0000
0000
0000
1000
0001
1000
0000
,
0020
0030
2000
3000
,
0001
0100
0001
0000
1000
0000
0000
0000
,
2200
3300
0022
0033
,
2002
0000
3003
0000
0010
0100
0010
0000
,
2002
3003
2200
3300
,
0022
0000
0033
0000
1000
0001
1000
0000
,
0010
0010
0100
0000
,
0001
0100
0010
0000
,
1000
0001
1001
0000
,
0100
1000
0100
0000
1000
0001
1000
0000
,
0010
0000
0100
0100
,
0010
0000
0110
0101
,
1100
0000
0000
0000
0001
1000
0001
0000
,
0010
0000
0001
1000
0001
0000
0000
0000
,
1100
0000
0011
0000
,
0101
0000
1010
0000
,
0001
0000
1000
0000
0010
0100
0010
0000
,
1000
0000
0000
0100
0100
0000
0000
0100
,
0100
0000
0000
0010
0010
0000
0000
0001
,
0002
0000
0000
0000
,
0003
0000
0000
0000
;

//---------------dance-single - ----------------
#NOTEDATA:;
#CHARTNAME:;
#STEPSTYPE:dance-single;
#DESCRIPTION:;
#CHARTSTYLE:;
#DIFFICULTY:Easy;
#METER:4;
#RADARVALUES:0.224219,0.462934,0.055489,0.325005,0.000000,150.000000,7.000000,41.000000,0.000000,0.000000,0.000000,0.000000,0.000000,0.224219,0.462934,0.055489,0.325005,0.000000,150.000000,7.000000,41.000000,0.000000,0.000000,0.000000,0.000000,0.000000;
#CREDIT:Ben Speirs;
#NOTES:
0000
0000
0000
0000
,
0000
0000
0000
0000
,
0000
0000
0000
0000
,
0000
0000
0000
0000
,
0100
0000
0001
0000
,
1000
0000
0100
0000
,
0010
0000
0000
0000
,
0001
0000
1000
0000
,
0010
0000
0000
0000
,
0100
0000
0000
0000
,
0001
0000
1000
0000
,
0010
0100
0010
0000
,
1000
0000
1000
0000
,
0100
0000
1000
0000
,
0001
0001
0001
0000
,
0100
0100
0100
0000
,
0010
0000
0010
0000
,
1000
0000
0100
0010
,
0001
0000
1000
0000
,
0001
0000
0100
0100
,
0200
0300
0002
0003
,
1000
0000
0001
0000
,
0010
0010
0200
0300
,
2000
3000
0020
0030
,
0200
0300
0001
1000
,
0002
0003
1000
0000
,
0100
0000
1000
1000
,
0020
0030
0200
0300
,
0002
0003
2000
3000
,
0200
0300
0020
0030
,
2002
0000
0000
3003
,
0010
0000
0100
0001
,
1000
0000
0100
0000
,
0010
0001
1000
0000
,
0010
0000
0100
0000
,
0001
0000
2000
0000
,
0000
3000
0100
0100
,
0010
0000
0001
0000
,
1000
1000
0010
0010
,
0100
0000
0001
0000
,
1000
0100
0010
0000
,
0001
0000
1000
0000
,
0010
0000
0200
0000
,
0000
0300
0001
0001
,
1000
0000
0100
0000
,
0010
0000
0001
0001
,
2000
3000
0020
0030
,
0100
0000
0001
0000
,
1000
1000
0200
0300
,
0020
0030
0002
0003
,
2000
3000
0010
0100
,
0002
0003
1000
0000
,
0001
0000
0100
0001
,
2000
3000
0200
0300
,
0020
0030
0002
0003
,
2002
3003
0220
0330
,
2002
0000
0000
3003
,
0220
0330
2002
3003
,
0220
0000
0000
0330
,
0100
0000
0001
0000
,
1000
0000
0000
0100
,
0100
0010
0010
0000
,
0001
0000
1000
0000
,
0010
0000
0100
0000
,
0000
0001
0001
1000
,
1000
0000
0100
0000
,
1000
0000
0000
0000
,
0001
0000
1000
0000
,
0010
0100
0010
0000
,
1000
0000
0001
0000
,
0000
0000
0010
0000
,
0001
0000
1000
0100
,
0020
0000
0000
0000
,
0030
0000
0000
0000
;

//---------------dance-single - ----------------
#NOTEDATA:;
#CHARTNAME:;
#STEPSTYPE:dance-single;
#DESCRIPTION:;
#CHARTSTYLE:;
#DIFFICULTY:Beginner;
#METER:2;
#RADARVALUES:0.117772,0.171222,0.031708,0.000000,0.000000,100.000000,4.000000,0.000000,0.000000,0.000000,0.000000,0.000000,0.000000,0.117772,0.171222,0.031708,0.000000,0.000000,100.000000,4.000000,0.000000,0.000000,0.000000,0.000000,0.000000,0.000000;
#CREDIT:Ben Speirs;
#NOTES:
0000
0000
0000
0000
,
0000
0000
0000
0000
,
0000
0000
0000
0000
,
0000
0000
0000
0000
,
0100
0000
0000
0000
,
0010
0000
0000
0000
,
1000
0000
0000
0000
,
0001
0000
0000
0000
,
0010
0000
0000
0000
,
0001
0000
0000
0000
,
0100
0100
0000
0000
,
0010
0000
0000
0000
,
1000
0000
0000
0000
,
0100
0000
0000
0000
,
0010
0000
0010
0000
,
0010
0000
0000
0000
,
0001
0000
0000
0000
,
1000
0000
1000
0000
,
1000
0000
0000
0000
,
0010
0000
0000
0000
,
0100
0000
0100
0000
,
0000
0000
0001
0000
,
1000
0000
0100
0000
,
0100
0000
0010
0000
,
0010
0000
0001
0001
,
0001
0000
0000
0000
,
1000
0000
0000
0000
,
0010
0000
0010
0000
,
0100
0000
0100
0000
,
0001
0000
0001
0000
,
1000
0000
0000
0000
,
0100
0000
0000
0000
,
1000
0000
0000
0000
,
0010
0010
0010
0000
,
0000
0000
0100
0000
,
0000
0000
0001
0000
,
0000
0000
0010
0010
,
0010
0000
0000
0000
,
0100
0000
0100
0000
,
1000
0000
0000
0000
,
0001
0001
0001
0000
,
0000
0000
0100
0000
,
0000
0000
0010
0000
,
0000
0000
1000
0000
,
1000
0000
0000
0000
,
0100
0000
0000
0000
,
1001
0000
1001
0000
,
0000
0000
0100
0000
,
0000
0000
0010
0000
,
0010
0000
0001
0000
,
0001
0000
1000
1000
,
1000
0000
0000
0000
,
0010
0000
0000
0000
,
0100
0000
0100
0000
,
0001
0000
0001
0000
,
1000
0000
1000
0000
,
1000
0000
0000
0000
,
0001
0000
0001
0000
,
0001
0000
0000
0000
,
0100
0000
0000
0000
,
1001
0000
0000
0000
,
0100
0100
0100
0000
,
0000
0000
0100
0000
,
0000
0000
1000
0000
,
0000
0000
0010
0010
,
0010
0000
0000
0000
,
0010
0000
0000
0000
,
0100
0000
0100
0000
,
0001
0000
0001
0000
,
0000
0000
0010
0000
,
0000
0000
0100
0000
,
0100
0000
1000
0000
,
1001
0000
0000
0000
;

//---------------dance-single - ----------------
#NOTEDATA:;
#CHARTNAME:;
#STEPSTYPE:dance-single;
#DESCRIPTION:;
#CHARTSTYLE:;
#DIFFICULTY:Challenge;
#METER:9;
#RADARVALUES:0.645480,0.723334,0.126831,0.110977,0.285370,540.000000,16.000000,14.000000,0.000000,0.000000,0.000000,0.000000,0.000000,0.645480,0.723334,0.126831,0.110977,0.285370,540.000000,16.000000,14.000000,0.000000,0.000000,0.000000,0.000000,0.000000;
#CREDIT:Ben Speirs;
#NOTES:
0000
0000
0000
0000
,
0000
0000
0000
0000
,
0000
0000
0000
0000
,
0000
0000
0000
0000
,
0100
0001
1000
0000
0100
1000
0001
0000
,
0010
0001
1000
0000
0010
1000
0001
0000
,
0200
0010
0310
0110
,
0010
0100
0001
0010
0200
0000
1300
0001
,
0020
0100
0130
0110
,
0010
0001
1000
0000
0010
1000
0001
0000
,
0101
0100
0010
0000
1000
0100
0010
0001
,
1000
0010
1000
0001
0100
0001
1000
0000
,
0100
0100
0100
0000
0010
0010
0010
0000
,
0001
0010
0100
1000
0010
0100
0001
0000
,
2000
0100
3100
1000
0020
0100
0130
0010
,
0100
0001
0010
0100
1000
0001
0100
0000
,
0001
1000
1100
0000
0010
1000
0001
0000
,
1000
0001
0101
0000
0001
0010
0100
1000
,
0001
0010
0011
0000
0001
0100
0010
0000
,
1000
0000
0010
0000
1010
0000
0000
0000
1000
0000
0100
0000
0010
0000
0001
0100
,
0002
0000
0000
0000
1003
0000
0100
1000
0200
0000
0000
0000
1300
0000
0010
0000
,
0100
0001
0010
0100
1000
0001
0100
0010
,
1000
0000
0100
0000
0010
0000
0001
1000
0002
0000
0000
0000
0103
0000
0010
1000
,
0020
0000
0000
0000
0130
0000
0001
1000
0001
0000
0010
0000
0100
0000
1000
0000
,
0010
0000
0100
0000
0001
0000
1000
0100
1000
0000
0001
0100
0001
0000
1000
0010
,
2000
0000
3001
0010
0100
1000
0010
0100
,
0001
0000
0010
0000
0100
0000
1000
0000
0010
0000
0100
0000
0001
0000
1000
0100
,
2000
0000
0000
0000
3001
0000
0100
0010
0200
0000
0000
0000
0301
0000
0010
0100
,
0010
0000
0001
0000
1000
0000
0010
0000
0100
0000
0000
0000
0001
0000
1000
0100
,
1000
0000
0010
0000
0100
0000
0001
1000
0001
0000
0010
0000
0100
0000
1000
0100
,
1000
0000
0100
1000
0010
0100
0001
0000
,
1000
0100
1000
0001
0010
0100
1000
0000
,
0001
0100
0001
0000
1000
0000
0100
0000
0010
0000
0001
0000
1000
0000
0010
0000
,
0100
0001
0100
0000
0010
0000
1000
0100
1000
0000
0000
0000
0001
0000
0010
0000
,
0100
0000
1000
0010
0100
0000
0001
1000
,
0010
0000
0100
0000
0001
0000
1000
0100
1000
0000
0000
0000
0010
0000
1000
0000
,
0100
0000
0010
0000
0001
0000
1000
0010
1000
0000
0100
0000
0010
0000
0001
1000
,
0001
0000
0100
0010
1000
0000
0001
0010
,
0100
0000
1000
0000
0001
0000
0100
0000
0010
0000
1000
0000
0100
0000
0010
0001
,
0010
0000
0000
0000
0001
0000
1000
0000
0010
0000
0100
0000
0001
0000
1000
0100
,
1000
0000
0010
1000
0010
0000
0100
0001
0100
0000
0000
0000
0010
0000
0100
0000
,
0001
0000
0010
0001
1000
0000
0100
1000
,
0010
0000
0100
0000
0001
0000
1000
0100
1000
0000
0000
0000
0010
0000
1000
0000
,
0100
0000
0010
0000
0001
0000
1000
0010
1000
0000
0001
0100
0001
0000
1000
0001
,
1000
0000
0100
1000
0010
0000
0100
0001
,
0010
0000
0100
0000
1000
0000
0001
0000
0100
0010
0100
0010
0100
0000
0010
0000
,
1000
0000
0000
0000
0010
0100
0010
0100
0001
0000
0000
0000
0100
0000
0001
0000
,
1000
0100
0010
0001
1000
0010
0100
0000
,
0001
0000
0010
0000
0100
1000
0100
1000
0001
0000
0000
0000
0010
0001
0010
0001
,
1000
0000
0000
0000
0010
1000
0010
1000
0001
0000
0100
0000
0010
1000
0010
1000
,
0100
0000
0010
0000
0001
0000
1000
0100
1000
0000
0001
0100
0001
0000
1000
0010
,
1000
0000
0001
0010
0100
1000
0010
0100
,
0001
0000
0000
0000
1000
0000
0100
0000
0010
0000
0001
0000
1000
0010
1000
0010
,
0100
0000
0000
0000
0001
1000
0001
1000
0100
0000
0000
0000
0010
0001
0010
0001
,
1000
0000
0001
0000
0100
0010
0100
0010
1000
0000
0000
0000
0001
0000
1000
0100
,
1000
0000
0010
0000
0010
0000
0100
0001
0100
0000
0010
0000
0010
0000
1000
0001
,
1000
0000
0000
0000
0100
0000
1000
0000
1000
0000
0010
0000
0100
0000
0001
0010
,
0001
0000
0100
0000
0100
0000
0010
1000
0010
0000
0100
0000
0100
0000
0001
1000
,
0001
0000
0010
0001
0100
0010
1000
0000
,
0001
0100
0010
1000
0100
0010
0001
0000
,
1100
1000
0010
0100
0001
1000
0010
0100
,
0101
0100
0110
0010
1010
0000
1000
0001
,
0100
0000
0001
0010
0100
0000
0010
0001
,
1000
0010
0100
0001
1001
0000
1000
0100
,
0010
0001
1000
0010
1010
0010
0110
0100
,
0101
0000
0001
1000
0100
0000
0010
0001
,
1000
0000
0010
0000
0100
0000
0001
0000
0010
0000
0100
0000
1000
0100
1000
0100
,
0010
0000
0000
0000
0001
0100
0001
0100
0010
0000
0000
0000
1000
0100
1000
0100
,
0010
0000
0000
0000
0001
0100
0001
0100
0010
0000
0000
0000
0100
0000
0001
0000
,
0010
0100
1000
0001
0100
0010
1000
0100
,
0010
0000
0001
0000
1000
0010
1000
0010
0100
0000
0000
0000
0001
0010
0001
0010
,
0100
0000
0000
0000
1000
0010
1000
0010
0100
0000
0001
1000
0001
0000
0010
0000
,
2200
0000
0000
0000
,
3300
0000
0000
0000
;

//---------------dance-double - ----------------
#NOTEDATA:;
#CHARTNAME:;
#STEPSTYPE:dance-double;
#DESCRIPTION:;
#CHARTSTYLE:;
#DIFFICULTY:Challenge;
#METER:8;
#RADARVALUES:0.552621,0.549734,0.285370,0.372566,0.000000,405.000000,36.000000,47.000000,0.000000,0.000000,0.000000,0.000000,0.000000,0.552621,0.549734,0.285370,0.372566,0.000000,405.000000,36.000000,47.000000,0.000000,0.000000,0.000000,0.000000,0.000000;
#CREDIT:Ben Speirs;
#NOTES:
00000000
00000000
00000000
00000000
,
00000000
00000000
00000000
00000000
,
00000000
00000000
00000000
00000000
,
00000000
00000000
00000000
00000000
,
20000000
31000000
00100000
00010000
,
20000000
00000000
30100000
00000000
01000000
00010000
01000000
00000000
,
00020000
10030000
01000000
00100000
,
00010000
10000000
00100000
01000000
00020000
00000000
00130000
00001000
,
00020000
00000000
00000100
00000000
00000100
00030000
00010100
00000000
,
00001000
00000000
00000001
00000000
00000100
00000010
00001000
00000000
,
00000001
00000000
00000101
00000000
00001000
00001000
00000100
00000000
,
00000010
00000000
00001001
00000000
00000010
00001000
00000100
00000010
,
00000002
00000000
00001003
00000100
00020000
00000000
00031000
00010000
,
00002000
00000000
00003100
00000000
00000001
00001000
00000100
00000000
,
00000010
00000001
00000010
00000001
00001000
00000100
00001000
00000100
,
00010000
00001000
00010000
00001000
00010000
00100000
10000000
00000000
,
01000000
21000000
30100000
01020000
,
10030000
00000000
00010000
00100000
01000000
00000000
10000000
00100000
,
01000000
01020000
00130000
21000000
,
30100000
00000000
10010000
00000000
10000000
01000000
00100000
00010000
,
00110000
00000000
10000000
01000000
21000000
00000000
30010000
01000000
,
00100000
00000000
10000000
01000000
00100000
00000000
00010000
10000000
,
00100000
01000000
00010000
00100000
00110000
00000000
00100000
00001000
,
00011000
00000000
00001000
00000100
00000001
00000100
00000001
00001000
,
00000100
00000010
00000001
00001000
00001010
00000000
00000101
00000000
,
00002001
00000000
00003100
00001000
00000001
00000000
00000010
00000001
,
00001000
00000000
00000001
00000100
00000010
00001000
00000100
00000000
,
00001200
00010300
00012000
00103000
,
00010000
00100000
01000000
10000000
00200000
00000000
01300000
00010000
,
20000000
00000000
30100000
10000000
00020000
00000000
00130000
00010000
,
02000000
10000000
00100000
03010000
,
01000000
00010000
00100000
01000000
10000000
00100000
01000000
00010000
,
00200000
00000000
10000000
00000000
00310000
00000000
00100000
00001000
,
00010000
00000100
00001000
00000010
00000200
00000000
00000301
00001000
,
00000020
00000000
00000130
00000001
00000020
00000000
00000130
00001000
,
00000010
00000100
00000001
00001000
00000200
00000000
00001000
00000000
,
00010000
00000000
00010300
00001000
00100000
00010000
10000000
00100000
,
02000000
00000000
03010000
10000000
00100000
00000000
10000000
00000000
,
00010000
00100000
01000000
10000000
00100000
01000000
00010000
00000000
,
20100000
00000000
00010000
00000000
01000000
00000000
30100000
10000000
,
01000000
00100000
00010000
01000000
01020000
00000000
10030000
01000000
,
00100000
00000000
00010000
10000000
00100000
00000000
01000000
00010000
,
00100000
00001000
00010000
00001000
00000200
00000000
00000301
00000000
,
00001000
00000010
00000100
00000001
00002000
00000000
00003100
00000010
,
00000002
00000000
00001003
00000010
00001000
00000000
00000001
00000000
,
00001000
00000100
00010000
00001000
00000100
00000001
00000100
00000001
,
00001001
00000000
00000001
00000010
00000012
00000000
00001003
00000010
,
00000100
00000000
00000001
00000010
00000100
00000000
00001000
00000001
,
00000100
00000010
00001000
00000100
00001100
00000000
00000100
00010000
,
00011000
00000000
00010000
00100000
10000000
00100000
10000000
00010000
,
00100000
01000000
10000000
00010000
01010000
00000000
10100000
00000000
,
10020000
00000000
00130000
00010000
10000000
00000000
01000000
10000000
,
00010000
00000000
10000000
00100000
01000000
00010000
00100000
00000000
,
00210000
00301000
00021000
00030100
,
00001000
00000100
00000010
00000001
00000200
00000000
00000310
00001000
,
00000002
00000000
00000103
00000001
00002000
00000000
00003100
00001000
,
00000020
00000001
00000100
00001030
,
00000010
00001000
00000100
00000010
00000001
00000100
00000010
00001000
,
00000002
00000000
00000100
00000000
00001000
00000003
00001001
00000000
,
00001000
00000100
00010000
00000000
00001000
00010000
00001000
00010000
,
00100000
10000000
01000000
00100000
00010000
10000000
00100000
00000000
,
10010000
00000000
00011000
00000000
00001001
00000000
00000100
00000010
,
00000001
00000000
00001000
00000010
00000100
00000000
00000001
00000010
,
00000100
00001000
00000010
00000000
00001000
00000100
00000010
00000001
,
00001000
00001001
00011000
10010000
,
01100000
00000000
10000000
00100000
01000000
00000000
00010000
00100000
,
01000000
00000000
10000000
01000000
00100000
00010000
10000000
01000000
,
02000000
00000000
03100000
00010000
00020000
00000000
10030000
00100000
,
00200000
00000000
01300000
00001000
00002000
00000000
00013000
00100000
,
10000000
00000000
01000000
00100000
00010000
00000000
10000000
00100000
,
01000000
00010000
00100000
00001000
00002000
00000000
00013000
00000100
,
00000200
00000000
00001300
00000001
00000001
00000100
00000010
00001000
,
00000200
00000000
00000000
00000000
,
00000300
00000000
00000000
00000000
;
