#TITLE:Diamonds;
#SUBTITLE:;
#ARTIST:Rihanna;
#TITLETRANSLIT:;
#SUBTITLETRANSLIT:;
#ARTISTTRANSLIT:;
#GENRE:R&B;
#CREDIT:;
#BANNER:Diamonds.png;
#BACKGROUND:Diamonds-bg.png;
#LYRICSPATH:;
#CDTITLE:;
#MUSIC:Diamonds.ogg;
#OFFSET:0.000000;
#SAMPLESTART:51.359783;
#SAMPLELENGTH:13.714000;
#SELECTABLE:YES;
#BPMS:0.000000=92.000000
;
#STOPS:
;
#BGCHANGES:4.000=Diamonds.avi=1.000=0=0=1=====,
99999=-nosongbg-=1.000=0=0=0 // don't automatically add -songbackground-
;
#KEYSOUNDS:;
#ATTACKS:;

//---------------dance-single - ----------------
#NOTES:
     dance-single:
     :
     Hard:
     6:
     0.333645,0.378894,0.050118,0.160378,0.115272,212.000000,5.000000,16.000000,0.000000,0.000000,0.000000,0.333645,0.378894,0.050118,0.160378,0.115272,212.000000,5.000000,16.000000,0.000000,0.000000,0.000000:
// measure 0
0000
0000
0000
0000
,  // measure 1
0000
0000
0000
0000
,  // measure 2
0000
0000
0000
0000
,  // measure 3
0000
0000
1002
0000
,  // measure 4
0103
0000
0000
0000
0010
0000
0000
1000
0010
0000
0000
0000
1000
0000
0100
0000
,  // measure 5
1000
0000
0000
0000
0010
0000
0000
0100
0010
0000
0000
0000
0100
0000
0000
0000
,  // measure 6
0001
0000
0000
0000
1000
0000
0000
0100
1000
0000
0000
0000
0100
0000
1000
0000
,  // measure 7
0001
0000
0000
0000
0100
0000
0000
0010
0100
0000
0001
0000
1000
0000
0100
0000
,  // measure 8
2000
0000
0000
0000
3010
0000
0000
1000
0001
0000
0000
0000
0010
0000
0001
0000
,  // measure 9
1000
0000
0000
0000
0100
0000
0000
1000
0100
0000
0000
0000
1000
0000
0000
0000
,  // measure 10
0010
0000
0000
0000
0100
0000
0000
0001
1000
0000
0000
0000
0010
0000
1000
0000
,  // measure 11
0001
0000
0000
0000
0010
0000
0000
0100
0010
0000
0001
0000
1000
0000
0010
0000
,  // measure 12
2000
0000
3001
0100
0001
1000
0100
1000
,  // measure 13
0020
0000
1030
0100
1000
0001
0100
0001
,  // measure 14
0010
0000
0000
0000
0100
0000
0000
1000
0100
0000
0000
0000
1000
0000
0000
0000
,  // measure 15
0001
0000
0100
0000
0010
0000
0000
1000
0100
0000
0010
0000
0001
0000
0000
0000
,  // measure 16
1000
0000
0001
0010
0100
1000
0100
0010
,  // measure 17
0001
0000
1000
0010
0100
0001
0100
0010
,  // measure 18
1000
0000
0000
0000
0010
0000
0000
0100
0010
0000
0000
0000
1000
0000
0000
0000
,  // measure 19
0100
0000
0000
0000
1000
0000
0000
0001
0100
0000
0010
0000
1000
0000
0100
0000
,  // measure 20
0020
0000
0001
0000
0130
0010
0001
1000
,  // measure 21
0002
0000
0100
0000
0013
1000
0100
1000
,  // measure 22
0020
0000
0100
0000
0001
0000
0130
0010
,  // measure 23
1000
0000
1000
0100
0000
0000
1000
0000
0100
0010
0001
0000
1000
0000
0010
0000
,  // measure 24
0210
0000
1000
0000
0310
0100
0001
0010
,  // measure 25
0200
0000
1000
0000
0310
0001
1000
0010
,  // measure 26
2000
0000
0001
0000
0100
0000
3010
1000
,  // measure 27
0001
0000
0001
0100
0000
0000
0010
0000
0100
0001
1000
0000
0010
0000
0100
0000
,  // measure 28
0102
0000
0000
0000
0003
0000
0010
0000
0010
0000
0001
0100
0010
0000
1000
0000
,  // measure 29
2100
0000
0000
0000
3000
0000
0010
0000
0010
0000
1000
0100
0010
0000
0001
0000
,  // measure 30
0200
0000
0000
0000
0300
0000
0010
0000
0010
0000
0100
0001
1000
0000
0010
0000
,  // measure 31
1000
0100
0010
0001
0100
0010
1000
0000
,  // measure 32
0002
0000
0000
0000
0003
0000
0100
0000
0001
0000
0001
0100
1000
0000
0100
0000
,  // measure 33
2000
0000
0000
0000
3000
0000
0100
0000
1000
0000
1000
0100
0001
0000
0100
0000
,  // measure 34
0002
0000
0000
0000
1003
0000
0001
0000
0100
0000
0010
0100
0010
0000
0100
0000
,  // measure 35
0001
0000
1000
0000
0100
0000
0010
0100
0010
0000
0100
0000
1000
0000
0000
0000
,  // measure 36
0011
0000
0000
0000
;

//---------------dance-single - ----------------
#NOTES:
     dance-single:
     :
     Challenge:
     8:
     0.473976,0.505192,0.060142,0.210497,0.410970,304.000000,6.000000,21.000000,0.000000,0.000000,0.000000,0.473976,0.505192,0.060142,0.210497,0.410970,304.000000,6.000000,21.000000,0.000000,0.000000,0.000000:
0000
0000
0000
0000
,
0000
0000
0000
0000
,
0000
0000
0000
0000
,
0000
0000
2001
0000
,
3010
0000
0000
0000
1000
0000
0100
0000
0010
0000
0001
1000
0001
1000
0001
0000
,
0200
0000
0000
0000
0310
0000
1000
0000
1000
0000
0010
0100
0010
0000
1000
0000
,
0002
0000
0000
0000
1003
0000
0100
1000
0100
0000
0000
0000
1000
0000
0100
1000
,
0100
0000
0000
0000
1000
0000
0001
0010
0100
0000
1000
0000
0010
0000
0100
0000
,
0002
0000
0000
0000
1003
0000
0010
0100
0010
0000
1000
0000
0001
0000
0010
0000
,
0001
0000
0000
1000
0100
0000
0000
0010
0001
0000
1000
0000
0020
0000
0000
0000
,
0130
0000
0001
0100
0001
0000
1000
0100
1000
0000
0000
0000
0001
0000
0010
0100
,
0020
0000
0000
0000
0031
0000
1000
0100
0010
0000
0001
0000
1000
0000
0010
0000
,
0100
0000
0001
0100
0001
0100
0000
0010
1000
0000
0001
0000
0010
0000
0000
0000
,
0001
0000
1000
0100
1000
0100
0000
0010
0001
0000
1000
0000
0010
0000
0000
0000
,
2000
0100
3100
0000
1000
0100
0010
0001
,
0200
0010
0310
0000
0100
0001
1000
0000
,
0010
0000
1000
0010
1000
0010
0000
0100
0001
0000
1000
0000
0100
0000
0000
0000
,
1000
0000
0001
0010
0001
0010
0000
0100
1000
0000
0001
0000
0100
0000
0000
0000
,
0002
0010
0013
0000
0001
0010
0100
1000
,
0010
0000
0100
0010
0100
0000
0001
0000
1000
0000
0010
0000
1010
0000
0001
0000
,
1001
0000
1000
0100
1000
0100
0000
1000
0010
0000
0010
0100
0000
0100
0001
0000
,
1000
0000
0001
0100
0001
0100
0000
0001
0010
0000
0010
0100
0000
0100
1000
0001
,
2000
0000
0100
0000
3100
0000
0000
1000
0100
0000
1000
0000
0010
0000
0100
0010
,
0100
0000
0010
1000
0010
0000
1000
0000
0100
0010
0001
0000
1000
0000
0001
0000
,
0011
0000
0001
0100
0001
0100
0000
0001
0010
0000
0010
0100
0000
0100
1000
0000
,
0001
0000
1000
0010
1000
0010
0000
1000
0100
0000
0100
0010
0000
0010
0001
1000
,
0002
0000
0010
0000
0013
0000
0000
0001
0010
0000
0001
0000
0100
0000
0010
0100
,
0010
0000
0100
0001
0100
0000
0001
0000
0010
0100
1000
0000
0001
0000
1000
0000
,
1010
0000
0010
1000
0100
0010
0002
0000
2003
0000
3010
0100
0010
0000
1000
0000
,
0001
0000
1000
0100
0010
0001
2000
0000
3002
0000
0103
0010
0100
0000
0001
0000
,
1000
0000
0001
1000
0100
0010
0002
0000
2003
0000
3010
0100
0010
0000
1000
0000
,
0001
0100
0001
0000
0100
0010
0000
0010
1000
0000
1000
0100
0000
0100
0010
0000
,
0002
0000
0013
0000
0200
0000
1300
0000
0001
1000
0001
1000
0010
0100
0001
0000
,
2000
0000
3100
0000
0020
0000
0031
0000
1000
0001
1000
0001
0100
0010
1000
0000
,
0001
0000
0010
0100
0010
0100
1000
0000
1000
0000
0100
0010
0001
0000
1000
0001
,
1000
0000
0001
0000
0001
0000
0100
0010
1000
0000
0001
1000
0001
0000
0000
0000
,
0101
0000
0000
0000
;

//---------------dance-double - ----------------
#NOTES:
     dance-double:
     :
     Challenge:
     7:
     0.383763,0.396937,0.240568,0.240568,0.115272,220.000000,24.000000,24.000000,0.000000,0.000000,0.000000,0.383763,0.396937,0.240568,0.240568,0.115272,220.000000,24.000000,24.000000,0.000000,0.000000,0.000000:
00000000
00000000
00000000
00000000
,
00000000
00000000
00000000
00000000
,
00000000
00000000
00000000
00000000
,
00000000
00000000
00011000
00000000
,
00001000
00000000
00000000
00000000
00100000
00000000
00000000
00010000
00100000
00000000
00000000
00000000
00010000
00000000
00100000
00000000
,
00001000
00000000
00000000
00000000
00010000
00000000
00000000
00000100
00001000
00000000
00000000
00000000
00000100
00000000
00010000
00000000
,
00002000
00000000
00103000
00010000
00200000
00000000
00301000
00010000
,
00002000
00000000
00000000
00000000
00103000
00000000
00010000
00100000
00010000
00000000
00100000
00000000
00001000
00000000
00010000
00000000
,
00000200
00000000
00000000
00000000
00001300
00000000
00000000
00000100
00010000
00000000
00000000
00000000
00000100
00000000
00010000
00000000
,
00002000
00000000
00000000
00000000
00103000
00000000
00000000
00001000
00100000
00000000
00000000
00000000
00010000
00000000
00100000
00000000
,
00002000
00000000
00013000
00000000
00000200
00000000
00010300
00001000
,
00020000
00000000
00030000
00000100
00000100
00010000
00001000
00100000
,
00210000
00000000
00301000
00010000
00100000
00010000
00001000
00100000
,
00020000
00000000
00130000
00001000
00020000
00000000
00030200
00000000
,
00001300
00000000
00000100
00010000
00000200
00000000
00000000
00000000
00010300
00000000
00000000
00000000
00001000
00000000
00000000
00000000
,
00100000
00000000
00001000
00100000
00001000
00000000
00000000
00000000
00021000
00000000
00000000
00000000
00030100
00000000
00000000
00000000
,
00010200
00000000
00001300
00000100
00010000
00000100
00010000
00001000
,
00200000
00000000
00310000
00100000
00001000
00100000
00001000
00010000
,
00000200
00000000
00000000
00000000
00001300
00000000
00000000
00000100
00020000
00000000
00000000
00000000
00031000
00000000
00000000
00000000
,
00010000
00000000
00001000
00100000
00001000
00000000
00010000
00000000
00001000
00000000
00100000
00000000
00101000
00000000
00000000
00000000
,
00100200
00000000
00010000
00000000
00010300
00001000
00010000
00000000
,
02000010
00000000
00001000
00000000
03001000
00010000
00001000
00000000
,
00011000
00011000
00011000
00000000
00010000
00001000
00100000
00000000
,
00001000
00000000
00010000
00000100
00010000
00000000
00001000
00000000
00100000
00010000
00100000
00000000
00001000
00000000
00010000
00000000
,
00100100
00000000
00100100
00000000
00100100
00010000
00001000
00000000
,
01000010
00000000
01000010
00000000
01000010
00001000
00010000
00000000
,
00011000
00011000
00011000
00000000
00001000
00010000
00000100
00000000
,
00010000
00000000
00001000
00010000
00001000
00000000
00100000
00000000
00010000
00100000
00010000
00000000
00100000
00000000
00001000
00000000
,
00201000
00000000
00000000
00000000
00300000
00000000
00001000
00000000
00001000
00000000
00100000
00001000
00010000
00000000
00000100
00000000
,
00010200
00000000
00000000
00000000
00000300
00000000
00010000
00000000
00010000
00000000
00001000
00100000
00010000
00000000
00100000
00000000
,
00210000
00000000
00000000
00000000
00310000
00000000
00100000
00000000
00001000
00000000
00010000
00001000
00010000
00000000
00000100
00000000
,
00001200
00000000
00001300
00000100
00010000
00001000
00010000
00000000
,
00001000
00000000
00010000
00001000
00010000
00000000
00000100
00000000
00000100
00000000
00010000
00001000
00010000
00000000
00001000
00010000
,
00001000
00000000
00100000
00000000
00100000
00000000
00001000
00000000
00001000
00000000
00010000
00001000
00010000
00000000
00001000
00010000
,
00001000
00000000
00100000
00000000
00010000
00000000
00100000
00000000
00001000
00000000
00100000
00010000
00100000
00000000
00001000
00000000
,
00010000
00000000
00000100
00000000
00010000
00000000
00000100
00001000
00000100
00000000
00010000
00000000
00001000
00000000
00000000
00000000
,
00100100
00000000
00000000
00000000
;

//---------------dance-single - ----------------
#NOTES:
     dance-single:
     :
     Medium:
     4:
     0.280662,0.360852,0.170402,0.441041,0.000000,135.000000,17.000000,44.000000,0.000000,0.000000,0.000000,0.280662,0.360852,0.170402,0.441041,0.000000,135.000000,17.000000,44.000000,0.000000,0.000000,0.000000:
0000
0000
0000
0000
,
0000
0000
0000
0000
,
0000
0000
0000
0000
,
0000
0000
1001
0000
,
2000
3010
0010
0000
,
0002
0013
0010
0000
,
2000
3100
0100
0000
,
0001
0000
1000
0000
0010
0100
0001
0100
,
0020
1030
1000
0000
,
0002
0103
0100
0000
,
2000
3100
0100
0000
,
1000
0000
0100
0000
0010
0001
1000
0001
,
0100
0000
0120
0000
1030
0001
1000
0000
,
0002
0003
2000
3000
,
0001
0100
0002
0000
1003
0000
0000
0000
,
1000
0100
2000
0000
3001
0000
0000
0000
,
2001
3002
0203
0320
,
2030
3002
2003
3000
,
0001
0010
0002
0000
0003
0000
0000
0000
,
1000
0010
2000
0000
3000
0000
1001
0000
,
0102
0000
0003
0000
1000
0001
1000
0000
,
2100
0000
3000
0000
0001
1000
0001
0000
,
0020
0031
2000
3010
,
0100
0100
0100
0000
0010
1000
0001
0000
,
2002
0000
3003
0000
1000
0100
0010
0000
,
2200
0000
3300
0000
0001
0010
0100
0000
,
0022
0033
1000
1010
,
0001
1000
0001
0000
0100
0100
0100
0000
,
2002
0000
3003
0010
0010
1000
0100
0000
,
2002
0000
3003
0010
0010
0001
0100
0000
,
2002
0000
3003
0010
0010
1000
0100
0000
,
2000
3100
0020
0030
,
2002
0000
3003
0001
0001
0100
1000
0000
,
2002
0000
3003
1000
1000
0100
0001
0000
,
2002
0000
3003
0001
0100
0010
1000
0001
,
0000
1000
0010
0100
0001
1000
0000
0000
,
0101
0000
0000
0000
;

//---------------dance-single - ----------------
#NOTES:
     dance-single:
     :
     Easy:
     2:
     0.143195,0.180426,0.020047,0.120284,0.000000,86.000000,2.000000,12.000000,0.000000,0.000000,0.000000,0.143195,0.180426,0.020047,0.120284,0.000000,86.000000,2.000000,12.000000,0.000000,0.000000,0.000000:
0000
0000
0000
0000
,
0000
0000
0000
0000
,
0000
0000
0000
0000
,
0000
0000
1001
0000
,
0001
0000
1000
0000
,
0010
0000
0010
0000
,
1000
0000
0000
0000
,
0001
0000
1000
0001
,
0100
0010
0100
0000
,
0001
0100
0001
0000
,
1000
0100
1000
0000
,
0001
0000
1000
0001
,
0100
0100
0010
0010
,
1000
1000
0001
0000
,
1000
1000
0000
0000
,
0001
0001
0000
0000
,
1000
1000
0010
0010
,
0100
0100
0001
0001
,
1000
1000
0000
0000
,
0001
0001
0000
0100
,
0200
0300
0000
0010
,
0020
0030
0000
1000
,
0002
0003
1000
0000
,
0010
0010
0100
0001
,
2000
3000
0000
0100
,
0200
0300
0000
0010
,
0002
0003
1000
0000
,
0001
0001
1000
0010
,
0200
0300
0001
0100
,
0000
0000
0010
1000
,
0000
0000
0001
0010
,
0000
0000
0100
0100
,
2000
3000
0010
0010
,
0200
0300
0001
0001
,
2000
3000
0100
0020
,
0030
0100
0020
0030
,
1001
0000
0000
0000
;

//---------------dance-single - ----------------
#NOTES:
     dance-single:
     :
     Beginner:
     1:
     0.087349,0.108255,0.040095,0.000000,0.000000,57.000000,4.000000,0.000000,0.000000,0.000000,0.000000,0.087349,0.108255,0.040095,0.000000,0.000000,57.000000,4.000000,0.000000,0.000000,0.000000,0.000000:
0000
0000
0000
0000
,
0000
0000
0000
0000
,
0000
0000
0000
0000
,
0000
0000
0000
0000
,
1000
0000
1000
0000
,
1000
0000
0000
0000
,
0010
0000
0000
0000
,
0100
0000
0100
0000
,
0001
0000
0001
0000
,
0001
0000
0000
0000
,
1000
0000
0000
0000
,
0010
0000
0010
0000
,
1000
1000
0000
0000
,
0001
0001
0000
0000
,
0100
0100
0000
0000
,
0100
0000
0100
0000
,
0001
0001
0000
0000
,
1000
1000
0000
0000
,
0010
0000
0000
0000
,
0010
0000
0010
0000
,
1001
0000
0000
1000
,
1000
0000
0000
0001
,
0001
0000
0000
0000
,
0100
0000
0100
0000
,
1001
0000
0000
0001
,
0001
0000
0000
1000
,
1000
0000
0000
0000
,
0010
0000
0010
0000
,
1001
0000
1000
1000
,
0000
0000
0001
0001
,
0000
0000
0100
0100
,
0000
0000
0010
0000
,
0010
0000
1000
0000
,
0000
0000
0100
0000
,
0000
0000
0010
0010
,
0000
0010
0010
0000
,
1001
0000
0000
0000
;
