#VERSION:0.82;
#TITLE:Cold War;
#SUBTITLE:;
#ARTIST:Janelle Monae;
#TITLETRANSLIT:;
#SUBTITLETRANSLIT:;
#ARTISTTRANSLIT:;
#GENRE:R&B;
#ORIGIN:;
#CREDIT:;
#BANNER:Cold War.png;
#BACKGROUND:Cold War-bg.png;
#PREVIEWVID:;
#JACKET:jacket.png;
#CDIMAGE:;
#DISCIMAGE:;
#LYRICSPATH:;
#CDTITLE:;
#MUSIC:Cold War.ogg;
#OFFSET:-0.060000;
#SAMPLESTART:47.073906;
#SAMPLELENGTH:13.874013;
#SELECTABLE:YES;
#BPMS:0.000=160.000;
#STOPS:;
#DELAYS:;
#WARPS:;
#TIMESIGNATURES:0.000=4=4;
#TICKCOUNTS:0.000=4;
#COMBOS:0.000=1;
#SPEEDS:0.000=1.000=0.000=0;
#SCROLLS:0.000=1.000;
#FAKES:;
#LABELS:0.000=Song Start;
#BGCHANGES:8.000=Cold War.avi=1.000=0=0=1=====,
99999=-nosongbg-=1.000=0=0=0 // don't automatically add -songbackground-
;
#KEYSOUNDS:;
#ATTACKS:
;

//---------------dance-single - ----------------
#NOTEDATA:;
#CHARTNAME:;
#STEPSTYPE:dance-single;
#DESCRIPTION:;
#CHARTSTYLE:;
#DIFFICULTY:Hard;
#METER:8;
#RADARVALUES:0.551424,0.697852,0.061148,0.458610,0.015287,437.000000,8.000000,60.000000,0.000000,0.000000,0.000000,0.000000,0.000000,0.551424,0.697852,0.061148,0.458610,0.015287,437.000000,8.000000,60.000000,0.000000,0.000000,0.000000,0.000000,0.000000;
#CREDIT:;
#NOTES:
// measure 0
0000
0000
0000
0000
,  // measure 1
0000
0000
0000
0000
,  // measure 2
0000
0000
0000
0000
,  // measure 3
0000
0000
0000
0000
,  // measure 4
0000
0000
0000
0000
,  // measure 5
0000
0000
0000
0000
,  // measure 6
0000
0000
0000
0000
,  // measure 7
0000
0000
0000
0000
,  // measure 8
1000
0000
1100
0000
0100
0010
0001
0000
,  // measure 9
1000
0000
0001
0100
0010
1000
0100
0010
,  // measure 10
0002
0000
0013
0100
2000
0000
3010
0100
,  // measure 11
0002
0000
1003
1000
0010
0100
0010
1000
,  // measure 12
0001
0000
0011
0000
0010
0100
1000
0000
,  // measure 13
0001
0000
1000
0010
0100
0001
0010
0100
,  // measure 14
2000
0000
3100
0010
0002
0000
0103
0010
,  // measure 15
1000
0100
1000
0001
0010
0001
1000
0010
,  // measure 16
0200
0000
0001
0000
0010
0000
0301
0010
,  // measure 17
0200
0000
1000
0000
0310
0001
0010
0100
,  // measure 18
2000
0000
3010
1000
0002
0000
0103
0001
,  // measure 19
2000
0000
3010
0000
1000
0100
0010
0001
,  // measure 20
0200
0000
1000
0000
0010
0000
0301
0100
,  // measure 21
0020
0000
1000
0000
0130
0010
1000
0100
,  // measure 22
0020
0000
0031
1000
0020
0000
1030
0001
,  // measure 23
0200
0000
0310
0000
0100
0001
1000
0100
,  // measure 24
2000
0000
3001
0010
0001
0010
0100
0010
,  // measure 25
0002
0000
0103
0000
0010
0100
0001
1000
,  // measure 26
0020
0000
1030
0001
0200
0000
0301
1000
,  // measure 27
0200
0000
0310
0000
0001
0010
0100
1000
,  // measure 28
0002
0000
1003
0100
2000
0000
3200
0000
,  // measure 29
2300
0000
3001
0010
0100
1000
0010
0100
,  // measure 30
0002
0000
0103
0010
2000
0000
3010
1000
,  // measure 31
0002
0000
0013
0000
0001
0010
0100
1000
,  // measure 32
0010
0100
0010
0100
0001
1000
0100
0010
,  // measure 33
0001
0100
0001
0100
0010
1000
0100
0010
,  // measure 34
0002
0000
0103
0010
2000
0000
3010
1000
,  // measure 35
0002
0000
0013
0000
0001
0010
0100
1000
,  // measure 36
0001
0100
0001
0100
0010
1000
0100
0010
,  // measure 37
0001
1000
0010
0100
0001
1000
0100
0010
,  // measure 38
0002
0000
1003
0100
2000
0000
3001
0100
,  // measure 39
0002
0000
1003
0000
0001
1000
0010
0000
,  // measure 40
1001
0000
1001
0000
0010
1000
0100
0000
,  // measure 41
1100
0000
0101
0000
0010
0001
1000
0001
,  // measure 42
0020
0000
0031
0010
0100
1000
0002
0000
,  // measure 43
0203
0000
0310
0000
1000
0010
0100
0001
,  // measure 44
2000
0100
0001
3010
,  // measure 45
0002
0000
0100
0000
1003
0100
0010
0001
,  // measure 46
0200
0000
0310
1000
0020
0000
1030
0001
,  // measure 47
2000
0000
3002
0000
0013
0100
0010
0001
,  // measure 48
0200
0000
0301
0100
1000
0100
0001
0100
,  // measure 49
0020
0000
1030
0200
0000
1300
0001
1000
,  // measure 50
0020
0000
0130
0001
0100
0010
1000
0100
,  // measure 51
0020
0000
0031
0010
0000
0100
1000
0000
,  // measure 52
0001
1000
0001
1000
0010
0100
0001
1000
,  // measure 53
0002
0000
0000
0103
0100
0010
0100
0001
,  // measure 54
1000
0100
1000
0001
0010
0001
0100
0010
,  // measure 55
1000
0100
0010
0001
1000
0010
0100
0000
,  // measure 56
0101
0000
1000
0100
0000
1000
0100
0000
,  // measure 57
1001
0000
0001
0100
0000
0001
0100
0000
,  // measure 58
0001
1000
0001
1000
0010
0100
0001
1000
,  // measure 59
0001
1000
0100
0010
0001
1000
0010
0000
,  // measure 60
1000
0100
1000
0000
0001
0000
1000
0000
0100
1000
0100
0000
1000
0000
0001
0000
,  // measure 61
1000
0100
1000
0000
0001
0000
1000
0000
0100
1000
0100
0000
1000
0000
0001
0000
,  // measure 62
0200
0000
0310
1000
0010
0100
0001
1000
,  // measure 63
0100
0100
0010
0010
0001
0010
0100
1000
,  // measure 64
0002
0000
0000
0000
,  // measure 65
0003
0000
0000
0000
,  // measure 66
2000
0000
0000
0000
,  // measure 67
3000
0000
0000
0000
,  // measure 68
0020
0000
0000
0030
,  // measure 69
0200
0000
0000
0300
,  // measure 70
0001
0001
1000
1000
,  // measure 71
0001
0010
0001
1000
,  // measure 72
0010
1000
0010
1000
0020
0000
0130
0000
,  // measure 73
0001
0100
0001
0100
0002
0000
1003
0000
,  // measure 74
0001
0010
0100
0000
1000
0100
0010
0000
,  // measure 75
0001
0100
0010
0000
1000
0010
0100
0000
,  // measure 76
0001
1000
0001
1000
0010
0100
0001
1000
,  // measure 77
0100
0010
0100
0010
0001
0000
0100
0000
,  // measure 78
0001
1000
0001
0000
1000
0100
1000
0000
,  // measure 79
0002
0023
0230
2300
,  // measure 80
3001
0100
0010
1000
0010
0100
0001
1000
,  // measure 81
0100
0010
0001
1000
0010
0100
0001
1000
,  // measure 82
0200
0000
0000
0000
,  // measure 83
0300
0000
0000
0000
;

//---------------dance-single - ----------------
#NOTEDATA:;
#CHARTNAME:;
#STEPSTYPE:dance-single;
#DESCRIPTION:;
#CHARTSTYLE:;
#DIFFICULTY:Medium;
#METER:6;
#RADARVALUES:0.382175,0.475808,0.030574,0.290453,0.000000,308.000000,4.000000,38.000000,0.000000,0.000000,0.000000,0.000000,0.000000,0.382175,0.475808,0.030574,0.290453,0.000000,308.000000,4.000000,38.000000,0.000000,0.000000,0.000000,0.000000,0.000000;
#CREDIT:Ben Speirs;
#NOTES:
0000
0000
0000
0000
,
0000
0000
0000
0000
,
0000
0000
0000
0000
,
0000
0000
0000
0000
,
0000
0000
0000
0000
,
0000
0000
0000
0000
,
0000
0000
0000
0000
,
0000
0000
0000
0000
,
0001
1000
0010
0010
,
1000
0000
0001
0000
0010
0001
0010
0000
,
0002
0103
0020
1030
,
0002
0000
0003
0000
1000
0100
0010
0001
,
1000
0001
0100
0100
,
0001
0000
1000
0000
0100
1000
0100
0000
,
2000
3010
0200
0301
,
2000
0000
3000
0000
0001
0010
0100
1000
,
0002
0000
0003
0000
0100
0000
0010
1000
,
0020
0000
0030
0000
1000
0100
1000
0000
,
0002
0013
0200
1300
,
0020
0000
0030
0000
1000
0100
1000
0000
,
0002
0000
0003
0000
0100
0010
0100
0000
,
0020
0000
0030
0000
1000
0010
1000
0000
,
0002
1003
0020
0130
,
0002
0000
0003
0000
1000
0100
1000
0000
,
1001
0000
0001
0100
0001
0100
0001
0100
,
0000
0000
0010
0010
,
1000
0000
0001
0000
0010
0001
1000
0000
,
0020
0000
0030
0000
1000
0100
0010
0001
,
1000
0000
0001
0100
,
0001
0000
0000
0000
1000
0100
1000
0000
,
0001
0000
0010
0000
0001
1000
0010
0000
,
0100
0000
0100
0000
0001
1000
0010
0000
,
2001
0000
3010
1000
,
0002
0000
0013
0000
0001
1000
0100
0000
,
2000
3100
0200
0310
,
0020
0000
0030
0000
0001
0010
0100
0000
,
1002
0000
0103
0010
,
2000
0000
3001
0000
1000
0100
1000
0000
,
0020
0130
0200
0301
,
0002
0000
1003
0000
0001
1000
0001
0000
,
1000
0100
1000
0000
0010
0000
0010
0000
,
0200
0300
0001
1000
,
0010
0010
1000
0001
,
0100
0000
0100
0000
0001
0010
0001
0000
,
2000
3000
0100
0010
,
0002
0000
0003
0000
0100
0001
0100
0000
,
0001
0001
1000
1000
,
0020
0000
0030
0000
1000
0001
1000
0000
,
0100
0100
0010
0010
,
0001
0010
0100
0000
1000
0100
0010
0000
,
0001
1000
0001
0001
,
1000
0010
0100
0000
0002
0000
0003
0000
,
1000
0100
2000
0000
3001
0000
1000
0000
,
0001
0100
0002
0000
1003
0000
0001
0000
,
0010
0010
0001
1000
,
0010
1000
0010
0000
0100
0000
0000
0000
,
0100
0000
0101
0000
1000
0000
0001
0100
,
0001
0000
1000
0000
0001
0000
1000
0100
,
1000
0000
0001
0000
0010
0000
0001
1000
,
0001
0000
0100
0020
0000
0000
1030
0000
,
0001
0000
1000
0100
0000
0000
1000
0100
,
0000
0000
1000
0100
0000
0000
1000
0100
,
1000
0010
0100
0001
,
1000
0100
0010
0000
0001
1000
0010
0100
,
0001
0000
0000
0000
,
0000
0000
0000
0000
,
1000
0000
0000
0000
,
0000
0000
0000
0000
,
0002
0000
0003
0000
,
2000
0000
3000
0000
,
0010
0010
0010
0010
,
0100
0100
0100
0100
,
0001
0000
0100
0100
0000
0000
0001
0000
,
1000
0000
0100
0100
0000
0000
1000
0000
,
0001
0000
0010
0010
0000
0000
0001
0000
,
1000
0000
0010
0010
0000
0000
1000
0000
,
0001
0000
0100
0000
0010
1000
0010
0000
,
0100
0000
0001
0000
1000
0100
1000
0000
,
0001
0010
0001
0000
1000
0010
1000
0000
,
0001
0010
0001
0010
0100
1000
0100
1000
,
0001
0000
1000
0000
0010
1000
0010
0000
,
0100
0000
0001
0000
1000
0100
0010
0001
,
0200
0000
0000
0000
,
0300
0000
0000
0000
;

//---------------dance-single - ----------------
#NOTEDATA:;
#CHARTNAME:;
#STEPSTYPE:dance-single;
#DESCRIPTION:;
#CHARTSTYLE:;
#DIFFICULTY:Easy;
#METER:4;
#RADARVALUES:0.226029,0.317206,0.061148,0.221662,0.000000,170.000000,8.000000,29.000000,0.000000,0.000000,0.000000,0.000000,0.000000,0.226029,0.317206,0.061148,0.221662,0.000000,170.000000,8.000000,29.000000,0.000000,0.000000,0.000000,0.000000,0.000000;
#CREDIT:Ben Speirs;
#NOTES:
0000
0000
0000
0000
,
0000
0000
0000
0000
,
0000
0000
0000
0000
,
0000
0000
0000
0000
,
0000
0000
0000
0000
,
0000
0000
0000
0000
,
0000
0000
0000
0000
,
0000
0000
0000
0000
,
1000
0000
0001
1000
,
0010
0000
0100
0000
,
0002
0003
2000
3000
,
0010
0000
1000
0100
,
0010
0000
0001
0001
,
0100
0000
0001
0000
,
2000
3000
0020
0030
,
0200
0300
0001
0001
,
2000
0000
0000
3000
,
0002
0003
0100
0100
,
0010
0000
1000
0100
,
0010
0000
0001
1000
,
0002
0000
0000
0003
,
2000
3000
0010
0010
,
2000
3000
0002
0003
,
0200
0300
0001
0000
,
1000
0100
0100
1000
,
0100
0000
0000
0000
,
1000
0000
0001
1000
,
0010
0000
1000
0000
,
0001
0100
0001
0001
,
0100
0000
0000
0000
,
0001
0000
0100
0001
,
1000
0000
0010
0000
,
2000
0000
0000
3000
,
0002
0003
1000
1000
,
0100
0000
0010
0010
,
0001
0000
0100
0001
,
2000
0000
0000
3000
,
0002
0003
1000
1000
,
0010
0000
0100
0100
,
0001
0000
1000
0000
,
2002
0000
0000
3003
,
0001
0000
1000
0100
,
0010
0000
0001
1000
,
0001
0000
0100
0000
,
2002
0000
0000
3003
,
2000
3000
0001
0100
,
0002
0003
2000
3000
,
0020
0000
0000
0030
,
1000
1000
0100
0000
,
1000
0100
0010
0000
,
0100
0100
0010
0000
,
0100
0010
0001
0000
,
0010
0010
0001
0000
,
0010
0001
1000
0000
,
0001
1000
0001
0001
,
1000
0001
1000
0000
,
0002
0003
0000
0100
,
0200
0300
0000
0010
,
0020
0030
0000
1000
,
2000
3000
0001
0000
,
1000
0100
1000
0000
,
0001
0100
0001
0000
,
1000
0000
0001
0000
,
0010
0010
0010
0000
,
1001
0000
0000
0000
,
0000
0000
0000
0000
,
0000
0000
0000
0000
,
0000
0000
0000
0000
,
1000
0000
0000
0000
,
0001
0000
0000
0000
,
0100
0000
0100
0000
,
0010
0000
0010
0000
,
1001
0000
1000
0000
,
0110
0000
0010
0000
,
1001
0000
0001
0000
,
0110
0000
0100
0000
,
1000
1000
0100
0100
,
0010
0000
0010
0000
,
0001
0001
0100
0100
,
0010
0000
0010
0000
,
1001
0000
1000
0100
,
1000
0000
0001
0000
,
0200
0000
0000
0000
,
0300
0000
0000
0000
;

//---------------dance-single - ----------------
#NOTEDATA:;
#CHARTNAME:;
#STEPSTYPE:dance-single;
#DESCRIPTION:;
#CHARTSTYLE:;
#DIFFICULTY:Beginner;
#METER:1;
#RADARVALUES:0.111377,0.156692,0.015287,0.000000,0.000000,100.000000,2.000000,0.000000,0.000000,0.000000,0.000000,0.000000,0.000000,0.111377,0.156692,0.015287,0.000000,0.000000,100.000000,2.000000,0.000000,0.000000,0.000000,0.000000,0.000000,0.000000;
#CREDIT:Ben Speirs;
#NOTES:
0000
0000
0000
0000
,
0000
0000
0000
0000
,
0000
0000
0000
0000
,
0000
0000
0000
0000
,
0000
0000
0000
0000
,
0000
0000
0000
0000
,
0000
0000
0000
0000
,
0000
0000
0000
0000
,
0001
0000
0000
0000
,
1000
0000
0000
0000
,
0010
0000
0010
0000
,
0010
0000
0000
0000
,
1000
0000
0000
0000
,
0001
0000
0000
0000
,
0100
0000
0100
0000
,
0100
0000
0000
0000
,
0001
0000
0001
0000
,
0001
0000
0000
0000
,
1000
0000
0000
0000
,
0001
0000
0000
0000
,
1000
0000
1000
0000
,
1000
0000
0000
0000
,
0001
0000
0000
0000
,
1000
0000
0000
0000
,
0010
0000
0000
0000
,
1000
0000
0000
0000
,
0001
0000
0001
0000
,
0001
0000
0000
0000
,
1000
0000
0000
0000
,
0100
0000
0000
0000
,
0010
0000
0010
0000
,
0010
0000
0000
0000
,
0001
0000
0000
0000
,
1000
0000
0000
0000
,
0001
0000
0001
0000
,
0001
0000
0000
0000
,
1000
0000
0000
0000
,
0001
0000
0000
0000
,
1000
0000
1000
0000
,
1000
0000
0000
0000
,
0010
0010
0000
0000
,
0010
0000
0000
0000
,
1000
1000
0000
0000
,
1000
0000
0000
0000
,
0001
0001
0000
0000
,
0001
0000
0000
0000
,
0100
0100
0000
0000
,
0100
0000
0000
0000
,
1001
0000
0000
0000
,
1000
0000
1000
0000
,
0010
0000
0000
0000
,
1000
0000
0000
0000
,
0001
0000
0000
0000
,
0001
0000
0001
0000
,
0010
0000
0000
0000
,
0001
0000
0000
0000
,
1000
1000
0000
0000
,
0001
0001
0000
0000
,
0100
0100
0000
0000
,
0010
0010
0000
0000
,
1000
0000
0000
0001
,
0001
0000
0000
1000
,
1000
0000
0000
0000
,
0010
0000
0010
0000
,
0100
0000
0000
0000
,
0000
0000
0000
0000
,
0100
0000
0000
0000
,
0000
0000
0000
0000
,
0001
0000
0000
0000
,
1000
0000
0000
0000
,
0010
0000
0010
0000
,
0010
0000
0000
0000
,
1000
0000
1000
0000
,
0100
0000
0000
0000
,
1000
0000
1000
0000
,
0001
0000
0000
0000
,
0001
0000
0001
0000
,
0100
0000
0000
0000
,
0001
0000
0001
0000
,
1000
0000
0000
0000
,
1001
0000
0000
0000
,
1000
0000
1000
0000
,
0100
0000
0000
0000
;

//---------------dance-double - ----------------
#NOTEDATA:;
#CHARTNAME:;
#STEPSTYPE:dance-double;
#DESCRIPTION:;
#CHARTSTYLE:;
#DIFFICULTY:Challenge;
#METER:8;
#RADARVALUES:0.549241,0.570970,0.053505,0.519758,0.000000,428.000000,7.000000,68.000000,0.000000,0.000000,0.000000,0.000000,0.000000,0.549241,0.570970,0.053505,0.519758,0.000000,428.000000,7.000000,68.000000,0.000000,0.000000,0.000000,0.000000,0.000000;
#CREDIT:Ben Speirs;
#NOTES:
00000000
00000000
00000000
00000000
,
00000000
00000000
00000000
00000000
,
00000000
00000000
00000000
00000000
,
00000000
00000000
00000000
00000000
,
00000000
00000000
00000000
00000000
,
00000000
00000000
00000000
00000000
,
00000000
00000000
00000000
00000000
,
00000000
00000000
00000000
00000000
,
10000000
00000000
11000000
00000000
01000000
00100000
00010000
00000000
,
10000000
00000000
00010000
00000000
10000000
01000000
00100000
00010000
,
02000000
00000000
03010000
00100000
00002000
00000000
00103000
00001000
,
00020000
00000000
00030100
00000100
00001000
00000010
00000100
00000001
,
00001000
00000000
00001001
00000000
00000001
00001000
00000200
00000000
,
00000310
00000000
00000001
00000010
00000100
00001000
00000001
00000100
,
00000020
00000000
00001030
00000100
00002000
00000000
00003001
00000100
,
00000020
00000000
00001030
00000000
00000001
00000010
00000100
00001000
,
00000020
00000000
00001000
00000000
00000100
00000000
00001030
00000100
,
00020000
00000000
00001000
00000000
00030100
00010000
00001000
00100000
,
00002000
00000000
00013000
00100000
20000000
00000000
31000000
00100000
,
00020000
00000000
20030000
00000000
30100000
01000000
00100000
01000000
,
00020000
00000000
01000000
00000000
00100000
00000000
10030000
01000000
,
20000000
00000000
30100000
00000000
10000000
00100000
01000000
00010000
,
20000000
00000000
31000000
00010000
00002000
00000000
00013000
00001000
,
00000200
00000000
00000302
00000000
00001003
00000100
00000010
00000000
,
00001001
00000000
00000010
00001000
00000010
00001000
00000010
00000100
,
00000002
00000000
00001003
00000000
00000001
00000010
00000100
00000000
,
00001000
00000100
00001000
00000100
00010000
00001000
00010000
00001000
,
00200000
00000000
00310000
00000000
01000000
00010000
00100000
01000000
,
20000000
00000000
00000000
30010000
02000000
00000000
03200000
00000000
,
20300000
00000000
30010000
00100000
01000000
00100000
00010000
10000000
,
00200000
00000000
01300000
00010000
00200000
00000000
00310000
00100000
,
00002000
00000000
00103000
00000000
00010000
00100000
01000000
10000000
,
00020000
01000000
10030000
10010000
,
20000000
00000000
31000000
00000000
10000000
01000000
00100000
00010000
,
02000000
00000000
03010000
00100000
00002000
00000000
00103000
00001000
,
00020000
00000000
00030200
00000000
00001300
00000010
00000100
00000000
,
00001002
00000100
00001003
00001001
,
00002100
00000000
00003001
00000000
00001000
00000100
00000010
00000001
,
00000200
00000000
00000310
00001000
00000200
00000000
00000310
00000001
,
00000200
00000000
00000301
00000000
00001000
00000100
00001000
00000100
,
00010000
00001000
00010000
00001000
00010000
00000100
00001000
00000010
,
00000100
00000001
00000010
00000100
00001000
00000010
00000100
00000001
,
00001000
00000100
00000010
00000001
00000100
00001000
00000100
00000010
,
00001000
00000100
00000010
00000001
00001000
00000010
00000100
00000001
,
00002000
00000100
00000010
00003010
,
00000002
00000000
00000103
00000000
00000001
00000100
00000010
00001000
,
00000200
00000000
00001300
00000100
00020000
00000000
00031000
00100000
,
00020000
00000000
01030000
00000000
00100000
10000000
00010000
00000000
,
10000000
01000000
00010000
01000000
10000000
01000000
00010000
01000000
,
20000000
00000000
30010000
02000000
00000000
03100000
10000000
00010000
,
00200000
00000000
00310000
00100000
00001000
00100000
00001000
00010000
,
00000200
00000000
00001300
00000010
00000000
00000100
00000001
00000000
,
00001000
00000100
00001000
00000100
00000010
00000001
00001000
00000000
,
00000001
00000100
00000001
00000100
00000010
00001000
00000100
00000000
,
00001000
00000100
00020000
00000000
00032000
00000000
00203000
00000000
,
00301000
00010000
00100000
10000000
01000000
00100000
00010000
00000000
,
10000000
01000000
10000000
01000000
10000000
01000000
00100000
00010000
,
10000000
01000000
10000000
01000000
10000000
01000000
00100000
00010000
,
20000000
00000000
30100000
01000000
00010000
00100000
00010000
10000000
,
00200000
00000000
01300000
00010000
10000000
01000000
00100000
00010000
,
02000000
00000000
03100000
02000000
00000000
03010000
01000000
00100000
,
20000000
00000000
30100000
20000000
00000000
30010000
10000000
01000000
,
00100000
00100000
00010000
00100000
00001000
00001000
00100000
00001000
,
00010000
00000100
00001000
00000010
00000100
00000001
00001000
00000100
,
00020000
00000000
00000000
00000000
,
00030000
00000000
00000000
00000000
,
00002000
00000000
00000000
00000000
,
00003000
00000000
00000000
00000000
,
00200000
00000000
00000000
00300000
,
00020000
00000000
00000000
00030000
,
10000000
10000000
10000000
10000000
,
00010000
00010000
00010000
00010000
,
10000000
01000000
00100000
00000000
00010000
00000000
10000000
00000000
,
00100000
10000000
00010000
00000000
00100000
00000000
00010000
00000000
,
01000000
00010000
01000000
00010000
00100000
00001000
01000000
00010000
,
00100000
00010000
00100000
00010000
01000000
00100000
10000000
00000000
,
00010000
10000000
02000000
00000000
03200000
00000000
00320000
00000000
,
01030000
00010000
00200000
00000000
00302000
00000000
00023000
00000000
,
00030100
00010000
00000100
00010000
00001000
00010000
00000100
00001000
,
00000010
00000010
00001000
00001000
00000001
00000010
00000100
00001000
,
00000001
00000100
00000010
00001000
00000100
00010000
00001000
00100000
,
00010000
01000000
00100000
10000000
01000000
00100000
00010000
00100000
,
00002000
00000000
00000000
00000000
,
00003000
00000000
00000000
00000000
;
