#TITLE:Cold Skin;
#SUBTITLE:(MitiS Mix);
#ARTIST:Seven Lions & Echoes;
#TITLETRANSLIT:;
#SUBTITLETRANSLIT:;
#ARTISTTRANSLIT:;
#GENRE:;
#CREDIT:;
#BANNER:Cold Skin (MitiS Mix).png;
#BACKGROUND:Cold Skin (MitiS Mix)-bg.png;
#LYRICSPATH:;
#CDTITLE:;
#MUSIC:Cold Skin (MitiS Mix).ogg;
#OFFSET:0.010000;
#SAMPLESTART:105.162811;
#SAMPLELENGTH:14.694003;
#SELECTABLE:YES;
#BPMS:0.000000=146.000000
;
#STOPS:
;
#BGCHANGES:;
#KEYSOUNDS:;
#ATTACKS:;

//---------------dance-single - ----------------
#NOTES:
     dance-single:
     :
     Hard:
     7:
     0.463461,0.622181,0.185173,0.311090,0.085180,438.000000,413.000000,25.000000,42.000000,0.000000,0.000000,0.463461,0.622181,0.185173,0.311090,0.085180,438.000000,413.000000,25.000000,42.000000,0.000000,0.000000:
0000
0000
0000
0000
,
0000
0000
0000
0000
,
0000
0000
0000
0000
,
0000
0000
0000
0000
,
0000
0000
0000
0000
,
0000
0000
0000
0000
,
0000
0000
0000
0000
,
0000
0000
0000
0000
,
1000
0100
0010
0002
0000
0203
0000
0320
,
0000
0000
0130
0001
0000
1000
0000
0000
,
0001
0010
0100
2000
0000
3002
0000
0203
,
0000
0000
0310
1000
0002
0000
0013
0000
,
0001
0010
0100
2000
0000
3020
0000
0230
,
0000
0000
0310
1000
0000
0001
0000
0100
,
0001
0010
0100
2000
0000
0000
3100
0000
,
0000
1000
0001
1000
0020
0000
0100
0130
,
0110
0000
0001
0100
0010
1000
0001
1000
,
0000
0000
0010
0000
0010
0000
0000
0000
1001
0000
0000
0000
1000
0100
1000
0100
,
1000
0000
0001
0010
0100
0010
0001
1000
,
0000
0010
0010
0100
0001
1000
0000
1001
,
0001
0000
1000
0010
0100
0001
1000
0001
,
0000
0000
0100
0000
0100
0000
0000
0000
1001
0000
0000
0000
0001
0010
0001
0010
,
0001
0000
1000
0100
0010
0100
1000
0001
,
0000
0000
0100
0000
0100
0000
0010
0000
1000
0000
0000
0000
0001
0000
1000
0100
,
1000
0000
0001
1000
0010
0000
0101
0000
,
0010
0000
1000
0000
0100
0000
0000
0000
1100
0000
0000
0000
0001
0000
0010
0001
,
0010
0000
0001
1000
0010
0000
1001
0000
,
1000
0000
0001
0000
0100
0000
0000
0000
0101
0000
0000
0000
0001
0000
1000
0100
,
1000
0000
0001
1000
0100
0000
1001
0000
,
0010
0000
0001
0000
0100
0000
0000
0000
0101
0000
0000
0000
0001
0000
0100
0010
,
0100
0000
0010
1000
0100
0000
1100
0000
,
0010
1000
0100
0000
1002
0000
0000
0000
,
0203
0300
0000
0020
,
2030
0000
3000
0000
0000
0000
0001
0001
,
0010
0000
0000
0000
,
0001
0100
0010
1000
0100
1000
0001
0000
,
0202
0303
0000
0000
,
2002
3003
0000
0000
,
2200
3300
0000
0000
,
0100
1000
0010
0100
0001
1000
0001
0000
,
2000
0000
0000
3010
0000
0000
1000
0000
,
0001
0010
0100
1000
0100
0010
0001
0000
,
0200
0000
0000
0301
0000
0000
1000
0000
,
0010
0100
0010
1000
0100
0010
0001
0000
,
0200
0000
0000
0301
0000
0000
1000
0100
,
0010
0000
0000
0011
,
2010
0000
0000
3001
0000
0000
0002
0000
,
0103
0000
0000
0010
0000
0000
1000
0000
,
1100
0000
0001
0000
1000
0010
0200
0000
,
0302
2003
3020
0130
,
0001
0100
0001
1000
0000
0000
1001
0000
,
1000
0100
0010
0000
0100
0010
0001
0000
,
0010
0001
1000
0001
0100
0000
0002
0000
,
2003
0000
3020
0000
0230
0000
0301
0100
,
0002
0000
1003
0100
0000
1000
0001
0000
,
1100
0101
0010
0000
,
0001
0010
0100
0010
0001
0010
0100
0000
,
1000
0100
0010
0100
1000
0100
0010
0000
,
0001
1000
0010
1000
0001
1000
0010
0000
,
1000
0001
0100
0001
1000
0001
0100
0000
,
0001
0010
0100
1000
0010
0100
0001
1000
,
0100
0010
0001
0100
0010
1000
0100
0010
,
0001
0000
1000
0000
0001
0000
1000
0000
0010
0100
0010
0100
0010
0100
0010
0100
,
0002
0000
2000
3003
,
1001
0000
1000
0000
0100
0000
1000
0000
0000
0000
0000
0000
0001
1000
0001
0000
,
1000
0001
0100
0001
1000
0000
1001
0000
,
0001
0000
1000
0000
0010
0000
0100
0000
0001
0000
0000
0000
0100
0010
0100
0000
,
0001
0100
0010
1000
0100
0010
0001
0001
,
1000
0000
1000
0000
0001
0000
1000
0000
0010
0000
0000
0000
0100
0001
0100
0000
,
0010
0000
0100
0000
0001
0000
1000
0100
1000
0000
0000
0000
0000
0000
0000
0000
,
0001
0000
1000
0000
0010
0000
0100
0000
0001
0000
0000
0000
0100
0010
0100
0000
,
0010
1000
0100
0010
0001
1000
0002
0000
,
0103
0000
0010
0000
0100
0000
0001
0000
1000
0000
1000
0000
0010
1000
0010
0000
,
0100
0000
0001
0000
1000
0000
0100
1000
0100
0000
0000
0000
0101
0000
0000
0000
,
1000
0000
0100
0000
0010
0000
0001
0000
1000
0000
0100
0000
1000
0001
1000
0000
,
0001
1000
0010
0100
0001
0001
0100
0000
,
1001
0000
1000
0000
0010
0000
1000
0000
0001
0000
0010
0000
0100
1000
0100
0000
,
0010
0000
0001
0000
1000
0000
0001
0100
0002
0000
0000
0000
1003
0000
0000
0000
,
0001
0000
1000
0000
0010
0000
0100
0000
0001
0000
1000
0000
0100
1000
0100
0000
,
0010
0100
0010
0001
2000
0000
0200
0000
,
3300
0000
0000
0000
;

//---------------dance-double - ----------------
#NOTES:
     dance-double:
     :
     Challenge:
     7:
     0.447589,0.622181,0.185173,0.429601,0.066662,423.000000,398.000000,25.000000,58.000000,0.000000,0.000000,0.447589,0.622181,0.185173,0.429601,0.066662,423.000000,398.000000,25.000000,58.000000,0.000000,0.000000:
00000000
00000000
00000000
00000000
,
00000000
00000000
00000000
00000000
,
00000000
00000000
00000000
00000000
,
00000000
00000000
00000000
00000000
,
00000000
00000000
00000000
00000000
,
00000000
00000000
00000000
00000000
,
00000000
00000000
00000000
00000000
,
00000000
00000000
00000000
00000000
,
00010000
00001000
00010000
00000200
00000000
00002300
00000000
00003020
,
00000000
00000000
00000130
00000002
00000000
00002003
00000000
00000000
,
00003001
00000010
00000100
00002000
00000000
00003002
00000000
00000203
,
00000000
00000000
00000310
00000000
,
00000100
00000010
00001000
00000200
00000000
00020300
00000000
00032000
,
00000000
00000000
00103000
00020000
00000000
20030000
00000000
00000000
,
30100000
10000000
00010000
20000000
00000000
00000000
00000000
00000000
,
31000000
00000000
10020000
00000000
,
01030000
00100000
01000000
00010000
20000000
00000000
31000000
00000000
,
10000000
00010000
00010000
00000000
01010000
00000000
10000000
00000000
,
00010000
00100000
00001000
01000000
00001000
00000000
00010000
00000100
,
00001000
00000010
00001020
00000130
,
00000010
00000100
00000001
00000100
00000020
00000000
00002030
00000000
,
00003001
00000010
00000100
00000000
00002100
00000000
00003001
00000000
,
00001000
00000100
00000010
00000001
00001000
00000000
00000001
00001000
,
00000020
00000000
00000000
00000000
00000230
00000000
00000000
00000000
00000302
00000000
00000000
00000000
00000000
00000000
00001003
00000100
,
00001000
00000000
00000001
00001000
00000010
00000000
00000110
00000000
,
00000100
00000000
00000010
00000000
00001000
00000000
00000000
00000000
00000100
00000000
00000000
00000000
00010000
00000000
00001000
00010000
,
00001000
00000000
00100000
00001000
00010000
00000000
00011000
00000000
,
01000000
00000000
00010000
00000000
10000000
00000000
00000000
00000000
10100000
00000000
00000000
00000000
00010000
00000000
10000000
01000000
,
00100000
00000000
00010000
10000000
00100000
00000000
01100000
00000000
,
10000000
00000000
00100000
00000000
01000000
00000000
00000000
00000000
00010000
00000000
00000000
00000000
00100000
00000000
00010000
00100000
,
01000000
00000000
00100000
00010000
01000000
00000000
01001000
00000000
,
01000000
00001000
00010000
00000100
00002000
00000000
00000000
00000000
,
00003020
00000030
00000000
00000200
,
00000302
00000000
00000003
00000000
00000000
00000000
00001000
00000100
,
00020000
00030000
00000000
00000000
,
00001000
00010000
00001000
00100000
00010000
01000000
00100000
10000000
,
22000000
33000000
00000000
00000000
,
02020000
03030000
00000000
00000000
,
20020000
30030000
00000000
00000000
,
10000000
00100000
01000000
00010000
00100000
00001000
00010000
00000000
,
00010200
00000000
00000000
00001300
00000000
00000000
00000010
00000000
,
00000100
00000001
00000100
00000010
00001000
00000100
00010000
00000000
,
00002000
00000000
00000000
00103000
00000000
00000000
00010000
00000000
,
00100000
00010000
00100000
00001000
00010000
00000100
00001000
00000000
,
00000020
00000000
00000000
00000130
00000000
00000000
00000001
00000100
,
00000010
00000000
00000000
00000101
,
00002100
00000000
00000000
00003002
00000000
00000000
00000103
00000000
,
00002002
00000000
00003003
00000000
00000001
00001000
00000010
00000000
,
00000100
00000010
00000100
00000001
00002000
00000000
00003100
00010000
,
00002000
00203000
00320000
10030000
,
10000000
01000000
00100000
00010000
10000000
00000000
00010000
00000000
,
10100000
01010000
10010000
11000000
,
10000000
00100000
01000000
00010000
00100000
00000000
00010000
00100000
,
00002000
00023000
00030200
00001300
,
00000010
00001000
00000100
00000000
00000010
00000001
00000100
00000000
,
00000101
00000010
00001001
00000000
,
00000001
00001000
00000001
00001000
00000010
00000100
00000010
00000100
,
00001000
00010000
00001000
00010000
00100000
01000000
00100000
01000000
,
00010000
10000000
00010000
10000000
01000000
00100000
01000000
00100000
,
00010000
01000000
00010000
01000000
00001000
00010000
00001000
00010000
,
00000100
00001000
00000010
00000100
00000001
00000010
00000100
00001000
,
00000010
00010000
00001000
00100000
00010000
01000000
00100000
10000000
,
01000000
00000000
00100000
00000000
01000000
00000000
00100000
00000000
00010000
01000000
00010000
01000000
00010000
01000000
00010000
01000000
,
00002000
00000000
00020000
00033000
,
00011000
00000000
00010000
00000000
00000100
00000000
00001000
00000000
00000000
00000000
00000000
00000000
00000001
00001000
00000001
00000000
,
00001000
00000010
00000100
00000001
00001000
00000000
00000000
00000000
,
00000101
00000000
00000100
00000000
00000010
00000000
00001000
00000000
00000100
00000000
00010000
00000000
00001000
00010000
00001000
00000000
,
00100000
00010000
01000000
00100000
20000000
00000000
30010000
00000000
,
10000000
00000000
01000000
00000000
00100000
00000000
00010000
00000000
10000000
00000000
00000000
00000000
00010000
01000000
00010000
00000000
,
01000000
00000000
00100000
00000000
10000000
00000000
01000000
10000000
01000000
00000000
00000000
00000000
00000000
00000000
00000000
00000000
,
10000000
00000000
01000000
00000000
00100000
00000000
00010000
00000000
01000000
00000000
00100000
00000000
01000000
00010000
01000000
00000000
,
00100000
10000000
00010000
00100000
00002000
00000000
00023000
00000000
,
00030100
00001000
00000010
00000100
00000002
00000000
00001003
00000010
,
00000100
00000001
00001000
00000100
00000010
00000010
00000001
00000010
,
00000100
00001000
00000100
00000000
00000010
00000000
00000001
00000000
00000100
00000000
00000010
00000000
00001000
00000001
00001000
00000000
,
00000010
00000100
00001000
00010000
00002000
00000000
00203000
00000000
,
00310000
00000000
00100000
00000000
01000000
00000000
10000000
00000000
00010000
00000000
01000000
00000000
00100000
10000000
00100000
00000000
,
01000000
00000000
00010000
00000000
00100000
00000000
00001000
00010000
00001000
00000000
00000000
00000000
00000000
00000000
00000000
00000000
,
00010100
00000000
00010000
00000000
00000100
00000000
00001000
00000000
00000010
00000000
00000000
00000000
00000100
00000001
00000100
00000000
,
00000010
00001000
00000100
00010000
00002000
00000000
00200000
00000000
,
00303000
00000000
00000000
00000000
;

//---------------dance-single - ----------------
#NOTES:
     dance-single:
     :
     Medium:
     4:
     0.270881,0.444415,0.125918,0.777726,0.000000,256.000000,239.000000,17.000000,105.000000,0.000000,0.000000,0.270881,0.444415,0.125918,0.777726,0.000000,256.000000,239.000000,17.000000,105.000000,0.000000,0.000000:
0000
0000
0000
0000
,
0000
0000
0000
0000
,
0000
0000
0000
0000
,
0000
0000
0000
0000
,
0000
0000
0000
0000
,
0000
0000
0000
0000
,
0000
0000
0000
0000
,
0000
0000
0000
0000
,
0002
0003
0200
0302
,
1003
0000
0200
2300
,
3010
0000
2000
3002
,
0013
0000
2002
3003
,
0002
0003
2000
3020
,
0130
0000
0002
2003
,
3100
0000
2000
3200
,
0310
0000
0002
0003
,
1000
0100
1000
0000
0002
0000
0003
0000
,
0000
0100
1001
0000
,
0001
0100
0002
0000
1003
0000
0000
0000
,
0000
1000
1001
0000
,
1000
0100
0010
0000
0002
0000
0003
0000
,
0000
1000
1001
0000
,
0001
0010
0100
0000
2000
0000
3000
0000
,
0000
0010
1001
0000
,
0002
0000
0003
2000
0000
3000
0020
0000
,
0030
0200
0000
0300
0002
0000
0003
0000
,
2000
0000
3000
0200
0000
0300
0020
0000
,
0030
0002
0000
0003
2000
0000
3000
0000
,
0002
0000
0003
0200
0000
0300
0020
0000
,
0030
2000
0000
3000
0200
0300
0000
0000
,
2000
0000
3000
0002
0000
0003
2000
0000
,
3000
0000
1001
0000
,
0002
0003
0000
0100
,
0200
0000
0300
0000
0000
0000
0010
0100
,
0020
0030
0000
0000
,
2000
3200
0320
0032
,
2003
3000
0000
0000
,
0002
0003
0000
0000
,
2002
3003
0000
0000
,
0002
0203
0320
2030
,
3200
0300
0000
2000
,
3002
2003
3020
0230
,
0302
0003
0000
0002
,
0203
0302
2003
3200
,
0320
0030
0000
0002
,
2003
3000
0000
0020
,
0230
0300
0001
1000
,
0100
0000
0100
0000
,
2002
0000
3003
0000
0001
1000
0020
0000
,
0230
0302
2003
0000
,
3100
0000
0000
0000
1000
0010
0200
0000
,
0302
2003
3002
0000
,
0103
0000
0000
0000
0001
0100
0020
0000
,
2030
0000
3200
0000
0320
0000
0031
1000
,
0020
0000
0130
0000
0001
0000
1000
0100
,
1000
0001
0100
0000
,
1002
0103
0001
1000
,
2001
3100
1000
0010
,
1020
0130
0001
0010
,
0021
0130
1000
0001
,
1000
0100
1000
0100
2000
0000
3001
0000
,
0001
0100
0001
0100
0002
0000
1003
0000
,
0001
1000
0010
0100
0001
1000
0100
0010
,
0002
0000
2000
3003
,
0001
0100
0001
0100
0000
0000
0001
0000
,
0001
1000
0000
0000
,
1000
0100
1000
0100
0000
0000
1000
0000
,
0001
0100
0002
0003
,
0100
0010
0100
0010
0000
0000
0110
0000
,
0110
1001
0002
0003
,
1000
0010
1000
0010
0000
0000
1000
0000
,
0100
0010
0002
0003
,
1000
0100
1000
0100
0000
0000
1000
0000
,
0001
0100
2002
3003
,
0001
0100
0001
0100
0000
0000
0001
0000
,
1000
0010
0200
0302
,
1003
0100
0010
0001
0000
0000
1000
0000
,
0001
0100
2002
3003
,
0001
0010
0100
1000
0000
0000
0001
0000
,
1000
0010
1000
0001
0200
0000
0020
0000
,
0330
0000
0000
0000
;

//---------------dance-single - ----------------
#NOTES:
     dance-single:
     :
     Easy:
     2:
     0.151313,0.207394,0.014814,0.340718,0.000000,143.000000,141.000000,2.000000,46.000000,0.000000,0.000000,0.151313,0.207394,0.014814,0.340718,0.000000,143.000000,141.000000,2.000000,46.000000,0.000000,0.000000:
// measure 0
0000
0000
0000
0000
,  // measure 1
0000
0000
0000
0000
,  // measure 2
0000
0000
0000
0000
,  // measure 3
0000
0000
0000
0000
,  // measure 4
0000
0000
0000
0000
,  // measure 5
0000
0000
0000
0000
,  // measure 6
0000
0000
0000
0000
,  // measure 7
0000
0000
0000
0000
,  // measure 8
2000
0000
3000
0000
,  // measure 9
0002
0000
0003
0000
,  // measure 10
0200
0000
0300
0000
,  // measure 11
0200
0000
0300
0000
,  // measure 12
0002
0000
0003
0000
,  // measure 13
2000
0000
3000
0000
,  // measure 14
0020
0000
0030
0000
,  // measure 15
0020
0000
0030
0000
,  // measure 16
1000
0000
0100
0000
,  // measure 17
1000
0000
1000
0000
,  // measure 18
0002
0003
0000
0000
,  // measure 19
0001
0000
1000
0000
,  // measure 20
0001
0000
0001
0000
,  // measure 21
0100
0000
0001
0000
,  // measure 22
2000
3000
0000
0000
,  // measure 23
1000
0000
0001
0000
,  // measure 24
1000
0000
0010
0010
,  // measure 25
0000
0100
0100
0000
,  // measure 26
0002
0003
1000
0000
,  // measure 27
2000
3000
0001
0000
,  // measure 28
0001
0000
0010
0010
,  // measure 29
0000
0100
0100
0000
,  // measure 30
2000
3000
0001
0000
,  // measure 31
0002
0003
0000
0000
,  // measure 32
0200
0300
0000
0010
,  // measure 33
0020
0030
0000
1000
,  // measure 34
0002
0003
0000
0000
,  // measure 35
2000
3000
0200
0300
,  // measure 36
0020
0030
0000
0000
,  // measure 37
0002
0003
0000
0000
,  // measure 38
2000
3000
0000
0000
,  // measure 39
0002
0003
0200
0300
,  // measure 40
0020
0030
0000
1000
,  // measure 41
1000
0001
0001
0000
,  // measure 42
0200
0300
0000
0001
,  // measure 43
0001
1000
1000
0000
,  // measure 44
0200
0300
0000
0000
,  // measure 45
0020
0030
0000
0001
,  // measure 46
1000
0000
0000
0000
,  // measure 47
0010
0000
0010
0000
,  // measure 48
1001
0000
0000
1000
,  // measure 49
0100
1000
0100
0000
,  // measure 50
1000
0000
0000
0001
,  // measure 51
0100
0001
0100
0000
,  // measure 52
0001
0000
0000
1000
,  // measure 53
0010
1000
0010
1000
,  // measure 54
0001
0000
1000
0000
,  // measure 55
0010
0000
0000
0000
,  // measure 56
2000
3000
0000
0001
,  // measure 57
0002
0003
0000
0100
,  // measure 58
0200
0300
0000
0010
,  // measure 59
0020
0030
0000
1000
,  // measure 60
2000
3000
0200
0300
,  // measure 61
0020
0030
0002
0003
,  // measure 62
0100
0100
0100
0100
,  // measure 63
0200
0000
0300
0000
,  // measure 64
0002
0003
0000
0000
,  // measure 65
2000
3000
0000
0000
,  // measure 66
1001
0000
0000
1000
,  // measure 67
1000
0010
0010
0000
,  // measure 68
1000
0000
0000
0001
,  // measure 69
0001
0100
0100
0000
,  // measure 70
0002
0003
0000
1000
,  // measure 71
1000
0001
0001
0000
,  // measure 72
2000
3000
0000
0010
,  // measure 73
0010
0100
0100
0000
,  // measure 74
0020
0030
0000
1000
,  // measure 75
1000
0100
0100
0000
,  // measure 76
2000
3000
0000
0001
,  // measure 77
0001
0010
0010
0000
,  // measure 78
0002
0003
0000
0100
,  // measure 79
0001
1000
0002
2003
,  // measure 80
3000
0000
0000
0000
;

//---------------dance-single - ----------------
#NOTES:
     dance-single:
     :
     Beginner:
     1:
     0.117452,0.177210,0.029628,0.000000,0.000000,111.000000,107.000000,4.000000,0.000000,0.000000,0.000000,0.117452,0.177210,0.029628,0.000000,0.000000,111.000000,107.000000,4.000000,0.000000,0.000000,0.000000:
// measure 0
0000
0000
0000
0000
,  // measure 1
0000
0000
0000
0000
,  // measure 2
0000
0000
0000
0000
,  // measure 3
0000
0000
0000
0000
,  // measure 4
0000
0000
0000
0000
,  // measure 5
0000
0000
0000
0000
,  // measure 6
0000
0000
0000
0000
,  // measure 7
0000
0000
0000
0000
,  // measure 8
0001
0000
0000
0000
,  // measure 9
1000
0000
0000
0000
,  // measure 10
0010
0000
0000
0000
,  // measure 11
0010
0000
0000
0000
,  // measure 12
1000
0000
0000
0000
,  // measure 13
0001
0000
0000
0000
,  // measure 14
0100
0000
0000
0000
,  // measure 15
0100
0000
0000
0000
,  // measure 16
1001
0000
0000
0000
,  // measure 17
0001
0000
0001
0000
,  // measure 18
0001
0000
0000
0000
,  // measure 19
0010
0000
0000
0000
,  // measure 20
0001
0000
0000
0000
,  // measure 21
1000
0000
1000
0000
,  // measure 22
1000
0000
0000
0000
,  // measure 23
0100
0000
0000
0000
,  // measure 24
1000
0000
1000
0000
,  // measure 25
1000
0000
0000
0000
,  // measure 26
0010
0000
0010
0000
,  // measure 27
0010
0000
0000
0000
,  // measure 28
0100
0000
0100
0000
,  // measure 29
0100
0000
0000
0000
,  // measure 30
0001
0000
0001
0000
,  // measure 31
0001
0000
0000
0000
,  // measure 32
1000
0000
0000
0100
,  // measure 33
0100
0000
0000
0100
,  // measure 34
0100
0000
0000
0000
,  // measure 35
1000
0000
0000
0000
,  // measure 36
0001
0000
0000
0000
,  // measure 37
0100
0000
0000
0000
,  // measure 38
0010
0000
0000
0000
,  // measure 39
1000
0000
0000
0000
,  // measure 40
0001
0000
0000
0001
,  // measure 41
0001
0000
0000
0000
,  // measure 42
1000
0000
0000
1000
,  // measure 43
1000
0000
0000
0000
,  // measure 44
0010
0000
0000
0010
,  // measure 45
0010
0000
0000
0000
,  // measure 46
0100
0000
0000
0000
,  // measure 47
0100
0000
0000
0000
,  // measure 48
1001
0000
0000
0001
,  // measure 49
0001
0001
0001
0000
,  // measure 50
0000
0000
0000
1000
,  // measure 51
1000
1000
1000
0000
,  // measure 52
0000
0000
0000
0100
,  // measure 53
0100
0100
0100
0000
,  // measure 54
0100
0000
0000
0000
,  // measure 55
0100
0000
0000
0000
,  // measure 56
1001
0000
0000
0000
,  // measure 57
1000
0000
1000
0000
,  // measure 58
1000
0000
0000
0000
,  // measure 59
0010
0000
0010
0000
,  // measure 60
0010
0000
0000
0000
,  // measure 61
1000
0000
0000
0000
,  // measure 62
0100
0000
0100
0000
,  // measure 63
0100
0000
0100
0000
,  // measure 64
0000
0000
0000
0000
,  // measure 65
0000
0000
1001
0000
,  // measure 66
0001
0001
0000
0001
,  // measure 67
0001
0000
0000
0000
,  // measure 68
0100
0100
0000
0100
,  // measure 69
0100
0000
0000
0000
,  // measure 70
0010
0010
0000
0010
,  // measure 71
0010
0000
0000
0000
,  // measure 72
1000
0000
0001
0000
,  // measure 73
1000
0000
0000
0000
,  // measure 74
0001
0001
0000
0001
,  // measure 75
0001
0000
0000
0000
,  // measure 76
1000
1000
0000
1000
,  // measure 77
1000
0000
0000
0000
,  // measure 78
0010
0010
0000
0000
,  // measure 79
0100
0000
0100
0100
;
