#TITLE:Cocoon;
#SUBTITLE:;
#ARTIST:Catfish & The Bottlemen;
#TITLETRANSLIT:;
#SUBTITLETRANSLIT:;
#ARTISTTRANSLIT:;
#GENRE:Best Clean Edit;
#CREDIT:;
#BANNER:Cocoon.png;
#BACKGROUND:Cocoon-bg.png;
#LYRICSPATH:;
#CDTITLE:cdtitle.png;
#MUSIC:Cocoon.ogg;
#OFFSET:-0.606000;
#SAMPLESTART:49.887100;
#SAMPLELENGTH:15.939994;
#SELECTABLE:YES;
#BPMS:0.000000=133.014999
;
#STOPS:
;
#BGCHANGES:4.000=Cocoon.avi=1.000=0=0=1=====,
99999=-nosongbg-=1.000=0=0=0 // don't automatically add -songbackground-
;
#KEYSOUNDS:;
#ATTACKS:;

//---------------dance-single - ----------------
#NOTES:
     dance-single:
     :
     Hard:
     8:
     0.597185,0.598309,0.177885,0.239460,0.194989,550.000000,26.000000,35.000000,0.000000,0.000000,0.000000,0.597185,0.598309,0.177885,0.239460,0.194989,550.000000,26.000000,35.000000,0.000000,0.000000,0.000000:
// measure 0
0000
0000
0000
0000
,  // measure 1
0000
0000
0000
0000
,  // measure 2
1000
0100
1000
0100
0010
0001
0010
0001
,  // measure 3
1000
0010
0100
0001
1001
0000
0000
0000
,  // measure 4
0001
0000
0000
0001
0100
0000
0000
0000
0010
0000
1000
0000
0010
0000
0100
0000
,  // measure 5
0001
0000
0000
0001
1000
0000
0000
0000
0100
0000
1000
0000
0100
0000
0010
0000
,  // measure 6
0001
0000
0000
0001
1000
0000
0000
0000
0010
0000
0100
0000
0010
0000
1000
0000
,  // measure 7
0100
0000
0000
0100
0010
0000
0000
0000
0001
0000
0010
0000
0100
0000
1000
0000
,  // measure 8
0002
0000
0103
0000
0010
0100
0001
0010
,  // measure 9
0200
0000
1300
0000
0010
1000
0100
0010
,  // measure 10
0002
0000
1003
0000
0010
0100
0001
0000
,  // measure 11
1000
0100
1000
0000
0001
0010
0001
0000
,  // measure 12
1100
0000
0000
0000
0001
0000
0000
0000
1000
0010
1000
0000
0001
0000
0000
0000
,  // measure 13
0100
0000
0000
0000
0010
0000
0000
0000
1000
0100
1000
0000
0001
0000
0000
0000
,  // measure 14
0010
0000
0000
0000
0001
0000
0000
0000
0100
0010
0100
0000
0001
0000
0000
0000
,  // measure 15
1000
0000
0000
0000
0001
0000
0000
0000
0010
0100
0010
0000
0001
0000
1000
0000
,  // measure 16
0020
0000
0000
0000
0130
0000
0000
0000
0001
1000
0001
0000
0100
0000
0010
0000
,  // measure 17
2000
0000
0000
0000
3100
0000
0000
0000
0010
0001
0010
0000
0100
0000
1000
0000
,  // measure 18
0002
0000
0103
0000
0010
1000
0100
0000
,  // measure 19
0010
0001
0100
0000
0001
1000
0001
1000
,  // measure 20
0100
0000
0000
0100
0000
0000
0010
0000
0001
0000
0000
1000
0000
0000
0010
0000
,  // measure 21
0100
0000
0000
0100
0000
0000
0001
0000
0010
0000
0100
0000
1000
0000
0001
0000
,  // measure 22
0100
0000
0000
0100
0000
0000
0010
0000
1000
0000
0000
1000
0000
0000
0100
0000
,  // measure 23
0010
0000
0000
0010
0000
0000
0001
0000
1000
0000
0100
0000
0010
0000
0001
0000
,  // measure 24
0100
0000
0100
0010
0000
0000
1000
0000
0100
0000
0100
0010
0000
0000
0001
0000
,  // measure 25
1000
0010
0100
0001
1000
1000
0100
0010
,  // measure 26
0001
0100
1000
0001
0010
1000
0001
0010
,  // measure 27
0100
0000
0100
1000
0000
1000
0010
0000
0101
0000
0000
0000
0000
0000
0000
0000
,  // measure 28
1000
0000
0100
0000
1000
0000
0001
0000
1000
0010
1000
0000
0001
1000
0001
0000
,  // measure 29
0200
0000
0000
0000
0310
0000
1000
0000
0001
1000
0001
0000
0100
0000
0010
0000
,  // measure 30
1000
0200
0000
0310
0001
0010
0100
1000
,  // measure 31
0002
0000
0103
0010
0010
1000
0100
1000
,  // measure 32
0001
0000
0010
0000
0001
0000
1000
0000
0001
0100
0001
0000
1000
0001
1000
0000
,  // measure 33
0020
0000
0000
0000
0130
0000
0001
0000
1000
0001
1000
0000
0010
0000
0100
0000
,  // measure 34
0001
0020
0000
0130
1000
0100
0010
0001
,  // measure 35
1000
0000
0010
0100
0010
0100
0010
0000
1000
0000
0001
0000
0010
0100
0010
0100
,  // measure 36
2000
0100
0001
3010
,  // measure 37
1001
0000
0000
0000
1000
0000
0100
0000
0010
0001
0010
0000
0100
0000
1000
0000
,  // measure 38
0001
0200
0000
0010
0310
0100
0001
0010
,  // measure 39
0200
0000
0000
0000
1300
0000
0001
0000
1000
0000
0010
0100
0010
0000
1000
0000
,  // measure 40
0001
0100
0010
0100
0020
0000
1030
0000
,  // measure 41
0001
1000
0100
0010
0001
1000
0010
0100
,  // measure 42
0001
1000
0200
0000
0310
0001
1000
0000
,  // measure 43
0010
1010
0100
0001
1000
1100
0100
0010
,  // measure 44
0001
0000
1100
0000
1001
0001
0100
0010
,  // measure 45
1010
0000
1001
0001
0100
0010
1000
0100
,  // measure 46
0010
0000
0011
0000
1001
1000
0100
0000
,  // measure 47
1100
0000
1010
0010
0100
0001
1000
0100
,  // measure 48
0010
0000
1001
0001
1000
1100
1000
0001
,  // measure 49
0101
0000
0000
0000
1000
0000
0010
0100
0010
0000
0100
0000
0010
0000
0100
0000
,  // measure 50
0002
0100
1000
0013
,  // measure 51
1100
0101
0011
1010
,  // measure 52
0001
0000
0100
0000
1000
0000
0100
0000
0002
0000
0000
0000
1003
0000
0100
0010
,  // measure 53
0200
1000
0010
1300
,  // measure 54
0001
0100
0000
0000
0010
1000
0000
0000
0100
0010
0000
0000
0001
1000
0000
0000
,  // measure 55
0010
0100
0000
0000
0001
0000
0010
0000
0100
0000
1000
0000
0010
0000
0000
0000
,  // measure 56
0100
0000
0001
0000
0100
0000
0010
0000
2000
0000
0000
0000
3001
0000
0010
0100
,  // measure 57
0020
0001
0100
0031
,  // measure 58
1000
0000
0010
0100
0000
0100
0001
0000
1000
0000
0100
0010
0000
0010
0001
0000
,  // measure 59
1000
0000
0010
0100
0000
0100
0001
0000
2002
0000
0000
0000
3003
0000
0000
0000
,  // measure 60
1100
0000
0100
0000
0010
0000
0001
0100
0001
0000
1000
0100
1000
0000
0001
0000
,  // measure 61
0020
0000
0000
0000
0031
0000
1000
0000
0010
0100
0010
0000
1000
0000
0100
0000
,  // measure 62
0010
0002
0000
0103
0010
0100
0010
1000
,  // measure 63
0100
0000
0000
0000
0010
0000
0001
0000
1000
0000
0010
0100
0010
0000
1000
0000
,  // measure 64
0000
0000
0001
0100
0001
0100
0001
0100
0020
0000
0000
0000
2030
0000
0000
0000
,  // measure 65
3001
0000
1000
0100
0010
0001
0100
0010
,  // measure 66
1000
0001
0200
0000
0310
0100
0002
0000
,  // measure 67
1003
0000
0100
0010
0100
0010
0100
0000
0010
0000
0001
0000
1000
0010
1000
0010
,  // measure 68
0100
0001
1000
0100
0010
0001
1000
0010
,  // measure 69
0100
0001
1000
0100
0020
0001
0032
0000
,  // measure 70
1003
0010
0100
0001
1000
0100
0010
0001
,  // measure 71
0100
0010
1000
0001
0200
0010
0320
0000
,  // measure 72
1030
0100
1000
0001
0010
0001
1000
0010
,  // measure 73
0100
0001
0010
0100
1000
0001
0200
0000
,  // measure 74
0310
1000
0100
0000
0010
0001
0100
0000
,  // measure 75
0001
0101
0100
0010
1000
1100
0100
0010
,  // measure 76
0001
1000
0001
1000
0001
1000
0001
1000
,  // measure 77
0010
0100
0010
0100
0010
0100
0010
0100
,  // measure 78
0001
0010
0100
1000
0001
0100
0010
1000
,  // measure 79
0200
0310
1001
0000
;

//---------------dance-double - ----------------
#NOTES:
     dance-double:
     :
     Challenge:
     8:
     0.584479,0.598309,0.253144,0.273669,0.164201,521.000000,37.000000,40.000000,0.000000,0.000000,0.000000,0.584479,0.598309,0.253144,0.273669,0.164201,521.000000,37.000000,40.000000,0.000000,0.000000,0.000000:
00000000
00000000
00000000
00000000
,
00000000
00000000
00000000
00000000
,
00000001
00000100
00000001
00000100
00001000
00000100
00001000
00000100
,
00001000
00010000
00001000
00010000
02000000
00000000
03000000
00000000
,
11000000
00000000
00010000
00000000
10000000
00100000
01000000
00000000
,
01010000
00000000
00100000
00000000
10000000
01000000
00100000
00010000
,
02000000
00000000
03010000
00000000
00100000
00010000
10000000
00100000
,
02000000
00000000
03100000
00000000
10000000
01000000
00010000
00001000
,
00000200
00000000
00000301
00000000
00001000
00000100
00000010
00000001
,
00000200
00000000
00000310
00000000
00001000
00000010
00000100
00000001
,
00002000
00003002
00000100
00000103
,
00002000
00000000
00003200
00000000
00010300
00000100
00010000
00000000
,
00001000
00000000
00000000
00000000
00100000
00000000
00000000
00000000
00001000
00010000
00001000
00000000
00100000
00000000
00010000
00000000
,
01000000
00000000
00000000
00000000
00100000
00000000
00000000
00000000
10000000
01000000
10000000
00000000
00100000
00000000
01000000
00000000
,
00010000
00000000
00000000
00000000
00100000
00000000
00000000
00000000
00001000
00100000
00001000
00000000
00010000
00000000
00000100
00000000
,
00001000
00000000
00000000
00000000
00000010
00000000
00000000
00000000
00000100
00000010
00000100
00000000
00000001
00000000
00001000
00000000
,
00000200
00000000
00000320
00000000
00000031
00001000
00000001
00000100
,
00000020
00000000
00002030
00000000
00003100
00010000
00000100
00010000
,
00002000
00203000
00320000
02030000
,
03200000
00000000
20300000
00000000
31000000
00100000
00010000
10000000
,
00010000
00000000
00000000
00010000
00000000
00000000
01000000
00000000
00100000
00000000
00000000
00100000
00000000
00000000
10000000
00000000
,
01000000
00000000
00000000
01000000
00000000
00000000
00100000
00000000
00010000
00000000
00100000
00000000
00001000
00000000
00010000
00000000
,
00000100
00000000
00000000
00000100
00000000
00000000
00001000
00000000
00000010
00000000
00000000
00000010
00000000
00000000
00000100
00000000
,
00000001
00000000
00000000
00000001
00000000
00000000
00001000
00000000
00000100
00000000
00010000
00000000
00001000
00000000
00100000
00000000
,
00010000
00000000
00000000
01000000
00000000
00000000
00100000
00000000
10000000
00000000
00000000
01000000
00000000
00000000
00100000
00000000
,
00010000
00000000
00000000
10000000
00000000
00000000
00100000
00000000
00100000
00000000
10000000
00000000
01000000
00000000
00100000
00000000
,
00010000
00000000
00000000
00100000
00000000
00000000
00001000
00000000
00010000
00000000
00000000
00000100
00000000
00000000
00001000
00000000
,
00000010
00000000
00000010
00000100
00000000
00000100
00000001
00000000
00001001
00000000
00000000
00000000
00000000
00000000
00000000
00000000
,
00001100
00000000
00001000
00000000
00000001
00000000
00001000
00000000
00000010
00000100
00000010
00000000
00000100
00000001
00000100
00000000
,
00000020
00000000
00001030
00000100
00010000
00001000
00010000
00001000
,
00000000
00000000
00201000
00000000
00000000
00000000
00010000
00000000
00010000
00000000
01000000
00000000
01000000
00300000
00000000
00000000
,
00100000
00010000
01000000
00100000
10000000
00010000
00100000
01000000
,
10000000
00000000
00010000
01000000
00010000
00000000
01000000
00000000
00200000
00000000
00000000
00000000
20300000
00000000
00000000
00000000
,
30010000
00000000
10000000
01000000
00100000
00010000
01000000
00100000
,
01000000
00010000
20000000
00000000
31000000
00100000
00010000
00000000
,
00100000
00000000
00001000
00000000
00010000
00000000
00001000
00000000
00100000
00010000
00100000
00000000
00010000
00000000
01000000
00000000
,
01010000
00000000
00010000
00000000
10000000
00000000
00010000
00000000
01000000
00100000
01000000
00000000
00100000
10000000
00100000
00000000
,
02000000
00000000
03010000
00100000
00001000
00010000
00001000
00010000
,
00000000
00000000
00010200
00000000
00000000
00000000
00001000
00000000
00001000
00000000
00000010
00000000
00000010
00000300
00000000
00000000
,
00000100
00001000
00000010
00000100
00000001
00001000
00000100
00000010
,
00000001
00000000
00001000
00000010
00001000
00000000
00000010
00000000
00000200
00000000
00000000
00000000
00000302
00000000
00000000
00000000
,
00001003
00000000
00000001
00000010
00000100
00001000
00000010
00000100
,
00000010
00001000
00000002
00000000
00000013
00000100
00001000
00000000
,
00000010
00001010
00001000
00000100
00000010
00000011
00000001
00001000
,
00000010
00000000
00001001
00000000
00000101
00000100
00000010
00000000
,
00001010
00000000
00001100
00000100
00010000
00001000
00100000
00010000
,
01000000
00000000
01010000
00000000
10100000
00100000
10000000
00000000
,
10010000
00000000
11000000
01000000
00100000
00010000
01000000
00100000
,
10000000
00000000
01010000
01000000
00001000
00101000
00100000
00000100
,
00010100
00000000
00000000
00000000
00010000
00000000
00001000
00010000
00001000
00000000
00010000
00000000
00001000
00000000
00010000
00000000
,
00000200
00000000
00001300
00000000
00000010
00000100
00000001
00000000
,
00001100
00000011
00001010
00000101
,
00000001
00000000
00000010
00000000
00001000
00000000
00010000
00000000
00200000
00000000
00000000
00000000
10300000
00000000
01000000
10000000
,
02000000
00100000
00010000
03100000
,
00010000
00100000
00000000
00000000
01000000
10000000
00000000
00000000
00100000
01000000
00000000
00000000
00010000
00100000
00000000
00000000
,
00001000
00010000
00000000
00000000
00000100
00000000
00010000
00000000
00000100
00000000
00010000
00000000
00000100
00000000
00000000
00000000
,
00001000
00000000
00000010
00000000
00000100
00000000
00000001
00000000
00002000
00000000
00000000
00000000
00003001
00000000
00000100
00000010
,
00000200
00000001
00001000
00000310
,
00000100
00000000
00000001
00000010
00000000
00000010
00000100
00000000
00001000
00000000
00000010
00000100
00000000
00000100
00001000
00000000
,
00010000
00000000
00001000
00010000
00000000
00010000
00100000
00000000
20000000
00000000
00000000
00000000
00000000
00000000
00000000
00000000
,
30010000
00000000
00100000
00000000
00010000
00000000
01000000
00000000
00100000
10000000
00100000
00000000
10000000
01000000
10000000
00000000
,
00010000
00000000
00000000
00000000
01000000
00000000
00100000
00000000
10000000
01000000
10000000
00000000
01000000
00000000
00100000
00000000
,
00010000
02000000
00000000
00100000
03100000
01000000
00010000
10000000
,
01000000
00000000
00100000
00010000
10000000
00100000
01000000
00010000
,
10000000
01000000
00010000
00001000
00000200
00000000
00000301
00000000
,
00001000
00000000
00000100
00000000
00000010
00000000
00000001
00000000
00000100
00000010
00000100
00000000
00000001
00000000
00001000
00000000
,
00000010
00000100
00000001
00000000
00000101
00000000
00001010
00000000
,
00000001
00000000
00001000
00000100
00001000
00000100
00001000
00000000
00000001
00000000
00000100
00000000
00000010
00001000
00000010
00001000
,
00000100
00000000
00010100
00000000
00011000
00000000
00001000
00100000
,
00010000
00000000
00110000
00000000
20010000
00000000
30100000
10000000
,
00010000
00000000
11000000
00000000
02010000
00000000
00000000
03100000
,
10000000
01000000
00100000
00010000
01000000
00001000
00100000
00001000
,
00010000
00000000
00010100
00000000
00001100
00000100
00000010
00000000
,
00000001
00001000
00000010
00000100
00000001
00001000
00000100
00000010
,
00000002
00000000
00000100
00000000
00001003
00000100
00001000
00000000
,
00000001
00000000
00000100
00000010
00000100
00000000
00000010
00000000
00001000
00000000
00000100
00001000
00000100
00000000
00001000
00000000
,
00010100
00010000
00000100
00010000
00000100
00010000
00000100
00010000
,
00011000
00001000
00100000
00001000
00100000
00001000
00100000
00001000
,
01000000
01000000
00100000
00100000
10000000
10000000
01000000
01000000
,
00100000
00010000
01000000
00001000
00011000
00000000
00000000
00000000
;

//---------------dance-single - ----------------
#NOTES:
     dance-single:
     :
     Medium:
     6:
     0.407571,0.435134,0.273669,0.301036,0.000000,333.000000,40.000000,44.000000,0.000000,0.000000,0.000000,0.407571,0.435134,0.273669,0.301036,0.000000,333.000000,40.000000,44.000000,0.000000,0.000000,0.000000:
0000
0000
0000
0000
,
0000
0000
0000
0000
,
0100
0100
0010
0010
,
1000
0001
1001
0000
,
0201
0000
0300
0000
0010
1000
0010
0000
,
2000
3000
0100
0010
,
0002
0000
0003
0000
0100
0010
0100
0000
,
0102
0000
0003
0000
1000
0100
1000
0000
,
0020
0000
0130
0000
0000
0000
0001
1000
,
0002
0000
0103
0000
0000
0000
1000
0001
,
2000
3100
0000
0010
,
0001
0000
1000
0000
0010
0100
0010
0000
,
2010
0000
3000
0000
0001
1000
0001
0000
,
0201
0000
0300
0000
0010
1000
0001
0000
,
0020
0000
0030
0000
0001
1000
0100
0000
,
2000
0000
3000
0000
0010
0100
0010
0100
,
0002
0003
0100
0010
,
1000
0000
0001
0000
0010
0001
0010
0000
,
0200
0000
2300
0000
,
3020
0000
0000
0000
0130
0000
0001
1000
,
0000
0000
0101
0000
1100
0000
0001
0001
,
0000
0000
1000
0000
0001
0100
0010
0000
,
1000
0000
1010
0000
0011
0000
0000
1000
,
1000
0000
0001
0000
0100
0010
0100
0000
,
0001
1010
1001
0000
,
0010
0000
0001
0000
1000
0100
1000
0000
,
0001
0100
0010
1000
,
0100
0010
0001
0000
1100
0000
0000
0000
,
0101
2000
0100
3010
,
1000
0000
0001
0000
0100
0010
0100
0000
,
0001
0000
0010
0000
0001
1000
0001
0000
,
1000
0000
0000
0000
0010
0100
0010
0100
,
0002
2003
3200
0300
,
0010
0000
0001
0000
1000
0100
1000
0000
,
0001
0000
0100
0100
,
0010
0000
1000
0000
0001
0010
0001
1000
,
1010
0002
0010
0103
,
0001
0000
1000
0000
0010
0100
0010
0000
,
1000
0000
0100
0000
1000
0001
1000
0000
,
0001
0000
0000
0000
0100
0010
0100
0010
,
2000
3002
0023
0030
,
0100
0000
1000
0000
0001
0010
0001
0000
,
1000
0000
0010
0010
,
0100
0000
0001
0000
1000
0100
1000
0001
,
0100
0000
0101
0000
0000
1010
0000
0000
,
1001
0000
1000
0100
0010
0001
1000
0000
,
0001
0000
0101
0000
0000
1100
0000
0000
,
1001
0000
0010
0001
0010
0001
1000
0000
,
0100
0000
1100
0000
0000
0101
0000
0000
,
1001
0000
0000
0010
0100
0010
0100
0000
,
0001
1000
0100
0010
,
0001
1000
0001
0000
1000
0100
1000
0000
,
0002
0203
0320
2030
,
3200
0000
0310
0000
,
0010
0001
0010
0001
1000
0100
1000
0100
,
0020
0031
1000
0000
,
0001
0100
0001
0000
2000
0000
3020
0000
,
0230
0300
0000
0001
,
1000
0100
1000
0000
0001
0010
0001
0000
,
1000
0001
1000
0000
0202
0000
0303
0000
,
1001
0000
1000
0000
0010
0100
0010
0000
,
0200
0000
0300
0000
0001
1000
0010
0000
,
0100
0000
0001
0000
1000
0100
1000
0000
,
0002
0000
0003
0000
0100
0010
0100
0010
,
0000
1000
1000
0001
0001
0000
0100
0000
,
0010
0000
1000
0000
0100
0010
0001
0000
,
2200
0000
3300
0000
0001
1000
0001
0000
,
0202
0000
0303
0000
1000
0001
1000
0010
,
0100
0101
1100
0010
,
1000
1100
0012
0000
,
1003
1010
1001
0100
,
0010
0100
0001
0000
0102
0000
0000
0000
,
1003
0000
0100
0000
0010
0001
0010
0000
,
0001
0000
0100
0000
0010
1000
0010
0000
,
0200
0000
0300
0000
0001
1000
0001
1000
,
0200
0300
0010
0001
,
1100
0101
1000
0001
,
0011
0000
1010
0000
0001
1000
0010
0100
,
0001
0000
1000
0000
0100
0010
0001
0000
,
1100
0010
1001
0000
;

//---------------dance-single - ----------------
#NOTES:
     dance-single:
     :
     Easy:
     3:
     0.243370,0.299154,0.027367,0.239460,0.000000,210.000000,4.000000,35.000000,0.000000,0.000000,0.000000,0.243370,0.299154,0.027367,0.239460,0.000000,210.000000,4.000000,35.000000,0.000000,0.000000,0.000000:
0000
0000
0000
0000
,
0000
0000
0000
0000
,
0001
0001
1000
1000
,
0010
0010
0100
0000
,
0002
0003
0100
0010
,
2000
3000
0001
0000
,
0020
0030
0001
1000
,
0200
0300
0010
0010
,
0002
0003
0100
0010
,
2000
3000
0010
0010
,
0200
0300
0001
0000
,
1000
0000
0100
0010
,
0002
0003
0100
0001
,
2000
3000
0010
0100
,
0020
0030
1000
0100
,
2000
3000
0001
0010
,
0200
0300
1000
0000
,
0010
0010
0100
0100
,
0002
0003
2000
3000
,
0020
0030
0200
0300
,
0000
0001
0001
1000
,
0001
0100
0100
0000
,
0000
0010
0010
1000
,
0010
0100
0100
0000
,
0000
0001
0001
0000
,
0000
1000
1000
0000
,
0010
0000
1000
0000
,
0001
0100
0010
0000
,
2002
0000
0000
3003
,
0010
0000
1000
0100
,
0010
0000
0001
1000
,
0001
0000
0100
0100
,
0000
0010
0010
0000
,
1000
0000
0001
0010
,
0100
1000
0010
0000
,
0100
0100
0010
0000
,
2002
0000
0000
3003
,
0100
0000
0001
0010
,
0100
0000
1000
0001
,
1000
0000
0010
0010
,
0000
0100
0100
0000
,
0001
0000
1000
0100
,
0010
0001
0100
0000
,
0010
0010
0100
0000
,
1000
1000
0100
0100
,
1000
0100
1000
0000
,
0001
0001
0100
0100
,
0001
0100
0001
0000
,
1000
1000
0010
0010
,
1000
0010
1000
0000
,
0002
0003
2000
3000
,
0020
0030
0200
0300
,
0001
0001
0010
0010
,
0200
0000
0300
0000
,
2000
3000
0002
0003
,
0200
0300
0020
0030
,
1000
1000
0100
0010
,
0020
0000
0030
0000
,
0002
0003
2000
3000
,
0020
0030
0100
0000
,
2002
0000
0000
3003
,
0010
0000
1000
0100
,
0010
0000
0001
1000
,
0001
0000
0100
0100
,
0000
0010
0010
0000
,
1000
0000
0001
0010
,
0100
1000
0010
0000
,
0100
0100
0010
0000
,
0000
0100
0001
0100
,
0000
0010
0010
0000
,
0000
1000
0100
1000
,
0000
0010
0010
0000
,
0000
1000
0001
1000
,
0000
0001
0001
0000
,
0100
0000
0100
0000
,
0010
0010
1000
0000
,
0100
0100
0100
0100
,
0010
0010
0010
0010
,
0001
0000
1000
0000
,
0010
0000
1001
0000
;

//---------------dance-single - ----------------
#NOTES:
     dance-single:
     :
     Beginner:
     2:
     0.123151,0.163175,0.034209,0.000000,0.000000,121.000000,5.000000,0.000000,0.000000,0.000000,0.000000,0.123151,0.163175,0.034209,0.000000,0.000000,121.000000,5.000000,0.000000,0.000000,0.000000,0.000000:
0000
0000
0000
0000
,
0000
0000
0000
0000
,
0010
0000
0000
0000
,
0010
0000
0000
0000
,
1000
0000
0100
0000
,
0100
0000
0000
0000
,
0010
0000
0000
0000
,
0001
0000
0000
0000
,
0100
0100
0000
0000
,
0100
0100
0000
0000
,
0100
0100
0000
0000
,
0001
0000
0000
0000
,
1000
0000
0010
0000
,
0010
0000
0000
0000
,
0100
0000
0000
0000
,
0001
0000
0000
0000
,
1000
1000
0000
0000
,
1000
1000
0000
0000
,
1000
1000
0000
0000
,
0010
0000
0000
0000
,
0000
0100
0100
0000
,
0100
0000
0000
0000
,
0000
0001
0001
0000
,
0001
0000
0000
0000
,
0000
1000
1000
0000
,
0000
0010
0010
0000
,
0100
0000
0100
0000
,
0001
0000
0000
0000
,
1001
0000
0000
0000
,
0010
0010
0000
0000
,
1000
0000
0100
0000
,
0010
0000
0000
0000
,
0001
0000
0001
0000
,
1000
0000
0000
0000
,
0010
0010
0000
0000
,
0010
0010
0000
0000
,
1001
0000
0000
0000
,
0100
0100
0000
0000
,
0001
0000
0010
0000
,
0100
0000
0000
0000
,
1000
0000
1000
0000
,
0001
0000
0000
0000
,
0100
0100
0000
0000
,
0100
0100
0000
0000
,
1001
0000
0000
0000
,
1000
0000
0100
0100
,
0100
0000
0000
0000
,
0010
0000
0001
0001
,
0001
0000
0000
0000
,
0100
0000
0100
0000
,
0010
0000
0000
0000
,
1000
0000
1000
0000
,
0001
0000
0001
0000
,
0100
0000
0000
0000
,
0010
0000
0010
0000
,
1000
0000
1000
0000
,
0001
0000
0001
0000
,
0100
0000
0000
0000
,
0001
0000
0000
0000
,
1000
0000
0000
0000
,
1001
0000
0000
0000
,
0010
0000
0010
0000
,
0100
0000
0000
0000
,
0001
0000
0000
0000
,
1000
1000
1000
0000
,
0100
0000
0000
0000
,
0010
0000
0010
0000
,
0010
0000
0000
0000
,
0000
0001
0001
0000
,
0100
0000
0000
0000
,
0000
0010
0010
0000
,
1000
0000
0000
0000
,
0000
0100
0100
0000
,
0000
0010
0010
0000
,
0001
0000
1000
0000
,
0010
0000
0000
0000
,
0100
0000
0000
0000
,
0100
0000
0000
0000
,
0010
0000
0000
0000
,
1000
0000
1001
0000
;
