#VERSION:0.83;
#TITLE:Clarity;
#SUBTITLE:;
#ARTIST:Zedd ft. Foxes;
#TITLETRANSLIT:;
#SUBTITLETRANSLIT:;
#ARTISTTRANSLIT:;
#GENRE:;
#ORIGIN:;
#CREDIT:;
#BANNER:Clarity.png;
#BACKGROUND:Clarity-bg.png;
#PREVIEWVID:;
#JACKET:jacket.png;
#CDIMAGE:;
#DISCIMAGE:;
#LYRICSPATH:;
#CDTITLE:;
#MUSIC:Clarity.ogg;
#OFFSET:-0.492000;
#SAMPLESTART:120.501114;
#SAMPLELENGTH:13.994001;
#SELECTABLE:YES;
#BPMS:0.000=128.000;
#STOPS:254.000=0.234,
254.500=0.234;
#DELAYS:;
#WARPS:;
#TIMESIGNATURES:0.000=4=4;
#TICKCOUNTS:0.000=4;
#COMBOS:0.000=1;
#SPEEDS:0.000=1.000=0.000=0;
#SCROLLS:0.000=1.000;
#FAKES:;
#LABELS:0.000=Song Start;
#BGCHANGES:8.000=Clarity.avi=1.000=0=0=1=====,
99999=-nosongbg-=1.000=0=0=0 // don't automatically add -songbackground-
;
#KEYSOUNDS:;
#ATTACKS:
;

//---------------dance-single - ----------------
#NOTEDATA:;
#CHARTNAME:;
#STEPSTYPE:dance-single;
#DESCRIPTION:;
#CHARTSTYLE:;
#DIFFICULTY:Hard;
#METER:8;
#RADARVALUES:0.492593,0.566970,0.100571,0.474121,0.104163,480.000000,466.000000,14.000000,66.000000,0.000000,0.000000,0.000000,0.000000,0.000000,0.492593,0.566970,0.100571,0.474121,0.104163,480.000000,466.000000,14.000000,66.000000,0.000000,0.000000,0.000000,0.000000,0.000000;
#CREDIT:Ben Speirs;
#NOTES:
0000
0000
0000
0000
,
0000
0000
0000
0000
,
0000
0000
0000
0000
,
0000
0000
0000
0000
,
0001
0000
0020
0000
0230
0000
1300
0001
,
0200
0000
0320
0000
2030
0000
3001
1000
,
0020
0000
0230
0000
0302
0000
0013
0001
,
2000
0100
3100
0000
,
0011
0000
2000
0000
3002
0000
0103
0001
,
2000
0000
3002
0000
0203
0000
0310
2000
,
0100
0000
3010
0002
0100
0000
0013
2000
,
0100
3100
1000
0001
,
1010
0000
0002
0000
2003
0000
3100
1000
,
0020
0000
0230
0000
0302
0000
0013
0002
,
0100
0000
0013
2000
0100
0000
3010
0002
,
0100
0103
0001
1000
,
1010
0000
1002
0000
0203
0000
0310
1000
,
0100
0010
0100
0010
0002
0000
0013
0000
,
0001
1000
0020
0000
0230
0000
0310
1000
,
0001
0010
0100
1000
0010
0100
0002
0000
,
0103
0000
2001
0000
3020
0000
0130
0001
,
0010
0100
0010
0100
2000
0000
3100
0000
,
1000
0001
0200
0000
0320
0000
0130
0001
,
1000
0100
0010
0001
0100
0010
2000
0000
,
3010
0100
0002
0000
2003
0000
3001
0010
,
0100
1000
0200
0000
1300
0000
0102
0000
,
1003
0010
0200
0000
0301
0010
0200
0000
,
1300
0001
1000
0100
0010
0010
0002
0000
,
0103
0010
2000
0000
3002
0000
1003
0100
,
0010
0001
0020
0000
0031
0000
2010
0000
,
3001
0100
0020
0000
1030
0100
0020
0000
,
0031
1000
0001
0010
0100
0100
1000
0000
,
0010
0000
1000
0000
0010
0000
1000
0000
0010
0000
0000
1000
0000
0000
0010
0000
,
0100
0000
0001
0000
0100
0000
0001
0000
0100
0000
0000
0001
0000
0000
0100
0000
,
0010
0000
0100
0000
0010
0000
0100
0000
0010
0000
0000
0100
0000
0000
0001
0000
,
1000
0000
0001
0000
1000
0000
0001
0000
1000
0000
0000
0001
0000
0000
1000
0000
,
0010
0000
0100
0000
0001
0000
0100
0000
0010
0000
0000
1000
0000
0000
0001
0000
,
0010
0000
0100
0000
1000
0000
0100
0000
0010
0000
0000
0001
0000
0000
0200
0000
,
0000
0310
1000
0200
0000
0310
0001
0200
,
0000
0010
0000
0010
0000
0310
0000
0100
,
0001
0100
0010
0100
1000
0100
0010
0100
,
0001
0010
0100
0010
1000
0010
0100
0010
,
0001
0100
0010
1000
0100
0010
0001
1000
,
0010
0100
0001
0010
0100
1000
0001
0000
,
1000
0100
1000
0000
0010
0000
0100
0000
0001
0100
0001
0000
0100
0000
0010
0000
,
1000
0001
1000
0000
0001
0000
0100
0000
0010
1000
0010
0000
0100
0000
0001
0000
,
1000
0100
1000
0000
0010
0000
0100
0000
0002
0000
0000
0000
0023
0000
0000
0000
,
0230
0000
2300
0000
3001
1000
0110
0000
,
1001
0000
1000
0000
0100
0000
1000
0000
0010
0000
0100
0000
0001
0000
0100
0010
,
0100
0000
0001
0000
0010
0000
0100
0000
1000
0000
0001
0000
0100
0000
0010
1000
,
0010
0000
0100
0000
0001
0000
0010
0001
0010
0000
0001
0000
0100
0000
0010
0100
,
0010
0100
0001
0010
0100
0100
0100
0000
,
1100
0000
1000
0000
0010
0000
1000
0000
0001
0000
1000
0000
0010
0000
0100
0001
,
0100
0000
0010
0000
0100
0000
0001
0000
0010
0000
0100
0000
1000
0000
0001
0010
,
0001
0000
0100
0000
0001
0000
1000
0100
1000
0000
0001
0000
1000
0000
0010
0100
,
0010
0100
0001
0010
0100
0100
0100
0000
,
1001
1000
0010
1000
0001
1000
0010
1000
,
0001
0010
0001
1000
0001
0010
0001
1000
,
0010
0100
0001
0100
1000
0100
0010
1000
,
0010
0100
0010
0001
0010
0100
0002
0000
,
0103
0001
0010
0100
0010
0001
0010
0100
,
1000
0010
1000
0100
1000
0010
1000
0001
,
0100
0010
0100
0001
0010
0100
0010
0001
,
1000
0100
0010
0001
1001
1001
0011
0010
,
0001
1000
0020
0000
0130
0001
1000
0001
,
2000
0000
0000
0000
3100
0000
1000
0000
0020
0000
0000
0000
0130
0001
0100
0000
,
0010
0000
0100
0000
0001
0010
0001
0000
0100
0000
0010
0000
1000
0100
1000
0000
,
0001
0100
0001
0000
1000
0000
0001
0000
0200
0000
0000
0000
0310
0000
0100
0000
,
0001
0010
0200
0000
1300
0001
1000
0100
,
0020
0000
0000
0000
0031
0000
1000
0000
0020
0000
0000
0000
0130
0001
0100
0000
,
0010
0000
1000
0000
0001
0010
0001
0000
0100
0000
0001
0000
1000
0100
1000
0000
,
0001
0100
0001
0000
1000
0001
1000
0001
0200
0000
0000
0000
0300
0000
0000
0000
;

//---------------dance-double - ----------------
#NOTEDATA:;
#CHARTNAME:;
#STEPSTYPE:dance-double;
#DESCRIPTION:;
#CHARTSTYLE:;
#DIFFICULTY:Challenge;
#METER:8;
#RADARVALUES:0.517223,0.618512,0.186775,0.359183,0.147265,504.000000,478.000000,26.000000,50.000000,0.000000,0.000000,0.000000,0.000000,0.000000,0.517223,0.618512,0.186775,0.359183,0.147265,504.000000,478.000000,26.000000,50.000000,0.000000,0.000000,0.000000,0.000000,0.000000;
#CREDIT:Ben Speirs;
#NOTES:
00000000
00000000
00000000
00000000
,
00000000
00000000
00000000
00000000
,
00000000
00000000
00000000
00000000
,
00000000
00000000
00000000
00000000
,
00001000
00000000
00020000
00000000
00030200
00000000
00001300
00000010
,
00000200
00000000
00002300
00000000
00023000
00000000
00031000
00100000
,
00020000
00000000
01030000
00100000
20000000
00000000
31000000
00100000
,
00020000
01000000
00001000
01030000
,
01010000
00000000
00002000
00000000
00023000
00000000
00030100
00001000
,
00000020
00000000
00000230
00000000
00000302
00000000
00001003
00000200
,
00010000
00000000
00010300
00002000
00100000
00000000
00103000
00020000
,
01000000
00000000
01030000
00000000
00010000
10000000
00100000
00000000
,
10010000
00000000
20000000
00000000
32000000
00000000
03100000
00010000
,
02000000
00000000
03200000
00000000
00320000
00000000
00031000
00200000
,
00010000
00000000
00301000
00020000
00000100
00000000
00030100
00002000
,
00000010
00003010
00001000
00000001
,
00000101
00000000
00002010
00000000
00003002
00000000
00000013
00000001
,
00000100
00000010
00000100
00000010
00020000
00000000
00031000
00000000
,
00100000
00010000
02000000
00000000
03200000
00000000
10300000
00010000
,
01000000
10000000
01000000
00100000
10000000
01000000
00200000
00000000
,
00310000
10000000
00200000
00000000
02300000
00000000
03010000
00100000
,
02000000
03200000
00302000
00013000
,
00001000
00010000
00000200
00000000
00000320
00000000
00000031
00000100
,
00000010
00001000
00000010
00001000
00000001
00000100
00000001
00000000
,
00001001
00000000
00001100
00000000
00012000
00000000
00103000
00010000
,
01000000
00010000
02000000
00000000
03100000
10000000
00020000
00000000
,
00100000
00100000
00130000
00000000
11000000
00000000
01010000
00000000
,
10000000
00010000
01000000
00000000
00001000
00001000
00001000
00000000
,
00010100
00000000
00001010
00000000
00000102
00000000
00001003
00000001
,
00000100
00000001
00000200
00000000
00000310
00001000
00000200
00000000
,
00000010
00000010
00000310
00000000
00000110
00000000
00001001
00000000
,
00000001
00000100
00001000
00000000
00010000
00100000
10000000
00000000
,
01000000
00000000
10000000
00000000
01000000
00000000
10000000
00000000
01000000
00000000
00000000
10000000
00000000
00000000
00100000
00000000
,
01000000
00000000
00010000
00000000
01000000
00000000
00010000
00000000
01000000
00000000
00000000
00010000
00000000
00000000
00100000
00000000
,
00001000
00000000
00100000
00000000
00001000
00000000
00100000
00000000
00001000
00000000
00000000
00010000
00000000
00000000
00000100
00000000
,
00001000
00000000
00000100
00000000
00001000
00000000
00000100
00000000
00001000
00000000
00000000
00000001
00000000
00000000
00000100
00000000
,
00000010
00000000
00000100
00000000
00001000
00000000
00000100
00000000
00000010
00000000
00000000
00001000
00000000
00000000
00000001
00000000
,
00000010
00000000
00000100
00000000
00000010
00000000
00001000
00000000
00000010
00000000
00000000
00000001
00000000
00000000
00001000
00000000
,
00000100
00000000
00010000
00000000
00000100
00000000
00001000
00000000
00000100
00000000
00000000
00010000
00000000
00000000
00001000
00000000
,
00100000
00000000
00010000
00000000
00100000
00000000
00001000
00000000
00100000
00000000
00000000
00010000
00000000
00000000
10000000
00000000
,
00100000
10000000
01000000
10000000
00100000
01000000
00010000
01000000
,
00100000
00010000
00001000
00010000
00001000
00000100
00000010
00000100
,
00000010
00001000
00000100
00001000
00000001
00000010
00000001
00000010
,
00000100
00001000
00000010
00000100
00000001
00001000
00000001
00000100
,
00000010
00001000
00000010
00000000
00001000
00000000
00000100
00000000
00010000
00001000
00010000
00000000
00001000
00000000
00100000
00000000
,
00010000
01000000
00010000
00000000
10000000
00000000
00100000
00000000
01000000
00100000
01000000
00000000
00010000
00000000
00100000
00000000
,
01000000
00100000
00010000
01000000
00100000
00010000
00001000
00000010
,
00000002
00000000
00002003
00000000
00003010
00000100
00001001
00000000
,
00000001
00000000
00000100
00000000
00001000
00000000
00000100
00000000
00000010
00000000
00001000
00000000
00000100
00000000
00010000
00001000
,
00100000
00000000
00010000
00000000
01000000
00000000
00100000
00000000
10000000
00000000
01000000
00000000
00100000
00000000
00010000
10000000
,
00100000
00000000
01000000
00000000
00010000
00000000
00100000
00001000
00010000
00000000
00000100
00000000
00001000
00000000
00000010
00000100
,
00001000
00000000
00000100
00000000
00000010
00000000
00001000
00000000
00000001
00000010
00000001
00000010
00000001
00000000
00000000
00000000
,
00000010
00000000
00000001
00000000
00000100
00000000
00000010
00000000
00001000
00000000
00000001
00000000
00001000
00000000
00000010
00000100
,
00000001
00000000
00000010
00000000
00000100
00000000
00001000
00000000
00000010
00000000
00000100
00000000
00001000
00000000
00010000
00001000
,
00100000
00000000
00010000
00000000
01000000
00000000
00100000
10000000
01000000
00000000
10000000
00000000
00010000
00000000
01000000
00100000
,
01000000
00000000
00010000
00000000
00100000
00000000
01000000
00000000
10000000
00010000
10000000
00010000
10000000
00000000
00000000
00000000
,
11000000
00000000
01100000
00000000
00110000
00000000
00101000
00001000
,
00010000
00000100
00001000
00000010
00000100
00001000
00000100
00000001
,
00000011
00000110
00001100
00010100
,
00010000
00001000
00100000
00010000
01000000
00100000
10000000
00000000
,
00100000
01000000
00100000
00000000
01000000
00000000
00010000
00000000
00100000
00000000
00001000
00000000
00010000
00000000
00000020
00000000
,
00000100
00000000
00000130
00000000
00000010
00000000
00000100
00000000
00000001
00000000
00000010
00000000
00000200
00000000
00000000
00000300
,
00001000
00000001
00001000
00000000
00000010
00000000
00000100
00000000
00000001
00000100
00000001
00000000
00000100
00000000
00000010
00000000
,
00001000
00000100
00001000
00000100
00010100
00011000
00110000
00100000
,
01000000
00000000
00100000
00000000
00010000
00000000
01000000
00000000
00100000
00000000
10000000
00010000
10000000
00000000
00100000
00000000
,
01000000
00000000
00010000
00000000
00100000
00000000
01000000
00000000
20000000
00000000
00000000
00000000
30010000
01000000
00010000
00000000
,
00100000
00000000
01000000
00000000
10000000
00100000
10000000
00000000
00010000
00000000
00100000
00000000
01000000
00100000
01000000
00000000
,
00100000
00000000
00010000
00000000
01000000
00001000
01000000
00001000
00020000
00000000
00000000
00000000
00031000
00000000
00010000
00000000
,
00000100
00000000
00001000
00000000
00000010
00000000
00000100
00000000
00000001
00000000
00001000
00000100
00001000
00000000
00000010
00000000
,
00000100
00000000
00000001
00000000
00000010
00000000
00000100
00000000
00001000
00000001
00001000
00000000
00000001
00000100
00000001
00000000
,
00000100
00000010
00000100
00000000
00000010
00001000
00000010
00000000
00001000
00000100
00001000
00000000
00000100
00000000
00010000
00000000
,
00001000
00000000
00100000
00000000
00010000
01000000
00010000
01000000
00200000
00000000
00000000
00000000
00300000
00000000
00000000
00000000
;

//---------------dance-single - ----------------
#NOTEDATA:;
#CHARTNAME:;
#STEPSTYPE:dance-single;
#DESCRIPTION:;
#CHARTSTYLE:;
#DIFFICULTY:Challenge;
#METER:11;
#RADARVALUES:0.898982,1.056625,0.143673,0.050286,1.214037,876.000000,856.000000,20.000000,7.000000,0.000000,0.000000,0.000000,0.000000,0.000000,0.898982,1.056625,0.143673,0.050286,1.214037,876.000000,856.000000,20.000000,7.000000,0.000000,0.000000,0.000000,0.000000,0.000000;
#CREDIT:Ben Speirs;
#NOTES:
0000
0000
0000
0000
,
0000
0000
0000
0000
,
0000
0000
0000
0000
,
0000
0000
0000
0000
,
1000
0100
1000
0100
1000
0100
1000
0010
,
0100
0010
0100
0010
0100
0010
0100
0001
,
0010
0001
0010
0100
1000
0100
1000
0010
,
0100
0010
0100
0010
0100
0010
0100
0010
,
0100
0001
1000
0010
0100
0001
0010
0100
,
1000
0010
0100
0001
0010
0100
1000
0020
,
0100
0130
0010
2000
0100
3100
1000
0002
,
0100
0103
0001
0100
0010
1000
0100
0010
,
0001
0100
0010
0100
0001
0010
0100
1000
,
0001
1000
0100
0010
0001
1000
0010
0200
,
0001
0301
1000
0020
0100
0130
0010
2000
,
0100
3100
1000
0010
0100
0001
1000
0001
,
0101
0100
0010
1000
0100
0010
0001
1000
,
0010
0100
0010
0100
0010
0100
0010
0100
0001
0000
0100
0000
0010
0000
1000
0000
,
0100
0010
0001
1000
0010
0100
0001
0010
,
0100
1000
0100
1000
0100
1000
0100
1000
0010
0100
0010
0100
0010
0100
0010
0100
,
0001
0100
0010
1000
0100
0010
0001
1000
,
0010
0100
0010
0100
0010
0100
0010
0100
0010
0000
0100
0000
0001
0000
0010
0000
,
0100
1000
0010
0100
0001
0010
0100
1000
,
0001
0010
0001
0010
0001
0010
0001
0010
0100
1000
0100
1000
0100
1000
0100
1000
,
0010
0000
0100
0000
0001
0000
1000
0000
0001
0000
1000
0000
0010
0000
0100
0001
,
1000
0001
1000
0000
0001
0000
0100
0000
0010
0000
1000
0000
0001
0000
0010
0000
,
0100
1000
0001
0000
0100
0000
0010
0000
1000
0010
0100
0000
0001
0000
1000
0000
,
0100
0010
0001
0000
1000
0000
0010
0000
0100
0001
1000
0000
0010
0000
0100
0000
,
0001
0000
0010
0000
0100
0000
1000
0000
0010
0000
0100
0000
0001
0000
0100
0010
,
0100
0001
1000
0001
1000
0000
0001
0000
0100
0000
0010
0000
1000
0000
0001
0000
,
1000
0100
0010
0000
0001
0000
1000
0000
0010
1000
0100
0000
1000
0000
0010
0000
,
0100
0001
0010
0000
0100
0000
1000
0000
0001
1000
0010
0000
0100
0000
0001
0000
,
1000
0100
1000
0100
1000
0100
1000
0100
1000
0000
0000
1100
0000
0000
1001
0000
,
0001
0100
0001
0100
0001
0100
0001
0100
0001
0000
0000
0101
0000
0000
1001
0000
,
1000
0010
1000
0010
1000
0010
1000
0010
1000
0000
0000
1010
0000
0000
1001
0000
,
0001
0010
0001
0010
0001
0010
0001
0010
0001
0000
0000
0011
0000
0000
1001
0000
,
1000
0100
0010
0100
1000
0100
0010
0100
1000
0000
0000
1100
0000
0000
1001
0000
,
0001
0100
0010
0100
0001
0100
0010
0100
0001
0000
0000
0101
0000
0000
1001
0000
,
1000
0010
0100
0010
1000
0010
0100
0010
1000
0000
0000
1010
0000
0000
1001
0000
,
0001
0010
0100
0010
0001
0010
0100
0010
0001
0000
0000
0011
0000
0000
1001
0000
,
0001
0100
0001
0100
0010
1000
0010
1000
0001
0100
0001
0100
0010
1000
0010
1000
,
0001
0010
0100
1000
0010
0100
0001
1000
0100
0010
0001
0100
0010
1000
0001
0100
,
0010
0100
0010
0100
0001
1000
0001
1000
0100
0010
0100
0010
0001
1000
0001
1000
,
0001
0100
0010
1000
0100
0010
0001
1000
0010
0100
0001
0010
0100
1000
0001
0100
,
0010
1000
0010
1000
0001
0100
0001
0100
0010
1000
0010
1000
0001
0100
0001
0100
,
0001
0010
0100
1000
0010
0100
0001
0010
0100
1000
0010
0100
0001
0010
0100
1000
,
0001
0100
0001
0100
0001
0100
0001
0100
0001
0100
0001
0100
0010
1000
0010
1000
0010
1000
0010
1000
0010
1000
0010
1000
,
0001
0000
0000
0000
,
1010
0010
0100
0001
0100
0010
1000
0100
0010
0001
1000
0010
0100
0001
0010
0100
,
0010
0001
1000
0010
0100
0001
0010
0100
1000
0001
0100
0010
1000
0001
0100
0001
,
1000
0010
0100
0001
0010
0100
1000
0100
1000
0010
0100
0001
1000
0010
0100
0010
,
0100
0001
1000
0100
0010
0001
1000
0010
0100
0001
0010
0100
1000
0001
0100
0010
,
1000
0001
1000
0010
0100
0001
0010
0100
1000
0010
0100
0001
1000
0010
0100
0010
,
0100
0001
0010
0100
1000
0001
0100
0010
1000
0001
0010
0100
1000
0001
0100
0010
,
0100
0001
1000
0100
1000
0001
0100
0001
1000
0010
0100
0001
0100
0010
1000
0010
,
1000
0001
1000
0010
0100
0001
0010
0100
1000
0010
0100
0001
1000
0001
1000
0001
,
0100
0010
0100
0001
0010
0100
0010
0001
1000
0010
0100
0001
1000
0100
1000
0010
,
0100
0001
0010
0100
0010
0001
1000
0010
0100
0001
0010
0100
0010
0001
1000
0010
,
1000
0001
1000
0100
0010
0001
0010
0100
0010
0001
1000
0010
0100
0001
0100
0010
,
1000
0001
0010
0100
1000
0001
0100
0010
1000
0001
1000
0010
0100
0001
0100
0010
,
1000
0001
0100
0010
0100
0001
0100
0010
0100
0001
1000
0010
1000
0001
1000
0100
,
0010
0001
0010
0100
1000
0001
0100
0010
1000
0001
1000
0010
0100
0001
0010
0100
,
1000
0001
1000
0010
0100
0001
0010
0100
1000
0001
0100
0010
0100
0001
0010
0100
,
1000
0001
0100
0010
1000
0001
1000
0001
0100
0000
1001
0000
0101
0100
0010
0100
,
0001
0010
0100
1000
0001
0100
0010
1000
0001
1000
0100
1000
0010
0100
0001
0010
,
0100
0000
1000
0000
0010
0000
0100
0000
0001
0000
0010
0000
0100
0000
0010
0000
0001
0000
1000
0000
0010
0000
0100
0000
0001
0010
0001
0000
0100
0000
0010
0000
,
1000
0000
0001
0000
1000
0000
0010
0000
0100
0001
0100
0000
0010
0000
1000
0000
0001
0000
0010
0000
0100
0000
1000
0000
0010
0100
0010
0000
1000
0000
0100
0000
,
0010
0000
0001
0000
0100
0000
0010
0000
1000
0001
1000
0000
0001
0000
0100
0000
0010
0100
0010
0000
1000
0000
0001
0000
1000
0000
0010
0000
0100
0000
0010
0000
,
1000
0100
0010
0001
1000
0010
0100
0001
1000
0001
0010
0001
0100
0010
1000
0100
,
0010
0000
0001
0000
0100
0000
0010
0000
1000
0000
0100
0000
0010
0000
0100
0000
1000
0000
0001
0000
0100
0000
0010
0000
1000
0100
1000
0000
0010
0000
0100
0000
,
0001
0000
1000
0000
0001
0000
0100
0000
0010
1000
0010
0000
0100
0000
0001
0000
1000
0000
0100
0000
0010
0000
0001
0000
0100
0010
0100
0000
0001
0000
0010
0000
,
0100
1000
0100
0000
1000
0000
0010
0000
0100
0001
0100
0000
0010
1000
0010
0000
0200
0000
0000
0000
0000
0000
0000
0000
0300
0000
0000
0000
0000
0000
0000
0000
;

//---------------dance-single - ----------------
#NOTEDATA:;
#CHARTNAME:;
#STEPSTYPE:dance-single;
#DESCRIPTION:;
#CHARTSTYLE:;
#DIFFICULTY:Medium;
#METER:4;
#RADARVALUES:0.303766,0.386570,0.122122,0.783018,0.000000,296.000000,279.000000,17.000000,109.000000,0.000000,0.000000,0.000000,0.000000,0.000000,0.303766,0.386570,0.122122,0.783018,0.000000,296.000000,279.000000,17.000000,109.000000,0.000000,0.000000,0.000000,0.000000,0.000000;
#CREDIT:Ben Speirs;
#NOTES:
0000
0000
0000
0000
,
0000
0000
0000
0000
,
0000
0000
0000
0000
,
0000
0000
0000
0000
,
1000
0020
0230
0301
,
2000
3200
0320
0031
,
2000
0010
3002
0100
,
2003
0100
3100
0000
,
0001
0020
0230
1300
,
0020
0230
0302
1003
,
0002
0100
2003
0100
,
3002
0010
0013
0000
,
0001
0200
0320
1030
,
0200
2300
3020
0130
,
0002
0010
2003
0100
,
3002
0100
0103
0000
,
1001
2000
3020
0130
,
0002
0023
0230
0000
,
1300
0020
2030
3001
,
2000
3200
0320
0032
,
0103
0002
2003
3010
,
2000
3002
0203
0000
,
0310
0200
0302
1003
,
0200
0320
0032
2003
,
3010
0000
0200
0000
0302
0000
1003
0100
,
2000
3002
0000
0103
,
0010
0010
0010
0000
2000
0000
3200
0000
,
0320
0000
0032
0000
0103
0100
0100
0000
,
0001
0000
1000
0000
0020
0000
0130
0001
,
0100
0002
0000
0103
,
0001
0001
0001
0000
2000
0000
3200
0000
,
0320
0000
0032
0000
0103
0010
0100
0000
,
2001
3100
1000
0001
,
1002
0103
0001
1000
,
2001
3010
1002
0013
,
2001
0100
3100
0000
,
0102
0100
1000
1003
,
2100
0100
0001
3001
,
2000
3010
0002
0013
,
0002
2003
3020
0130
,
0001
0100
0001
0000
1000
0100
1000
0000
,
0200
0310
0020
0031
,
1000
0010
1000
0000
0001
0010
0001
0000
,
0200
0310
0020
1030
,
0001
0100
0001
0100
0002
0000
0003
0000
,
1000
0100
1000
0100
2000
0000
3000
0000
,
0010
0010
2000
3200
,
0320
0032
2003
3001
,
1100
0000
0001
0000
1000
0000
0010
1000
,
0010
0100
0001
1000
,
0200
0310
0020
0031
,
0002
1003
0010
0000
,
0101
0000
0100
0000
0010
0000
1000
0100
,
1000
0010
1000
0100
,
0020
0031
0002
0103
,
0200
0310
1000
0000
,
1001
0000
0001
0000
0100
0000
0010
1000
,
0100
1000
0001
0000
,
2000
3100
0020
0031
,
2000
3002
0203
0300
,
0101
0000
0100
0000
0010
0000
1000
0010
,
0100
0001
0010
0100
,
2000
3100
0020
0031
,
0200
0000
0310
0000
0100
0100
1001
0000
,
2000
0000
3002
0000
0103
0002
0000
0000
,
0023
0000
0000
0000
0130
0000
0010
0010
,
0010
0002
0023
0230
,
2300
0000
3001
1000
0001
0000
0000
0000
,
2000
0000
3020
0000
1030
0200
0000
0000
,
0310
0000
0001
0010
0001
0000
1000
1000
,
1000
1010
0011
0101
,
1100
0000
0001
1000
0200
0000
0300
0000
;

//---------------dance-single - ----------------
#NOTEDATA:;
#CHARTNAME:;
#STEPSTYPE:dance-single;
#DESCRIPTION:;
#CHARTSTYLE:;
#DIFFICULTY:Easy;
#METER:2;
#RADARVALUES:0.183696,0.231134,0.028735,0.021551,0.000000,179.000000,175.000000,4.000000,3.000000,0.000000,0.000000,0.000000,0.000000,0.000000,0.183696,0.231134,0.028735,0.021551,0.000000,179.000000,175.000000,4.000000,3.000000,0.000000,0.000000,0.000000,0.000000,0.000000;
#CREDIT:Ben Speirs;
#NOTES:
// measure 0
0000
0000
0000
0000
,  // measure 1
0000
0000
0000
0000
,  // measure 2
0000
0000
0000
0000
,  // measure 3
0000
0000
0000
0000
,  // measure 4
1000
0010
0010
0000
,  // measure 5
1000
0100
0010
0000
,  // measure 6
0001
0000
1000
0000
,  // measure 7
0020
0000
0030
0000
,  // measure 8
1000
0001
0001
0000
,  // measure 9
0100
0001
1000
0000
,  // measure 10
0100
0000
0100
0000
,  // measure 11
0020
0000
0030
0000
,  // measure 12
0001
0001
0100
0000
,  // measure 13
0001
1000
0010
0000
,  // measure 14
1000
0000
1000
0000
,  // measure 15
0200
0000
0300
0000
,  // measure 16
0000
1000
0001
0000
,  // measure 17
0100
0100
0100
0000
,  // measure 18
0000
0001
1000
0000
,  // measure 19
0010
0010
0100
0100
,  // measure 20
0000
0001
0001
0000
,  // measure 21
1000
0100
1000
0000
,  // measure 22
0000
1000
1000
0000
,  // measure 23
0001
0100
0001
0100
,  // measure 24
0000
0010
0010
0000
,  // measure 25
1000
0001
0000
0000
,  // measure 26
1000
1000
0100
0100
,  // measure 27
0010
0010
0001
0000
,  // measure 28
0000
1000
1000
0000
,  // measure 29
0001
0100
0000
0000
,  // measure 30
0001
0001
0010
0010
,  // measure 31
0100
0100
1000
0000
,  // measure 32
1001
0000
1000
0000
,  // measure 33
0010
0000
0010
0000
,  // measure 34
0100
0000
0100
0000
,  // measure 35
0001
0000
0001
0000
,  // measure 36
1000
1000
1000
0000
,  // measure 37
0100
0100
0100
0000
,  // measure 38
1000
0000
1000
0000
,  // measure 39
0001
0000
0001
0000
,  // measure 40
0100
0001
0100
0000
,  // measure 41
0001
0001
0001
0000
,  // measure 42
1000
0100
1000
0000
,  // measure 43
0100
0100
0100
0000
,  // measure 44
1000
0010
1000
0000
,  // measure 45
0001
0010
0001
0000
,  // measure 46
0100
0000
0100
0100
,  // measure 47
0100
0000
0000
0000
,  // measure 48
1001
0000
1000
0000
,  // measure 49
0010
0000
0010
0000
,  // measure 50
0100
0000
0100
0000
,  // measure 51
0001
0010
0100
1000
,  // measure 52
0010
0000
0010
0000
,  // measure 53
1000
0000
0001
0000
,  // measure 54
0010
0000
0001
0010
,  // measure 55
0100
1000
0001
0000
,  // measure 56
1001
0000
1000
1000
,  // measure 57
0010
0000
0010
0000
,  // measure 58
0100
0000
0001
0001
,  // measure 59
0010
0000
0001
1000
,  // measure 60
0100
0000
1000
0000
,  // measure 61
0010
0010
0100
0000
,  // measure 62
0010
0000
1000
1000
,  // measure 63
0100
0000
1001
0000
,  // measure 64
0100
0100
0000
0010
,  // measure 65
0010
0000
0000
1000
,  // measure 66
0000
0100
0000
0010
,  // measure 67
0001
0010
0001
0000
,  // measure 68
0100
0100
0000
0010
,  // measure 69
0010
0000
0100
0010
,  // measure 70
0010
1000
1000
0100
,  // measure 71
0010
0001
1000
0000
;

//---------------dance-single - ----------------
#NOTEDATA:;
#CHARTNAME:;
#STEPSTYPE:dance-single;
#DESCRIPTION:;
#CHARTSTYLE:;
#DIFFICULTY:Beginner;
#METER:1;
#RADARVALUES:0.106729,0.154089,0.014367,0.000000,0.000000,104.000000,102.000000,2.000000,0.000000,0.000000,0.000000,0.000000,0.000000,0.000000,0.106729,0.154089,0.014367,0.000000,0.000000,104.000000,102.000000,2.000000,0.000000,0.000000,0.000000,0.000000,0.000000,0.000000;
#CREDIT:Ben Speirs;
#NOTES:
// measure 0
0000
0000
0000
0000
,  // measure 1
0000
0000
0000
0000
,  // measure 2
0000
0000
0000
0000
,  // measure 3
0000
0000
0000
0000
,  // measure 4
0001
0000
0000
0000
,  // measure 5
1000
0000
0000
0000
,  // measure 6
0010
0000
0010
0000
,  // measure 7
0010
0000
0000
0000
,  // measure 8
1000
0000
0000
0000
,  // measure 9
0001
0000
0000
0000
,  // measure 10
0100
0000
0100
0000
,  // measure 11
0100
0000
0000
0000
,  // measure 12
0001
0000
0000
0000
,  // measure 13
1000
0000
0000
0000
,  // measure 14
0010
0000
0010
0000
,  // measure 15
0010
0000
0000
0000
,  // measure 16
0000
0100
0100
0000
,  // measure 17
0100
0000
0100
0000
,  // measure 18
0000
0001
0001
0000
,  // measure 19
0001
0000
0001
0000
,  // measure 20
0000
1000
1000
0000
,  // measure 21
1000
0000
1000
0000
,  // measure 22
0000
0010
0010
0000
,  // measure 23
0010
0000
0010
0000
,  // measure 24
0000
0000
0100
0000
,  // measure 25
0100
0000
0000
0000
,  // measure 26
0001
0000
0001
0000
,  // measure 27
0001
0000
0001
0000
,  // measure 28
0000
0000
1000
0000
,  // measure 29
1000
0000
0000
0000
,  // measure 30
0010
0000
0010
0000
,  // measure 31
0010
0000
0010
0000
,  // measure 32
1001
0000
0000
0000
,  // measure 33
1000
0000
0000
0000
,  // measure 34
1000
0000
1000
0000
,  // measure 35
1000
0000
0000
0000
,  // measure 36
0001
0000
0000
0000
,  // measure 37
0001
0000
0000
0000
,  // measure 38
0100
0000
0100
0000
,  // measure 39
0100
0000
0000
0000
,  // measure 40
0010
0010
0000
0000
,  // measure 41
0010
0010
0000
0000
,  // measure 42
0100
0100
0000
0000
,  // measure 43
0100
0100
0000
0000
,  // measure 44
0001
0000
0001
0000
,  // measure 45
0001
0000
0000
0000
,  // measure 46
1000
0000
1000
0000
,  // measure 47
1000
0000
0000
0000
,  // measure 48
1001
0000
0000
0000
,  // measure 49
1000
0000
0000
0000
,  // measure 50
0010
0000
0010
0000
,  // measure 51
0010
0000
0000
0000
,  // measure 52
1000
0000
0000
0000
,  // measure 53
0001
0000
0000
0000
,  // measure 54
0100
0000
0100
0000
,  // measure 55
0100
0000
0000
0000
,  // measure 56
0001
0001
0000
0000
,  // measure 57
0001
0001
0000
0000
,  // measure 58
1000
0000
1000
0000
,  // measure 59
1000
0000
0000
0000
,  // measure 60
0010
0010
0000
0000
,  // measure 61
0010
0010
0000
0000
,  // measure 62
0100
0000
0100
0000
,  // measure 63
0100
0000
0000
0000
,  // measure 64
0000
0000
0000
0010
,  // measure 65
0000
0000
0000
1000
,  // measure 66
0000
1000
0000
1000
,  // measure 67
0000
0000
0000
0001
,  // measure 68
0000
0000
0000
0001
,  // measure 69
0000
0000
0000
0100
,  // measure 70
0000
0100
0000
0100
,  // measure 71
0000
0100
0100
0000
;
