#TITLE:Cheerleader;
#SUBTITLE:(Felix Jaehn Mix);
#ARTIST:Omi;
#TITLETRANSLIT:;
#SUBTITLETRANSLIT:;
#ARTISTTRANSLIT:;
#GENRE:Saved By The Horns;
#CREDIT:;
#BANNER:Cheerleader (Felix Jaehn Mix).png;
#BACKGROUND:Cheerleader (Felix Jaehn Mix)-bg.png;
#LYRICSPATH:;
#CDTITLE:;
#MUSIC:Cheerleader (Felix Jaehn Mix).ogg;
#OFFSET:0.032000;
#SAMPLESTART:97.585945;
#SAMPLELENGTH:13.714000;
#SELECTABLE:YES;
#BPMS:0.000000=118.000000
;
#STOPS:
;
#BGCHANGES:2.000=Cheerleader (Felix Jaehn Mix).avi=1.000=0=0=1=====,
99999=-nosongbg-=1.000=0=0=0 // don't automatically add -songbackground-
;
#KEYSOUNDS:;
#ATTACKS:;

//---------------dance-single - ----------------
#NOTES:
     dance-single:
     :
     Hard:
     6:
     0.356654,0.438423,0.182676,0.296849,0.049475,265.000000,24.000000,39.000000,0.000000,0.000000,0.000000,0.356654,0.438423,0.182676,0.296849,0.049475,265.000000,24.000000,39.000000,0.000000,0.000000,0.000000:
0000
0000
0000
0000
,
0000
0000
0000
0000
,
0000
0000
0000
0000
,
0000
0000
0000
0000
,
0001
0000
1000
0000
0100
0100
0000
0000
,
1000
0010
0001
0000
1000
0000
0010
0000
,
0100
0000
0001
0000
0010
0010
0000
0000
,
0001
1000
0001
1000
0000
0000
0100
0000
,
1000
0000
0100
0010
0001
0000
1000
0000
,
0001
0000
0100
0010
1000
0000
0001
0010
,
1000
0000
0100
0000
0001
0000
1000
0010
,
0100
0001
1000
0100
,
0000
1100
0101
0000
,
0001
0100
0010
0000
1000
0000
0001
0000
,
1000
0000
0100
0010
0001
0000
1000
0000
,
1010
1001
0101
1001
,
0210
0000
0310
0000
0001
1000
0010
0100
,
0000
0100
0001
0000
2000
0000
3100
0000
,
0010
0000
0001
1000
0001
0000
0100
0000
,
0020
1000
0130
0000
,
2001
0000
3100
0000
1000
0001
0100
0010
,
0000
0010
1000
0000
0002
0000
0013
0000
,
0100
0000
1000
0001
1000
0000
0010
0000
,
0200
0001
0310
1000
,
0001
0000
0000
0000
0100
0000
0000
0000
0010
0000
0000
0000
1000
0100
0000
0000
,
0010
0000
0000
0000
0001
0000
0000
0000
1000
0000
0000
0000
0010
0100
0000
0000
,
0001
0000
0000
0000
1000
0000
0000
0000
0001
0000
0000
0000
0010
0100
0000
0000
,
1000
0000
0000
0000
0001
0000
0000
0000
1000
0000
0000
0000
0010
0100
0000
0000
,
0001
0000
0000
0000
1000
0000
0100
0000
0010
0000
0000
0000
0001
1000
0000
0000
,
0010
0000
0000
0000
0100
0000
0010
0000
1000
0000
0000
0000
0001
1000
0000
0000
,
0100
0000
0000
0000
0010
0000
0001
0000
0100
0000
0000
0000
0010
0100
0000
0000
,
0010
1000
0100
0000
0010
0001
1000
0000
,
0202
0000
0000
0303
,
2000
3000
0002
0003
,
2200
0000
0000
3300
,
0002
0003
2000
3000
,
0020
0230
0302
2003
,
3200
0320
0032
2003
,
0020
0000
0000
3030
,
0202
0303
2002
3003
,
0100
0000
1000
0100
0002
0000
1003
0000
,
0010
0000
0100
0000
0001
1000
0010
0000
,
0001
0000
0100
1000
0010
0000
0100
0000
,
0001
0000
1000
0100
0001
0000
1000
0000
,
0010
0000
0001
0100
1000
0000
0010
1000
,
0100
0000
1000
0100
0002
0000
1003
0000
,
0010
0100
0001
0000
0020
0000
0130
0000
,
1000
1100
0110
0011
,
2001
0000
3100
0000
1000
0001
0100
0010
,
0000
0010
1000
0000
0002
0000
0013
0000
,
0100
0000
1000
0001
1000
0000
0010
0000
,
0200
0001
0310
0000
,
1002
0000
0013
0000
0001
1000
0010
0100
,
0000
0100
0001
0000
2000
0000
3100
0000
,
0010
0000
0001
1000
0001
0000
0100
0000
,
0020
1000
0130
0001
,
1001
0000
0000
0000
0100
0000
0000
0000
0010
0000
0000
0000
1000
0100
0000
0000
,
1100
0000
0000
0000
0010
0000
1000
0000
0001
0000
0000
0000
0100
0001
0000
0000
,
0101
0000
0000
0000
1000
0000
0000
0000
0001
0000
0000
0000
0010
0100
0000
0000
,
0110
0000
0000
0000
0100
0000
1000
0000
0001
0000
0000
0000
1000
0010
0000
0000
,
1010
0000
0000
0000
0100
0000
0000
0000
0001
0000
0000
0000
1000
0100
0000
0000
,
1100
0000
0000
0000
0010
0000
0001
0000
1000
0000
0000
0000
0010
0100
0000
0000
,
0102
0000
0000
0000
,
2003
0000
3200
0000
,
0300
0000
0000
0000
;

//---------------dance-single - ----------------
#NOTES:
     dance-single:
     :
     Challenge:
     9:
     0.519757,0.803775,0.137007,0.159842,0.418633,439.000000,18.000000,21.000000,0.000000,0.000000,0.000000,0.519757,0.803775,0.137007,0.159842,0.418633,439.000000,18.000000,21.000000,0.000000,0.000000,0.000000:
// measure 0
0000
0000
0000
0000
,  // measure 1
0000
0000
0000
0000
,  // measure 2
0000
0000
0000
0000
,  // measure 3
0000
0000
0000
0000
,  // measure 4
0010
0000
1000
0000
0001
0000
0000
0100
0000
0000
0100
0000
0010
0000
0000
0000
,  // measure 5
1000
0000
0100
0000
0010
0000
0001
1000
0000
0000
0010
0000
0010
0000
1000
0000
,  // measure 6
0001
0000
1000
0000
0100
0000
0000
0010
0000
0000
0010
0000
0001
0000
0000
0000
,  // measure 7
1000
0000
0100
0000
0010
0000
0000
0001
0000
0000
1000
0000
0010
0000
0000
0000
,  // measure 8
0100
0001
1000
1000
0100
0100
0010
0001
,  // measure 9
1000
0010
0100
0100
0001
0001
1000
0100
,  // measure 10
0010
0001
1000
0010
0100
0100
0010
1000
,  // measure 11
0100
0010
0001
1000
0010
0010
1000
0001
,  // measure 12
0101
0000
0100
0010
1000
1000
0100
0000
,  // measure 13
0010
0000
0010
0000
0001
0000
1000
0000
0010
0000
0100
0000
0001
0000
1000
0010
,  // measure 14
0000
0100
0100
0010
1000
0100
0010
0001
,  // measure 15
0011
0000
0000
0000
1001
0000
0000
0000
0010
0100
0000
0100
0001
0000
1000
0000
,  // measure 16
1100
0000
0100
1000
0010
0100
0001
1000
,  // measure 17
1000
0000
0010
0000
0100
0000
0001
0000
0010
0000
0000
0010
0100
0000
1000
0000
,  // measure 18
0001
0000
1000
0010
1000
0001
0100
0010
,  // measure 19
0010
0100
0001
0010
0100
1000
0001
0000
,  // measure 20
0011
0000
0010
0001
0100
0010
1000
0001
,  // measure 21
0001
0000
0100
0000
0010
0000
1000
0000
0100
0000
0000
0100
0010
0000
0001
0000
,  // measure 22
1000
0000
0001
0100
0001
1000
0010
0100
,  // measure 23
0110
0000
0000
0000
1001
0000
0000
0000
0100
0010
0000
0010
1000
0000
0100
0000
,  // measure 24
0010
0000
0000
0010
0000
0000
0001
1000
0001
1000
0001
0000
0100
0010
0000
0000
,  // measure 25
1000
0000
0000
1000
0000
0000
0100
0010
0100
0010
0100
0000
0010
0001
0000
0000
,  // measure 26
1000
0000
0000
1000
0000
0000
0010
1000
0010
1000
0010
0000
1000
0001
0000
0000
,  // measure 27
0100
0000
0000
0100
0000
0000
0001
1000
0001
1000
0001
0000
0100
0010
0000
0000
,  // measure 28
1000
0000
0000
0100
0000
0000
0010
0001
0010
0001
0010
0000
0001
1000
0000
0000
,  // measure 29
0010
0000
0000
0100
0000
0000
0001
1000
0001
1000
0001
0000
0100
0010
0000
0000
,  // measure 30
1000
0000
0000
0100
0000
0000
1000
0001
1000
0001
1000
0000
0010
0100
0000
0000
,  // measure 31
0001
1000
0001
0000
0100
0000
0010
0000
1000
0100
0000
0000
0010
0001
0000
0000
,  // measure 32
2000
0000
0000
0000
,  // measure 33
3002
0000
0203
0000
,  // measure 34
0310
0000
0100
0000
0001
0010
0000
0100
0000
0000
2000
0000
0000
0000
0000
0000
,  // measure 35
3020
0000
0230
0000
,  // measure 36
0301
1000
0001
0100
0010
0100
0001
1000
0001
0010
0100
0010
,  // measure 37
0001
0010
0001
1000
0100
1000
0001
0100
0001
2000
0000
0000
,  // measure 38
3020
0000
0000
0030
,  // measure 39
0202
0303
2002
3003
,  // measure 40
0100
0000
0010
0000
1000
0100
0000
0020
0000
0000
0000
0000
0031
0000
0000
0000
,  // measure 41
1000
0000
0001
0000
0100
0010
0000
2000
0000
0000
0000
0000
3001
0000
0000
0000
,  // measure 42
1000
0100
0001
1000
0010
0001
1000
0010
,  // measure 43
0001
1000
0100
0001
2000
0000
3001
0000
,  // measure 44
0100
0010
0100
0001
0100
0010
0100
0001
1000
0100
1000
0001
1000
0100
1000
0001
,  // measure 45
0100
0010
0100
0001
0100
0010
0100
0001
1000
0100
1000
0001
1000
0100
1000
0001
,  // measure 46
0100
0000
0000
0010
0000
0000
1000
0000
0100
0000
0000
0010
0000
0000
0001
0000
,  // measure 47
1001
0000
0000
0000
0110
0000
0000
0000
0001
1000
0000
0010
0100
0000
0001
0000
,  // measure 48
0011
0000
0010
0001
0100
0010
1000
0001
,  // measure 49
0001
0000
0100
0000
0010
0000
1000
0000
0100
0000
0000
0100
0010
0000
0001
0000
,  // measure 50
1000
0000
0001
0100
0001
1000
0010
0100
,  // measure 51
0100
0010
1000
0100
0010
0001
1000
0000
,  // measure 52
1100
0000
0100
1000
0010
0100
0001
1000
,  // measure 53
1000
0000
0010
0000
0100
0000
0001
0000
0010
0000
0000
0010
0100
0000
1000
0000
,  // measure 54
0001
0000
1000
0010
1000
0001
0100
0010
,  // measure 55
0110
0000
0000
0000
1001
0000
0000
0000
0010
0100
0000
0100
0001
0000
0010
0000
,  // measure 56
0100
0000
0000
0100
0000
0000
1000
0001
1000
0001
1000
0000
0010
0100
0000
0000
,  // measure 57
0001
0000
0000
0001
0000
0000
0010
0100
0010
0100
0010
0000
0100
1000
0000
0000
,  // measure 58
0001
0000
0000
0001
0000
0000
0100
0001
0100
0001
0100
0000
0001
1000
0000
0000
,  // measure 59
0010
0000
0000
0010
0000
0000
1000
0001
1000
0001
1000
0000
0010
0100
0000
0000
,  // measure 60
0001
0000
0000
0010
0000
0000
0100
1000
0100
1000
0100
0000
1000
0001
0000
0000
,  // measure 61
0100
0000
0000
0010
0000
0000
1000
0001
1000
0001
1000
0000
0010
0100
0000
0000
,  // measure 62
0202
0000
0000
0303
,  // measure 63
2002
3003
2200
0000
,  // measure 64
3300
0000
0000
0000
;

//---------------dance-single - ----------------
#NOTES:
     dance-single:
     :
     Medium:
     4:
     0.227258,0.365352,0.159842,0.197899,0.000000,162.000000,21.000000,26.000000,0.000000,0.000000,0.000000,0.227258,0.365352,0.159842,0.197899,0.000000,162.000000,21.000000,26.000000,0.000000,0.000000,0.000000:
0000
0000
0000
0000
,
0000
0000
0000
0000
,
0000
0000
0000
0000
,
0000
0000
0000
0000
,
0100
0010
1000
0000
,
1001
0000
1001
0000
,
0100
0010
0001
0000
,
1001
0000
1001
0000
,
0010
1000
0100
0100
,
0010
0001
0100
0100
,
0010
0000
1000
0000
,
0001
1000
0001
0000
,
2000
0000
3100
0000
,
0002
0000
0103
0000
,
1000
0001
1000
0000
,
0110
1001
0110
1001
,
0200
0310
1000
0001
,
0020
0130
1000
1000
,
0001
1000
0010
0010
,
0100
0001
1000
0000
,
0020
0130
0001
1000
,
0200
0310
0001
0001
,
0010
0001
1000
0010
,
0100
0100
0010
0000
,
1001
0000
0000
0010
,
0010
1000
0100
0000
,
1001
0000
0000
0100
,
0100
0001
0010
0000
,
1001
0000
0000
0001
,
0001
1000
0100
0000
,
1001
0000
0000
1000
,
1000
0001
0100
0000
,
2002
0000
0000
3003
,
0020
0030
0200
0300
,
2002
0000
0000
3003
,
0200
0300
0020
0030
,
0002
0000
2003
0000
,
3020
0000
0230
0300
,
2002
0000
0000
3003
,
0200
0300
2000
3000
,
0001
0000
1000
0000
,
0010
0100
0010
0000
,
1000
0000
0001
0000
,
0010
0100
0010
0000
,
0001
0100
0001
0010
,
0001
1000
0001
0100
,
0001
0000
1000
0000
,
0100
0100
0010
0000
,
1001
0000
0010
1000
,
0001
0001
1000
0000
,
0100
0000
0010
0010
,
0001
1000
0001
0000
,
1001
0000
0100
0001
,
1000
1000
0001
0000
,
0010
0000
0100
0100
,
1000
0001
1000
0000
,
0011
0000
0000
0001
,
0001
0010
0100
0000
,
0110
0000
0000
0010
,
0010
0100
1000
0000
,
1100
0000
0000
0100
,
0100
1000
0001
0000
,
2002
0000
0000
3003
,
0020
0030
0200
0000
,
0300
0000
0000
0000
;

//---------------dance-single - ----------------
#NOTES:
     dance-single:
     :
     Easy:
     2:
     0.190288,0.267925,0.060892,0.411021,0.000000,113.000000,8.000000,54.000000,0.000000,0.000000,0.000000,0.190288,0.267925,0.060892,0.411021,0.000000,113.000000,8.000000,54.000000,0.000000,0.000000,0.000000:
0000
0000
0000
0000
,
0000
0000
0000
0000
,
0000
0000
0000
0000
,
0000
0000
0000
0000
,
0100
0000
0001
0000
,
2000
3000
2000
3000
,
0010
0000
1000
0000
,
0002
0003
0002
0003
,
0010
0000
0001
0000
,
0200
0300
0200
0300
,
0010
0000
1000
0000
,
0200
0300
0200
0300
,
2002
0000
3003
0000
,
0010
0010
0010
0000
,
0100
0000
0100
0000
,
0001
0000
0000
0000
,
2000
3000
0010
0000
,
0200
0300
0001
0000
,
0020
0030
0100
0000
,
1000
1000
1000
0000
,
0002
0003
0100
0000
,
0020
0030
1000
0000
,
0200
0300
0010
0000
,
0001
0001
0001
0000
,
2000
3000
0000
0000
,
0002
0003
0000
0000
,
0200
0300
0000
0000
,
0020
0030
0000
0000
,
2002
3003
0000
0000
,
0200
0300
0000
0000
,
0020
0030
0000
0000
,
2002
3003
0000
0000
,
0020
0000
0000
0030
,
0200
0300
0002
0003
,
2000
0000
0000
3000
,
0200
0300
0020
0030
,
2002
0000
0000
3003
,
0020
0030
0200
0300
,
0002
0000
0000
0003
,
0020
0030
0200
0300
,
1000
1000
1000
0000
,
0001
0001
0001
0000
,
0100
0100
0100
0000
,
0010
0010
0010
0000
,
1000
0000
0100
0000
,
0001
0000
0100
0000
,
1000
0000
0010
0000
,
0100
0100
0100
0000
,
0002
0003
1000
0000
,
0200
0300
0010
0000
,
0001
0000
1000
0000
,
0010
0010
0000
0000
,
0200
0300
0001
0000
,
2000
3000
0100
0000
,
0020
0030
0001
0000
,
1000
1000
0000
0000
,
2002
3003
0000
0000
,
0010
0010
0010
0000
,
2002
3003
0000
0000
,
0010
0010
0010
0000
,
2002
3003
0000
0000
,
0100
0100
0100
0000
,
2002
0000
0000
3003
,
0200
0300
0020
0000
,
0030
0000
0000
0000
;

//---------------dance-single - ----------------
#NOTES:
     dance-single:
     :
     Beginner:
     1:
     0.125046,0.169166,0.098950,0.000000,0.000000,102.000000,13.000000,0.000000,0.000000,0.000000,0.000000,0.125046,0.169166,0.098950,0.000000,0.000000,102.000000,13.000000,0.000000,0.000000,0.000000,0.000000:
0000
0000
0000
0000
,
0000
0000
0000
0000
,
0000
0000
0000
0000
,
0000
0000
0000
0000
,
0100
0000
0000
0000
,
0001
0000
0001
0000
,
1000
0000
0000
0000
,
1000
0000
1000
0000
,
0100
0000
0000
0000
,
0100
0000
0100
0000
,
0010
0000
0000
0000
,
0010
0000
0010
0000
,
0001
0000
1000
0000
,
0010
0000
0010
0000
,
0100
0000
0001
0000
,
1000
1000
1000
0000
,
1001
0000
0000
0000
,
0010
0010
0010
0000
,
0010
0000
0000
0000
,
0100
0100
0100
0000
,
0110
0000
0000
0000
,
1000
1000
1000
0000
,
1000
0000
0000
0000
,
0001
0001
0001
0000
,
1001
0000
0000
0000
,
0100
0100
0000
0000
,
1001
0000
0000
0000
,
0010
0010
0000
0000
,
1001
0000
0000
0000
,
1000
1000
0000
0000
,
1001
0000
0000
0000
,
0001
0001
0000
0000
,
0110
0000
0000
0000
,
1000
0000
0001
0000
,
0100
0000
0000
0000
,
0001
0000
1000
0000
,
0100
0000
0000
0000
,
0010
0000
0010
0000
,
0001
0000
0000
0000
,
0001
0000
0001
0000
,
1000
0000
0000
0000
,
0100
0100
0100
0000
,
1000
0000
0000
0000
,
0010
0010
0010
0000
,
0100
0000
0000
0000
,
0001
0001
0001
0000
,
0010
0000
0000
0000
,
0100
0100
0100
0100
,
0100
0000
0000
0000
,
1000
0000
0001
0000
,
0100
0000
0000
0000
,
0010
0000
0010
0000
,
1000
0000
0000
0000
,
0001
0000
0001
0000
,
1000
0000
0000
0000
,
0100
0000
0100
0000
,
0110
0000
0000
0000
,
0001
0001
0000
0000
,
0110
0000
0000
0000
,
1000
1000
0000
0000
,
1001
0000
0000
0000
,
0010
0010
0000
0000
,
1001
0000
0000
0000
,
0110
0000
0110
0000
;

//---------------dance-double - ----------------
#NOTES:
     dance-double:
     :
     Challenge:
     9:
     0.507796,0.803775,0.159842,0.281626,0.338712,409.000000,21.000000,37.000000,0.000000,0.000000,0.000000,0.507796,0.803775,0.159842,0.281626,0.338712,409.000000,21.000000,37.000000,0.000000,0.000000,0.000000:
00000000
00000000
00000000
00000000
,
00000000
00000000
00000000
00000000
,
00000000
00000000
00000000
00000000
,
00000000
00000000
00000000
00000000
,
10000000
00000000
01000000
00000000
10000000
00000000
00000000
00010000
00000000
10000000
01000000
00000000
10000000
00000000
00000000
00000000
,
00010000
01000000
00100000
10000000
01000000
00100000
00010000
00100000
,
00001000
00000000
00010000
00000000
00001000
00000000
00000000
00010000
00000000
00001000
00010000
00000000
00001000
00000000
00000000
00000000
,
00010000
00001000
00000100
00000001
00001000
00000100
00000010
00000000
,
00000001
00000010
00000001
00000010
00000001
00000001
00001000
00000100
,
00000010
00000010
00000001
00000001
00001000
00001000
00000100
00010000
,
00001000
00010000
00000100
00010000
00000010
00001000
00000001
00000010
,
00000100
00001000
00000100
00100000
00001000
00100000
00010000
10000000
,
10100000
00000000
10000000
00100000
01000000
00010000
10000000
00000000
,
00010000
00000000
00100000
00000000
01000000
00000000
10000000
00000000
00100000
00000000
00100000
00000000
01000000
00000000
01000000
00020000
,
00000000
10030000
01000000
10000000
00010000
00100000
01000000
10000000
,
11000000
00000000
00000000
00000000
01010000
00000000
00000000
00000000
00001000
00010000
00000000
00010000
00000100
00000000
00001000
00000000
,
00001100
00000000
00000101
00000000
00001000
00000100
00000010
00000002
,
00000000
00000000
00000103
00000000
00000010
00000000
00001000
00000000
00000001
00000000
00000000
00001000
00000000
00000000
00000010
00000000
,
00000100
00000000
00000001
00000010
00000100
00001000
00000100
00020000
,
00000000
00031000
00010000
00100000
10000000
01000000
00100000
00000000
,
10010000
00000000
11000000
00000000
00010000
01000000
00100000
20000000
,
00000000
00000000
30100000
00000000
10000000
00000000
00010000
00000000
00100000
00000000
00000000
00010000
00000000
00000000
10000000
00000000
,
01000000
00000000
10000000
00100000
01000000
00010000
00100000
00001000
,
00010000
00000000
00001000
00000000
00000100
00000000
00000001
00000000
00001000
00000100
00000000
00000100
00000010
00000000
00000001
00000000
,
00001001
00000000
00000000
00001000
00000000
00000000
00000001
00000100
00000001
00000000
00001000
00000000
00000010
00000000
00000000
00000000
,
00001000
00000000
00000000
00000100
00000000
00000000
00020000
00000000
00000000
00000000
00031000
00000000
00010000
00100000
00000000
00000000
,
10000000
00000000
00000000
01000000
00000000
00000000
10000000
00010000
10000000
00000000
00100000
00000000
01000000
00000000
00000000
00000000
,
00010000
00000000
00000000
10000000
00000000
00000000
02000000
00000000
00000000
00000000
03100000
00000000
00010000
00100000
00000000
00000000
,
00001000
00000000
00000000
00010000
00000000
00000000
00000100
00010000
00000100
00000000
00001000
00000000
00000010
00000100
00000000
00000000
,
00000001
00000000
00000000
00001000
00000000
00000000
00000100
00000000
00000010
00000000
00000001
00000000
00001000
00000020
00000000
00000000
,
00000130
00000000
00000000
00000001
00000000
00000000
00001000
00000100
00001000
00000000
00000001
00000000
00000100
00000010
00000000
00001000
,
00000000
00000000
00000100
00000000
00010000
00000000
00001000
00000000
00100000
00010000
00000000
00000000
10000000
00100000
00000000
01000000
,
00020000
00000000
00000000
00030000
,
22000000
33000000
00220000
00330000
,
20000000
00000000
00000000
30000000
,
02020000
03030000
20200000
30300000
,
00010000
01000000
00010000
10000000
00100000
10000000
00010000
00100000
00010000
10000000
01000000
10000000
,
00010000
00100000
00010000
00100000
00001000
00100000
00001000
00010000
00000100
00002000
00000000
00000000
,
00003002
00000000
00000000
00000003
,
00000202
00000303
00002020
00003030
,
00001000
00000000
00000001
00000000
00001000
00000020
00000000
00000230
00000000
00000000
00000000
00000000
00000301
00000000
00000000
00000000
,
00001000
00000000
00000100
00000000
00000010
00000001
00000000
00002000
00000000
00000000
00000000
00000000
00003100
00000000
00000000
00000000
,
00010000
00000100
00010000
00010000
00001000
00001000
00100000
00010000
,
10000000
10000000
00100000
01000000
00010000
10000000
01000000
00000000
,
10000000
00010000
10000000
00010000
01000000
00010000
10000000
00010000
10000000
00010000
10000000
00010000
01000000
00010000
10000000
00010000
,
10000000
00010000
10000000
00010000
01000000
00010000
10000000
00010000
10000000
00010000
10000000
00010000
01000000
00010000
10000000
00010000
,
10000000
00000000
00000000
01000000
00000000
00000000
00010000
00000000
00001000
00000000
00000000
00000100
00000000
00000000
00000001
00000000
,
00001000
00000000
00000100
00000000
00010000
00000000
00001000
00000000
00100000
00010000
00000000
00010000
10000000
00000000
00010000
00000000
,
00110000
00000000
10100000
00000000
00010000
00100000
01000000
20000000
,
00000000
00000000
30100000
00000000
01000000
00000000
00010000
00000000
10000000
00000000
00000000
00010000
00000000
00000000
01000000
00000000
,
00100000
00000000
10000000
01000000
00100000
00010000
00100000
00002000
,
00000000
00013000
00001000
00000100
00000001
00000010
00000100
00000000
,
00001001
00000000
00000011
00000000
00001000
00000010
00000100
00000002
,
00000000
00000000
00000103
00000000
00000001
00000000
00001000
00000000
00000100
00000000
00000000
00001000
00000000
00000000
00000001
00000000
,
00000010
00000000
00000001
00000100
00000010
00001000
00000100
00010000
,
00001000
00000000
00010000
00000000
00100000
00000000
10000000
00000000
00010000
00100000
00000000
00100000
01000000
00000000
10000000
00000000
,
10010000
00000000
00000000
00010000
00000000
00000000
10000000
00100000
10000000
00000000
00010000
00000000
01000000
00000000
00000000
00000000
,
00010000
00000000
00010000
00100000
00000000
00100000
00002000
00000000
00000000
00000000
00013000
00000000
00001000
00000100
00000000
00000000
,
00000001
00000000
00000000
00000010
00000000
00000000
00000001
00001000
00000001
00000000
00000100
00000000
00000010
00000000
00000000
00000000
,
00001000
00000000
00001000
00000001
00000000
00000001
00000020
00000000
00000000
00000000
00000130
00000000
00001000
00000100
00000000
00000000
,
00010000
00000000
00000000
00001000
00000000
00000000
00100000
00001000
00100000
00000000
00010000
00000000
01000000
00100000
00000000
00000000
,
10000000
00000000
10000000
00010000
00000000
00010000
00100000
00000000
01000000
00000000
10000000
00000000
00010000
02000000
00000000
00000000
,
03200000
00000000
00000000
00300000
,
20200000
30300000
02020000
00000000
,
03030000
00000000
00000000
00000000
;
