#VERSION:0.82;
#TITLE:Chained Up;
#SUBTITLE:;
#ARTIST:VIXX;
#TITLETRANSLIT:;
#SUBTITLETRANSLIT:;
#ARTISTTRANSLIT:;
#GENRE:BDSM-Pop;
#ORIGIN:;
#CREDIT:;
#BANNER:Chained Up.png;
#BACKGROUND:Chained Up-bg.png;
#PREVIEWVID:;
#JACKET:jacket.png;
#CDIMAGE:;
#DISCIMAGE:;
#LYRICSPATH:;
#CDTITLE:;
#MUSIC:Chained Up.ogg;
#OFFSET:-1.323000;
#SAMPLESTART:94.271248;
#SAMPLELENGTH:13.714000;
#SELECTABLE:YES;
#BPMS:0.000=92.000;
#STOPS:;
#DELAYS:;
#WARPS:;
#TIMESIGNATURES:0.000=4=4;
#TICKCOUNTS:0.000=4;
#COMBOS:0.000=1;
#SPEEDS:0.000=1.000=0.000=0;
#SCROLLS:0.000=1.000;
#FAKES:;
#LABELS:0.000=Song Start;
#BGCHANGES:4.000=Chained Up.avi=1.000=0=0=1=====,
99999=-nosongbg-=1.000=0=0=0 // don't automatically add -songbackground-
;
#KEYSOUNDS:;
#ATTACKS:
;

//---------------dance-single - ----------------
#NOTEDATA:;
#CHARTNAME:;
#STEPSTYPE:dance-single;
#DESCRIPTION:;
#CHARTSTYLE:;
#DIFFICULTY:Hard;
#METER:9;
#RADARVALUES:0.616164,0.576325,0.360081,0.180041,0.681023,482.000000,46.000000,23.000000,0.000000,0.000000,0.000000,0.000000,0.000000,0.616164,0.576325,0.360081,0.180041,0.681023,482.000000,46.000000,23.000000,0.000000,0.000000,0.000000,0.000000,0.000000;
#CREDIT:Ben Speirs;
#NOTES:
// measure 0
0000
0000
0000
0000
,  // measure 1
0000
0000
0000
0000
,  // measure 2
1100
0000
0002
0000
0003
0000
2000
0000
3000
0000
0020
0000
0130
0001
0000
0001
,  // measure 3
0100
0020
0030
2000
3000
0002
0103
0000
,  // measure 4
0101
0000
1000
0001
1000
0000
0100
0000
1000
0000
0001
0000
0010
0100
0010
0000
,  // measure 5
0001
0000
1000
0100
1000
0000
0001
0200
0000
0000
0310
0000
1000
0000
1001
0000
,  // measure 6
1000
0000
0001
1000
0001
0000
0010
0000
0001
0000
1000
0000
0100
0010
0100
0000
,  // measure 7
1000
0000
0001
0010
0001
0000
1000
0020
0000
0000
0130
0001
0100
0001
1000
0000
,  // measure 8
1001
0001
0000
0100
0000
0010
0000
1000
0000
0001
0000
0000
1000
0100
0010
0001
,  // measure 9
0000
1000
0000
0001
0000
0100
0020
0000
0000
0000
0100
0000
1030
0000
0001
0100
,  // measure 10
0001
0000
1000
0100
0000
1000
0000
0001
0100
0000
0001
0000
1000
0100
0010
0000
,  // measure 11
0001
0000
1000
0010
1000
0000
0001
0010
0001
0000
1000
0000
0101
0000
0010
0000
,  // measure 12
1100
0000
0000
0000
0001
1000
0001
1000
0001
0000
0000
0000
0100
0000
0000
0000
0001
0000
0010
0000
0010
0000
0000
0000
0001
0000
0100
0000
1000
0000
0100
0000
,  // measure 13
0001
0000
1000
0100
1100
0000
0101
0000
0001
0010
1000
0010
0001
0000
1001
0000
,  // measure 14
0011
0000
0000
0000
1000
0001
1000
0001
1000
0000
0000
0000
0010
0000
0000
0000
1000
0000
0100
0000
0100
0000
0000
0000
1000
0000
0010
0000
0001
0000
0010
0000
,  // measure 15
1000
1000
0100
0100
0010
0010
0001
1000
0010
0000
0000
0000
0000
0000
0000
0000
,  // measure 16
1001
0000
1000
0100
0010
0000
0001
0000
0011
0000
0001
1000
0010
0100
0001
2000
,  // measure 17
0000
0000
3100
0010
0002
0000
0000
1003
1000
0000
0010
0000
1000
0001
0100
0000
,  // measure 18
0101
0000
0100
0001
2000
0000
0000
3100
0100
0000
1000
0100
1000
0100
0010
0001
,  // measure 19
0011
0000
1100
0000
0001
0000
0101
0000
1010
0000
0001
1000
0010
0100
0001
0000
,  // measure 20
1001
0000
0001
0010
0100
0000
1000
0000
1100
0000
1000
0001
0100
0010
1000
0002
,  // measure 21
0000
0000
0013
0100
2000
0000
0000
3001
0001
0000
0100
0000
0001
1000
0010
0000
,  // measure 22
1010
0000
0010
1000
0002
0000
0000
0013
0010
0000
0001
0010
0001
0010
0100
1000
,  // measure 23
1100
0011
1000
1010
0101
0000
0000
0000
,  // measure 24
1000
0000
0100
0010
0000
0000
0010
0001
0000
0000
0001
1000
0001
0000
1000
0000
,  // measure 25
0010
0000
0100
0001
0100
0000
0001
1000
0100
0000
0100
0000
1000
0001
1000
0001
,  // measure 26
0010
0000
0100
1000
0010
0000
1000
0010
1000
0000
0001
0010
0001
0010
0001
0000
,  // measure 27
1000
0000
0010
0100
0010
1000
0100
0010
0001
0000
1000
0000
0010
0100
0010
0100
,  // measure 28
0001
1000
0000
0010
0000
0100
0000
0001
0000
1000
0000
0000
0001
0010
0100
1000
,  // measure 29
0000
0001
0000
1000
0000
0010
0200
0000
0000
0000
0010
0000
0301
0000
1000
0010
,  // measure 30
1000
0000
0001
0010
0000
0001
0000
1000
0010
0000
1000
0000
0001
0010
0100
0000
,  // measure 31
1000
0000
0001
0100
0001
0000
1000
0100
1000
0000
0001
0000
1010
0000
0100
0000
,  // measure 32
0011
0000
0000
0000
1000
0001
1000
0001
1000
0000
0000
0000
0010
0000
0000
0000
1000
0000
0100
0000
0100
0000
0000
0000
1000
0000
0010
0000
0001
0000
0010
0000
,  // measure 33
1000
0000
0001
0010
0011
0000
1010
0000
1000
0100
0001
0100
1000
0000
1001
0000
,  // measure 34
1100
0000
0000
0000
0001
1000
0001
1000
0001
0000
0000
0000
0100
0000
0000
0000
0001
0000
0010
0000
0010
0000
0000
0000
0001
0000
0100
0000
1000
0000
0100
0000
,  // measure 35
0001
0001
0010
0010
0100
0100
1000
0001
0100
0000
0000
0000
0000
0000
0000
0000
,  // measure 36
0102
0000
0000
0000
1003
0100
1000
0100
2100
0000
0000
0000
3001
0100
0010
1000
,  // measure 37
0100
0010
0001
1000
0010
0100
0001
1000
0010
0000
0000
0000
1000
0100
1000
0001
,  // measure 38
0100
0010
1000
0100
0010
0001
1000
0010
0100
0000
0000
0000
0001
1000
0001
0000
,  // measure 39
0101
0000
1100
0000
0001
0000
1100
0000
0101
0000
1000
0001
1000
0001
1000
0000
,  // measure 40
2010
0000
0000
0000
3001
0010
0001
0010
0012
0000
0000
0000
1003
0010
0100
0001
,  // measure 41
0010
0100
1000
0001
0100
0010
1000
0001
0100
0000
0000
0000
0001
0010
0001
1000
,  // measure 42
0010
0100
0001
0010
0100
1000
0001
0100
0010
0000
0000
0000
1000
0001
1000
0000
,  // measure 43
1010
0000
0011
0000
1000
0000
0011
0000
1010
0000
0001
1000
0001
1000
0001
0000
,  // measure 44
0100
0010
0100
0010
2000
0000
3200
0000
0302
0000
0000
0000
0103
1000
0100
1000
,  // measure 45
0010
0000
0100
0001
0100
0000
0001
1000
0001
0000
1000
0100
0010
0001
1000
0100
,  // measure 46
1000
0000
0001
0100
0001
0000
1000
0001
1000
0000
0010
0100
0100
0010
0010
0100
,  // measure 47
0101
1010
0000
1100
0011
0000
0000
0000
;

//---------------dance-single - ----------------
#NOTEDATA:;
#CHARTNAME:;
#STEPSTYPE:dance-single;
#DESCRIPTION:;
#CHARTSTYLE:;
#DIFFICULTY:Medium;
#METER:6;
#RADARVALUES:0.385801,0.427596,0.367909,0.039139,0.050881,293.000000,47.000000,5.000000,0.000000,0.000000,0.000000,0.000000,0.000000,0.385801,0.427596,0.367909,0.039139,0.050881,293.000000,47.000000,5.000000,0.000000,0.000000,0.000000,0.000000,0.000000;
#CREDIT:Ben Speirs;
#NOTES:
0000
0000
0000
0000
,
0000
0000
0000
0000
,
0100
0100
0000
0001
0000
1000
0000
0100
,
0010
0010
0000
0001
0000
1000
0000
0000
,
0010
0100
0001
0010
0100
1000
0010
0100
,
0001
1000
0100
0010
0002
2000
0000
3003
,
1000
0010
0100
0001
0010
0100
0010
0001
,
1000
0010
0100
0001
2000
0000
3000
0000
,
0001
0001
1000
1000
0010
0000
1000
1000
,
0001
0001
0100
0200
0000
0000
0310
0000
,
0100
0001
1000
0100
0010
0001
1000
0000
,
0001
0010
0100
0000
1000
0010
0100
0000
,
1001
0000
1000
0100
0000
1000
0001
0000
,
1001
0000
0001
0100
0000
0001
1000
0000
,
1001
1000
0010
0010
1000
0001
1000
0001
,
0010
0100
0010
0100
1000
0001
1000
0001
0100
0000
0000
0000
0000
0000
0000
0000
,
1001
0000
1100
0101
1001
0000
0001
0100
,
0010
1000
0100
0010
0001
0000
1000
0010
,
0100
0001
0010
0100
1000
0000
0001
0100
,
0101
0101
0000
1100
1100
0000
0001
1000
,
1001
0000
1010
0110
0101
0000
0100
0001
,
0010
0100
1000
0001
0100
0000
0001
0010
,
0100
1000
0010
0100
0001
0000
1000
0010
,
1010
1010
0000
0011
0011
0000
0000
0000
,
1000
0000
0001
0000
1000
0000
0001
0100
,
0010
0000
1000
0000
0001
0000
1000
0100
,
0010
0000
0000
0000
0001
0000
0000
0000
1000
0000
0000
0000
0010
0100
0000
0000
,
0001
0000
0000
0000
1000
0000
0001
0000
0100
0000
0001
0000
0100
0010
0100
0010
,
1000
1000
0001
0001
0100
0000
0001
0001
,
1000
1000
0010
0020
0000
0000
0130
0000
,
0010
1000
0001
0010
0100
1000
0001
0000
,
1000
0100
0010
0000
0001
0100
0010
0000
,
1001
0000
0001
0010
0000
0001
1000
0000
,
1001
0000
1000
0010
0000
1000
0001
0000
,
1001
0001
0100
0100
0001
1000
0001
1000
,
0100
0010
0100
0010
0001
1000
0001
1000
0010
0000
0000
0000
0000
0000
0000
0000
,
1001
0000
0011
1010
1001
0000
1000
0010
,
0100
0001
0010
0100
1000
0000
0001
0100
,
0010
1000
0100
0010
0001
0000
1000
0010
,
1010
1010
0000
0011
0011
0000
1000
0001
,
1001
0000
0101
0110
1010
0000
0010
1000
,
0100
0010
0001
1000
0010
0000
1000
0100
,
0010
0001
0100
0010
1000
0000
0001
0100
,
0101
0101
0000
1100
1100
0000
0001
1000
,
0110
0110
1001
1100
0101
0000
1000
0001
,
0100
0000
0010
0000
1000
0000
0100
0010
0100
0000
0000
0000
0010
0000
0001
0000
,
1000
0000
0010
0000
0100
0000
0001
1000
0001
0000
0000
0000
0100
0000
0001
0000
,
0101
1010
0000
1100
0011
0000
0000
0000
;

//---------------dance-single - ----------------
#NOTEDATA:;
#CHARTNAME:;
#STEPSTYPE:dance-single;
#DESCRIPTION:;
#CHARTSTYLE:;
#DIFFICULTY:Easy;
#METER:4;
#RADARVALUES:0.223653,0.260276,0.070451,0.000000,0.000000,191.000000,9.000000,0.000000,0.000000,0.000000,0.000000,0.000000,0.000000,0.223653,0.260276,0.070451,0.000000,0.000000,191.000000,9.000000,0.000000,0.000000,0.000000,0.000000,0.000000,0.000000;
#CREDIT:Ben Speirs;
#NOTES:
0000
0000
0000
0000
,
0000
0000
0000
0000
,
1000
0000
0001
0000
0100
0000
0010
0010
,
0010
1000
0001
0000
,
1001
1000
0001
0100
,
0010
0000
1000
1000
1000
0000
0100
0000
,
1000
0001
0010
0100
,
1000
0000
0001
0001
0001
0000
0000
0000
,
1001
0000
0100
0000
1000
0000
0010
0100
,
0010
1000
0001
0000
,
0010
0001
1000
0001
,
0100
0010
0100
0000
0001
0000
0000
0000
,
1000
1000
0100
0100
,
0010
0010
0001
0001
,
1000
0100
0010
0001
,
1000
1000
0001
0001
0100
0000
0000
0000
,
1001
0000
0100
0100
0100
0000
1000
0000
,
0010
0100
0001
1000
,
0001
0010
0100
1000
,
0010
0010
0000
0010
0010
0000
1000
0000
,
1001
0000
0100
0100
0100
0000
0010
0000
,
0001
1000
0010
0100
,
0001
1000
0100
0010
,
0001
0001
0000
1000
1000
0000
0000
0000
,
0010
0000
0100
0000
,
0001
0000
1000
0000
,
0100
1000
0001
0100
,
0010
0000
1000
0000
0001
0000
0110
0110
,
1001
0000
0010
0000
0001
0000
0100
0010
,
0100
0001
1000
0000
,
0100
1000
0001
1000
,
0010
0100
0010
0000
1000
0000
0000
0000
,
0001
0001
0010
0010
,
0100
0100
1000
1000
,
0001
0010
0100
1000
,
0001
0001
1000
1000
0010
0000
0000
0000
,
1001
0000
0010
0010
0010
0000
0001
0000
,
0100
0010
1000
0001
,
1000
0100
0010
0001
,
0100
0100
0000
0100
0100
0000
0001
0000
,
1001
0000
0010
0010
0010
0000
0100
0000
,
1000
0001
0100
0010
,
1000
0001
0010
0100
,
1000
1000
0000
0001
0001
0000
0000
0000
,
0010
0010
0010
1000
0001
0000
0000
0000
,
1000
0100
0010
0001
,
1000
0001
0100
0010
,
1000
1000
0000
0001
0001
0000
0000
0000
;

//---------------dance-single - ----------------
#NOTEDATA:;
#CHARTNAME:;
#STEPSTYPE:dance-single;
#DESCRIPTION:;
#CHARTSTYLE:;
#DIFFICULTY:Beginner;
#METER:2;
#RADARVALUES:0.131955,0.148729,0.109590,0.000000,0.000000,104.000000,14.000000,0.000000,0.000000,0.000000,0.000000,0.000000,0.000000,0.131955,0.148729,0.109590,0.000000,0.000000,104.000000,14.000000,0.000000,0.000000,0.000000,0.000000,0.000000,0.000000;
#CREDIT:Ben Speirs;
#NOTES:
0000
0000
0000
0000
,
0000
0000
0000
0000
,
0100
0000
0000
0010
,
0010
0000
0000
0000
,
1000
0000
0001
0000
,
0010
0010
0010
0000
,
0001
0000
1000
0000
,
0100
0100
0100
0000
,
1000
0000
0010
0000
,
0100
0000
0001
0000
,
1000
0000
0100
0000
,
0010
0000
0001
0000
,
1001
0000
0100
0100
,
0100
0000
0010
0000
,
1001
0000
0010
0010
,
0010
0000
0100
0000
,
1001
0000
1001
0000
,
1000
1000
1000
0000
,
0001
0001
0001
0000
,
0100
0000
0100
0000
,
1001
0000
1001
0000
,
0001
0001
0001
0000
,
1000
1000
1000
0000
,
0010
0000
0010
0000
,
0100
0000
0000
0000
,
0001
0000
0000
0000
,
1000
0000
0000
0010
,
0010
0000
1000
0000
,
0001
0000
0100
0000
,
0010
0000
1000
0000
,
0001
0000
0010
0000
,
0100
0000
1000
0000
,
1001
0000
0010
0010
,
0010
0000
0100
0000
,
1001
0000
0100
0100
,
0100
0000
0010
0000
,
1001
0000
1001
0000
,
0001
0001
0001
0000
,
1000
1000
1000
0000
,
0010
0000
0010
0000
,
1001
0000
1001
0000
,
1000
1000
1000
0000
,
0001
0001
0001
0000
,
0100
0000
0100
0000
,
0010
0010
0010
0000
,
1000
0000
0001
0000
,
0100
0000
0010
0000
,
1001
0000
1001
0000
;

//---------------dance-double - ----------------
#NOTEDATA:;
#CHARTNAME:;
#STEPSTYPE:dance-double;
#DESCRIPTION:;
#CHARTSTYLE:;
#DIFFICULTY:Challenge;
#METER:9;
#RADARVALUES:0.610572,0.613508,0.344425,0.266147,0.708420,468.000000,44.000000,34.000000,0.000000,0.000000,0.000000,0.000000,0.000000,0.610572,0.613508,0.344425,0.266147,0.708420,468.000000,44.000000,34.000000,0.000000,0.000000,0.000000,0.000000,0.000000;
#CREDIT:Ben Speirs;
#NOTES:
00000000
00000000
00000000
00000000
,
00000000
00000000
00000000
00000000
,
00011000
00000000
00010000
00000000
00000000
00000000
01000000
00000000
00000000
00000000
10000000
00000000
00100000
01000000
00100000
01000000
,
00010000
10000000
00000000
00010000
00000000
01000000
10010000
00000000
,
10000000
00000000
00100000
01000000
00100000
01000000
00100000
00000000
10000000
00000000
01000000
00000000
10000000
00000000
00010000
00000000
,
01000000
00000000
00001000
00000000
00010000
00001000
00010000
00002000
00000000
00000000
00003100
00000000
00000001
00000010
00000100
00000000
,
00001001
00000000
00000100
00000010
00000100
00000010
00000100
00000000
00000001
00000000
00000010
00000000
00000001
00000000
00001000
00000000
,
00000010
00000000
00010000
00000000
00001000
00010000
00001000
00020000
00000000
00000000
00130000
00100000
10000000
01000000
00100000
00000000
,
01000000
10000000
00000000
00010000
00000000
01000000
00000000
00100000
00000000
10000000
00000000
00000000
01000000
00100000
00010000
10000000
,
00000000
00100000
00000000
01000000
00000000
00001000
00020000
00000000
00000000
00000000
01000000
00000000
00031000
00000000
00010000
00001000
,
00000100
00000000
00000001
00000100
00000000
00000001
00000000
00000020
00000000
00000000
00000130
00000100
00001000
00000001
00000000
00000001
,
00000100
00000000
00000010
00001000
00000001
00000000
00001000
00000100
00000000
00000010
00000000
00000001
00000000
00001000
00000000
00000010
,
00000100
00000000
00000000
00000000
00000001
00001000
00000001
00001000
00000001
00000000
00000000
00000000
00001000
00000000
00000000
00000000
00000100
00000000
00010000
00000000
00001000
00000000
00010000
00000000
00000100
00000000
00010000
00000000
00001000
00000000
00100000
00000000
,
00020000
00000000
00000000
10030000
00100000
01000000
00010000
00000000
10000000
01000000
10000000
00000000
10010000
00000000
00000000
00000000
,
00100000
00000000
00000000
00000000
10000000
00010000
10000000
00010000
10000000
00000000
00000000
00000000
00010000
00000000
00000000
00000000
00100000
00000000
00001000
00000000
00010000
00000000
00001000
00000000
00100000
00000000
00001000
00000000
00010000
00000000
00000100
00000000
,
00001000
00001000
00000100
00000100
00000010
00000010
00000001
00001000
00000010
00000000
00000000
00000000
00000000
00000000
00000000
00000000
,
00002002
00000000
00003003
00000000
00011000
00000000
00011000
00000000
20020000
00000000
30030000
00000000
10000000
01000000
00100000
00010000
,
10000000
00000000
00100000
01000000
00020000
00000000
00000000
10000000
10030000
00000000
00000000
00000000
00010000
00100000
01000000
10000000
,
00010000
00000000
01000000
00100000
20000000
00000000
00000000
00010000
30010000
00000000
10000000
01000000
00100000
00010000
01000000
00100000
,
10100000
00000000
01010000
00000000
10000000
00000000
11000000
00000000
00110000
00000000
10000000
00010000
10000000
00010000
10000000
00000000
,
20020000
00000000
30030000
00000000
00011000
00000000
00011000
00000000
00002002
00000000
00003003
00000000
00000001
00000010
00000100
00001000
,
00000001
00000000
00000100
00000010
00002000
00000000
00000000
00000001
00003001
00000000
00000000
00000000
00001000
00000100
00000010
00000001
,
00001000
00000000
00000010
00000100
00000002
00000000
00000000
00001000
00001003
00000000
00000001
00000010
00000100
00001000
00000010
00000100
,
00000101
00001010
00000001
00000011
00001100
00000000
00000000
00000000
,
00000001
00000000
00000100
00000000
00000010
00000000
00000100
00000000
00001000
00000000
00000100
00000000
00000010
00000100
00000000
00000100
,
00000001
00000000
00001000
00000100
00001000
00000000
00000100
00010000
00000100
00000000
00010000
00001000
00010000
00001000
01000000
00010000
,
10000000
00000000
00100000
00000000
01000000
00000000
00100000
00000000
00010000
00000000
00100000
00000000
01000000
00100000
00000000
00100000
,
10000000
00000000
00010000
00100000
00010000
00000000
00100000
00001000
00100000
00000000
00001000
00010000
00001000
00010000
00000010
00001000
,
00000001
00000001
00000000
00001000
00000000
00000010
00000000
00000100
00000000
00000001
00000000
00000000
00000010
00000100
00001000
00000001
,
00000000
00000100
00000000
00000010
00000000
00010000
00002000
00000000
00000000
00000000
00000010
00000000
00013000
00000000
00001000
00010000
,
00100000
00000000
10000000
00100000
00000000
10000000
00000000
02000000
00000000
00000000
03100000
00100000
00010000
10000000
00000000
10000000
,
00100000
00000000
01000000
00010000
10000000
00000000
00010000
00100000
00000000
01000000
00000000
10000000
00000000
00010000
00000000
01000000
,
00100000
00000000
00000000
00000000
10000000
00010000
10000000
00010000
10000000
00000000
00000000
00000000
00010000
00000000
00000000
00000000
00100000
00000000
00001000
00000000
00010000
00000000
00001000
00000000
00100000
00000000
00001000
00000000
00010000
00000000
00000100
00000000
,
00002000
00000000
00000000
00003001
00000100
00000010
00001000
00000000
00000001
00000010
00000001
00000000
00001001
00000000
00000000
00000000
,
00000100
00000000
00000000
00000000
00000001
00001000
00000001
00001000
00000001
00000000
00000000
00000000
00001000
00000000
00000000
00000000
00000100
00000000
00010000
00000000
00001000
00000000
00010000
00000000
00000100
00000000
00010000
00000000
00001000
00000000
00100000
00000000
,
00010000
00010000
00100000
00100000
01000000
01000000
10000000
00010000
01000000
00000000
00000000
00000000
00000000
00000000
00000000
00000000
,
20020000
00000000
30030000
00000000
00011000
00000000
00011000
00000000
00002002
00000000
00003003
00000000
00000001
00000010
00000100
00001000
,
00000001
00000000
00000100
00000010
00002000
00000000
00000000
00000001
00003001
00000000
00000000
00000000
00001000
00000100
00000010
00000001
,
00001000
00000000
00000010
00000100
00000002
00000000
00000000
00001000
00001003
00000000
00000001
00000010
00000100
00001000
00000010
00000100
,
00000101
00000000
00001010
00000000
00000001
00000000
00000011
00000000
00001100
00000000
00000001
00001000
00000001
00001000
00000001
00000000
,
00002002
00000000
00003003
00000000
00011000
00000000
00011000
00000000
20020000
00000000
30030000
00000000
10000000
01000000
00100000
00010000
,
10000000
00000000
00100000
01000000
00020000
00000000
00000000
10000000
10030000
00000000
00000000
00000000
00010000
00100000
01000000
10000000
,
00010000
00000000
01000000
00100000
20000000
00000000
00000000
00010000
30010000
00000000
10000000
01000000
00100000
00010000
01000000
00100000
,
10100000
00000000
01010000
00000000
10000000
00000000
11000000
00000000
00110000
00000000
10000000
01000000
00010000
00001000
00000100
00000001
,
00001000
00000000
00001000
00000000
00011000
00000000
00110000
00000000
00002020
00000000
00003030
00000000
00000001
00000100
00000010
00001000
,
00000100
00001000
00000010
00000100
00000010
00001000
00000100
00000010
00000001
00000000
00001000
00000000
00000100
00001000
00000100
00010000
,
00001000
00010000
00001000
01000000
00010000
10000000
01000000
00100000
00010000
00000000
10000000
01000000
10000000
01000000
10000000
01000000
,
11000000
01010000
00000000
00001100
00000101
00000000
00000000
00000000
;
