#VERSION:0.82;
#TITLE:Can't Feel My Face;
#SUBTITLE:;
#ARTIST:The Weeknd;
#TITLETRANSLIT:;
#SUBTITLETRANSLIT:;
#ARTISTTRANSLIT:;
#GENRE:I've Become So Numb;
#ORIGIN:;
#CREDIT:;
#BANNER:Can't Feel My Face.png;
#BACKGROUND:Can't Feel My Face-bg.png;
#PREVIEWVID:;
#JACKET:jacket.png;
#CDIMAGE:;
#DISCIMAGE:;
#LYRICSPATH:;
#CDTITLE:;
#MUSIC:Can't Feel My Face.ogg;
#OFFSET:-0.528000;
#SAMPLESTART:89.385994;
#SAMPLELENGTH:13.714000;
#SELECTABLE:YES;
#DISPLAYBPM:108.000000;
#BPMS:0.000=108.000,
141.000=105.500,
142.000=108.000,
156.000=109.500,
157.000=108.000;
#STOPS:95.500=1.667;
#DELAYS:;
#WARPS:;
#TIMESIGNATURES:0.000=4=4;
#TICKCOUNTS:0.000=4;
#COMBOS:0.000=1;
#SPEEDS:0.000=1.000=0.000=0;
#SCROLLS:0.000=1.000;
#FAKES:;
#LABELS:0.000=Song Start;
#BGCHANGES:8.000=Can't Feel My Face.avi=1.000=0=0=1=====,
99999=-nosongbg-=1.000=0=0=0 // don't automatically add -songbackground-
;
#KEYSOUNDS:;
#ATTACKS:
;

//---------------dance-single - ----------------
#NOTEDATA:;
#CHARTNAME:;
#STEPSTYPE:dance-single;
#DESCRIPTION:;
#CHARTSTYLE:;
#DIFFICULTY:Hard;
#METER:7;
#RADARVALUES:0.393676,0.447852,0.137065,0.129851,0.216419,345.000000,19.000000,18.000000,0.000000,0.000000,0.000000,0.000000,0.000000,0.393676,0.447852,0.137065,0.129851,0.216419,345.000000,19.000000,18.000000,0.000000,0.000000,0.000000,0.000000,0.000000;
#CREDIT:Ben Speirs;
#DISPLAYBPM:108.000000;
#NOTES:
// measure 0
0000
0000
0000
0000
,  // measure 1
0000
0000
0000
0000
,  // measure 2
0000
0000
0000
0000
,  // measure 3
0000
0000
0000
0000
,  // measure 4
0200
0000
0000
0300
,  // measure 5
0002
0000
0000
0003
,  // measure 6
2000
0000
0000
0000
,  // measure 7
0000
0000
3000
0000
1000
0100
0010
0001
,  // measure 8
0200
0010
0000
0010
,  // measure 9
0302
0000
0013
0000
0001
0010
0100
1000
,  // measure 10
0020
0100
0000
0100
,  // measure 11
2030
0000
3100
0000
1000
1000
0001
0001
,  // measure 12
2000
0100
0000
3100
,  // measure 13
0002
0000
0103
0000
0001
0001
1000
1000
,  // measure 14
0020
0000
0130
0000
0000
0010
1000
0001
,  // measure 15
0000
0000
1001
0000
0000
0000
0101
0000
0000
0000
1000
0100
1000
0000
0000
0000
,  // measure 16
0010
0100
0001
0100
0010
1000
0100
1000
,  // measure 17
0020
0000
0000
0000
0130
0000
0000
0000
0001
0000
0000
0000
1000
0001
0000
0000
,  // measure 18
0100
0000
0100
0000
0010
0000
0000
0000
1000
0000
0000
0000
0001
1000
0000
0000
,  // measure 19
0100
0000
0100
0000
0010
0000
0000
0000
0001
0000
1000
0001
1000
0000
0001
0000
,  // measure 20
0100
0010
1000
0010
0100
0001
0010
0001
,  // measure 21
0200
0000
0000
0000
0310
0000
0000
0000
1000
0000
0000
0000
0001
1000
0000
0000
,  // measure 22
0010
0000
0010
0000
0100
0000
0000
0000
0001
0000
0000
0000
1000
0001
0000
0000
,  // measure 23
0010
0000
0010
0000
0100
0000
0000
0000
1000
0000
0001
1000
0001
0000
1000
0000
,  // measure 24
0101
0000
0000
0000
0100
0000
0001
0000
1000
0000
0100
0010
0000
0000
0000
0000
,  // measure 25
0001
1000
0000
0001
1000
0000
0010
0000
0100
0000
0001
0000
1000
0000
0100
0000
,  // measure 26
1000
0000
0010
0000
0100
0000
0001
0000
1000
0000
0010
0100
0000
0000
0000
0000
,  // measure 27
0001
1000
0000
0001
1000
0000
0100
0000
1000
0000
0010
0000
0100
0000
0001
0000
,  // measure 28
0010
0100
1000
0010
0100
0001
1000
0000
,  // measure 29
0010
0100
0000
0100
0001
0000
0000
0000
0100
0000
0001
0000
1000
0000
0000
0000
,  // measure 30
0100
1000
0000
1000
0001
0000
0000
0000
0010
0000
0001
0000
1000
0000
0010
0000
,  // measure 31
0100
0001
1000
0100
1100
0000
0010
0000
,  // measure 32
1100
0001
1000
0000
1100
0000
0010
1000
,  // measure 33
0100
0010
0001
0000
0011
0000
1000
0000
,  // measure 34
0011
0001
0100
0000
0011
0000
0100
0001
,  // measure 35
0010
0100
2000
0000
0100
0000
0000
0000
,  // measure 36
0100
3002
0100
0000
,  // measure 37
0100
0000
2003
0000
3002
0000
0003
0100
,  // measure 38
0010
0000
1000
0000
0000
0000
1010
0000
0000
0000
0101
0000
0000
0000
1000
0001
,  // measure 39
1000
0000
0100
1000
1100
0010
0100
0001
,  // measure 40
0101
0000
0100
0000
0010
0000
1000
0000
0100
0010
0000
0010
0001
0000
0000
0000
,  // measure 41
1000
0001
0000
1000
0001
0000
0000
0000
0100
0010
0000
0010
0100
0000
0000
0000
,  // measure 42
0001
1000
0000
0001
1000
0000
0000
0000
0100
0010
0000
0010
0100
0000
1000
0001
,  // measure 43
1000
0001
0010
0001
0011
0100
0010
1000
,  // measure 44
1010
0000
0010
0000
0100
0000
0001
0000
0010
0100
0000
0100
1000
0000
0000
0000
,  // measure 45
0001
1000
0000
0001
1000
0000
0000
0000
0010
0100
0000
0100
0010
0000
0000
0000
,  // measure 46
1000
0001
0000
1000
0001
0000
0000
0000
0010
0100
0000
0100
0010
0000
0001
1000
,  // measure 47
0001
0100
0001
0010
1000
0001
0100
1000
,  // measure 48
0001
1000
0001
0000
1000
0100
0010
0001
,  // measure 49
1000
0001
0000
1000
0001
0000
0000
0000
0100
0010
0000
0010
0100
0000
0000
0000
,  // measure 50
0001
1000
0000
0001
1000
0000
0000
0000
0100
0010
0000
0010
0100
0000
1000
0100
,  // measure 51
1000
0010
1000
0010
0001
1000
0100
0001
,  // measure 52
1000
0001
1000
0000
0001
0010
0100
1000
,  // measure 53
0001
1000
0000
0001
1000
0000
0000
0000
0010
0100
0000
0100
0010
0000
0000
0000
,  // measure 54
1000
0001
0000
1000
0001
0000
0000
0000
0010
0100
0000
0100
0010
0000
0001
1000
,  // measure 55
0001
0100
0020
0000
1000
0000
0130
0000
,  // measure 56
0110
0002
0010
1003
,  // measure 57
1001
0000
0000
0000
0100
0000
1000
0000
0000
0010
0000
0000
0100
0000
0000
0000
,  // measure 58
1001
0000
0000
0000
0100
0000
0001
0000
0000
1000
0000
0000
0100
0000
0000
0000
,  // measure 59
0010
1001
0000
0000
0000
0000
0000
0000
;

//---------------dance-single - ----------------
#NOTEDATA:;
#CHARTNAME:;
#STEPSTYPE:dance-single;
#DESCRIPTION:;
#CHARTSTYLE:;
#DIFFICULTY:Medium;
#METER:5;
#RADARVALUES:0.233939,0.383873,0.129851,0.158707,0.000000,187.000000,18.000000,22.000000,0.000000,0.000000,0.000000,0.000000,0.000000,0.233939,0.383873,0.129851,0.158707,0.000000,187.000000,18.000000,22.000000,0.000000,0.000000,0.000000,0.000000,0.000000;
#CREDIT:Ben Speirs;
#DISPLAYBPM:108.000000;
#NOTES:
0000
0000
0000
0000
,
0000
0000
0000
0000
,
0000
0000
0000
0000
,
0000
0000
0000
0000
,
0200
0000
0000
0300
,
0020
0000
0000
0030
,
2000
0000
0000
3000
,
0002
0000
0000
0003
,
0010
0010
0000
0010
,
0000
0001
0000
0001
,
0000
0100
0000
0100
,
0000
0010
0010
1000
,
1000
0100
0000
0100
,
0000
1000
0000
1000
,
0000
0010
0000
0010
,
0100
0000
0000
1001
,
1100
0001
1000
0010
,
0100
0000
0000
0000
0001
0000
1000
0100
,
1000
0000
0000
0000
0010
0000
1000
0100
,
1000
0000
0000
0000
0010
1000
0001
0000
,
0011
1000
0001
0100
,
0010
0000
0000
0000
1000
0000
0001
0010
,
0001
0000
0000
0000
0100
0000
0001
0010
,
0001
0000
0000
0000
0100
0001
1000
0000
,
1001
0000
0001
0000
0100
0010
0100
0000
,
0000
0001
1000
0100
,
0100
1000
0001
0100
,
0000
0010
1000
0001
,
0001
1000
0010
0100
,
0000
0002
0003
2000
,
3000
0000
0200
0000
0300
0000
1000
0100
,
0010
0001
1000
0000
1100
0000
0000
0000
,
0001
0000
0000
0000
1000
0000
0001
0100
,
0010
1000
0001
0000
0101
0000
0000
0000
,
1000
0000
0000
0000
0001
0000
0010
0100
,
0010
0100
2000
0000
0000
0000
0000
0000
,
3000
0002
0000
0000
,
0003
0200
0000
0000
,
0300
0010
0010
0010
,
0000
0000
1000
0001
1000
0001
1000
0000
,
0010
0100
0000
0010
,
1000
0100
1000
0000
0000
0000
0010
0000
,
1000
0100
1000
0000
0000
0000
0110
0000
,
1001
0000
0001
1000
0001
1000
0001
0000
,
0100
0010
0000
0100
,
0001
0010
0001
0000
0000
0000
0100
0000
,
0001
0010
0001
0000
0000
0000
1000
0001
,
1000
0000
0202
0000
0303
0000
0100
0001
,
1000
0000
2200
0000
3300
0000
0100
1000
,
0010
0000
2020
0000
3030
0000
0010
1000
,
0001
0000
1001
0000
1001
0000
0100
0001
,
0100
0000
2020
0000
3030
0000
0010
1000
,
0001
0000
0022
0000
0033
0000
0010
0001
,
0100
0000
0202
0000
0303
0000
0100
0001
,
1000
0000
1001
0000
1001
0000
0010
1000
,
0010
0100
0001
0000
0000
0000
1000
0000
,
0000
0100
0000
0010
,
0000
0001
0010
0100
,
1000
0000
0001
0000
0100
0000
0001
0100
,
0010
1000
0000
0000
0000
0000
0000
0000
;

//---------------dance-single - ----------------
#NOTEDATA:;
#CHARTNAME:;
#STEPSTYPE:dance-single;
#DESCRIPTION:;
#CHARTSTYLE:;
#DIFFICULTY:Easy;
#METER:2;
#RADARVALUES:0.137065,0.170250,0.014428,0.050498,0.000000,124.000000,2.000000,7.000000,0.000000,0.000000,0.000000,0.000000,0.000000,0.137065,0.170250,0.014428,0.050498,0.000000,124.000000,2.000000,7.000000,0.000000,0.000000,0.000000,0.000000,0.000000;
#CREDIT:Ben Speirs;
#DISPLAYBPM:108.000000;
#NOTES:
0000
0000
0000
0000
,
0000
0000
0000
0000
,
0000
0000
0000
0000
,
0000
0000
0000
0000
,
2000
0000
0000
3000
,
0002
0000
0000
0003
,
0020
0000
0000
0000
,
0000
0000
0000
0030
,
0001
0001
0000
0001
,
0000
0001
0000
0001
,
1000
1000
0000
1000
,
0000
1000
0000
1000
,
0010
0010
0000
0010
,
0000
0010
0000
0010
,
0100
0100
0000
0100
,
0100
0000
0000
0000
,
1001
0000
0100
0000
,
1000
0000
0010
0000
,
0100
0100
0001
0000
,
0100
0100
0001
0000
,
1001
0000
0001
0000
,
0010
0000
0100
0000
,
1000
1000
0010
0000
,
1000
1000
0010
0000
,
0000
0100
0000
0100
,
0000
0001
0000
0001
,
0000
1000
1000
1000
,
0000
0100
0000
1000
,
0000
0010
0000
0100
,
0001
0100
0000
0010
,
0000
1000
0000
0001
,
0010
0100
1000
0000
,
0010
0000
0010
0000
,
0000
1000
0000
0001
,
1000
0001
0000
0100
,
0100
0100
0000
0000
,
0000
0010
0000
0000
,
0000
1000
1000
0000
,
0001
0100
0100
0100
,
0000
0010
0000
1000
,
0000
0100
0000
0010
,
0000
0001
0001
1000
,
0000
0001
0001
1000
,
0000
0010
0000
1000
,
0000
0001
0000
0010
,
0000
0100
0100
1000
,
0000
0100
0100
1000
,
0000
0020
0030
0100
,
0000
0002
0003
0010
,
0000
0100
0100
1000
,
0000
0100
0100
1000
,
0000
0002
0003
0100
,
0000
0020
0030
1000
,
0000
0001
0001
0100
,
0000
0001
0001
0100
,
0000
0001
0000
0000
,
0000
1000
0000
0000
,
0000
0010
0000
0010
,
0000
1000
0000
1000
,
0001
0000
0000
0000
;

//---------------dance-single - ----------------
#NOTEDATA:;
#CHARTNAME:;
#STEPSTYPE:dance-single;
#DESCRIPTION:;
#CHARTSTYLE:;
#DIFFICULTY:Beginner;
#METER:1;
#RADARVALUES:0.090690,0.127687,0.021642,0.000000,0.000000,85.000000,3.000000,0.000000,0.000000,0.000000,0.000000,0.000000,0.000000,0.090690,0.127687,0.021642,0.000000,0.000000,85.000000,3.000000,0.000000,0.000000,0.000000,0.000000,0.000000,0.000000;
#CREDIT:Ben Speirs;
#DISPLAYBPM:108.000000;
#NOTES:
0000
0000
0000
0000
,
0000
0000
0000
0000
,
0000
0000
0000
0000
,
0000
0000
0000
0000
,
1000
0000
0000
0000
,
0001
0000
0000
0000
,
0100
0000
0000
0000
,
0000
0000
0000
0000
,
0000
0001
0000
0001
,
0000
0001
0000
0000
,
0000
1000
0000
1000
,
0000
1000
0000
0000
,
0000
0010
0000
0010
,
0000
0010
0000
0000
,
0000
0100
0000
0100
,
0000
0000
0000
0000
,
0010
0000
0010
0000
,
1000
0000
0000
0100
,
0100
0000
0000
0100
,
0100
0000
0000
0000
,
0010
0000
0001
0000
,
1000
0000
0000
0010
,
0010
0000
0000
0010
,
0010
0000
0000
0000
,
0000
0000
0000
0000
,
0000
1000
0000
1000
,
0000
0001
0000
0001
,
0000
0100
0000
0000
,
0000
0010
0000
0010
,
0000
1000
0000
0000
,
0000
0001
0000
0100
,
0100
0100
0000
0000
,
0010
0000
0010
0000
,
0000
1000
1000
0000
,
0000
0000
0100
0000
,
0100
0100
0000
0000
,
0000
1000
0000
0000
,
0000
0001
0001
0000
,
0000
1000
1000
1000
,
0000
0010
0000
0010
,
0000
0100
0000
0000
,
0001
0001
0000
0000
,
1000
1000
0000
0000
,
0000
0100
0000
0100
,
0000
0010
0000
0000
,
0001
0001
0000
0000
,
1000
1000
0000
0000
,
0000
1001
0000
0000
,
0000
0010
0000
0000
,
0000
0100
0100
0000
,
0000
0100
0100
0000
,
0000
1001
0000
0000
,
0000
0100
0000
0000
,
0000
0010
0010
0000
,
0000
0010
0010
0000
,
0000
1001
0000
0000
,
0000
0100
0000
0000
,
0000
0001
0000
0000
,
0000
1000
0000
0100
,
0100
0000
0000
0000
;

//---------------dance-double - ----------------
#NOTEDATA:;
#CHARTNAME:;
#STEPSTYPE:dance-double;
#DESCRIPTION:;
#CHARTSTYLE:;
#DIFFICULTY:Challenge;
#METER:7;
#RADARVALUES:0.356576,0.405199,0.093782,0.209205,0.093782,304.000000,13.000000,29.000000,0.000000,0.000000,0.000000,0.000000,0.000000,0.356576,0.405199,0.093782,0.209205,0.093782,304.000000,13.000000,29.000000,0.000000,0.000000,0.000000,0.000000,0.000000;
#CREDIT:Ben Speirs;
#DISPLAYBPM:108.000000;
#NOTES:
00000000
00000000
00000000
00000000
,
00000000
00000000
00000000
00000000
,
00000000
00000000
00000000
00000000
,
00000000
00000000
00000000
00000000
,
00000002
00000000
00000000
00000003
,
00002000
00000000
00000000
00003000
,
00000200
00000000
00000000
00000000
,
00000000
00000000
00000300
00000000
00001000
00000100
00000010
00000001
,
00002000
00003010
00000002
00000013
,
00002000
00000000
00003100
00000000
00000001
00000100
00000010
00001000
,
00000200
00010300
00002000
00103000
,
00020000
00000000
10030000
00000000
00010000
01000000
00100000
10000000
,
02000000
03100000
00200000
00310000
,
00020000
00000000
10030000
00000000
10000000
00100000
01000000
00010000
,
20000000
00000000
31000000
00000000
00000000
10000000
01000000
00100000
,
00000000
00010000
00000000
10000000
00000000
10010000
00000000
00000000
,
10000000
01000000
00010000
01000000
10000000
00100000
00010000
00100000
,
20000000
00000000
31000000
00000000
00100000
00000000
00010000
10000000
,
00020000
00000000
01030000
00000000
00100000
00000000
10000000
00010000
,
20000000
00000000
31000000
00000000
00010000
00001000
00000100
00000000
,
00000001
00000010
00001000
00000010
00000001
00000100
00001000
00000100
,
00000002
00000000
00000013
00000000
00000100
00000000
00001000
00000001
,
00002000
00000000
00003010
00000000
00000100
00000000
00000001
00001000
,
00000002
00000000
00000013
00000000
00001000
00010000
00100000
00000000
,
11000000
00000000
00000000
00000000
00010000
00000000
01000000
00000000
00010000
00000000
10000000
00010000
00000000
00000000
00000000
00000000
,
01000000
00100000
00000000
00000000
10000000
00000000
00010000
00000000
01000000
00000000
00100000
00000000
10000000
00000000
00010000
00000000
,
00100000
00000000
00000000
00000000
00010000
00000000
10000000
00000000
00010000
00000000
01000000
00100000
00000000
00000000
00000000
00000000
,
10000000
01000000
00100000
00010000
01000000
00001000
00100000
00001000
,
00010000
00001000
00000100
00000001
00001000
00000100
00000010
00000000
,
00000001
00002000
00000000
00000000
00003100
00000000
00000000
00000000
00001000
00000002
00000000
00000000
00000103
00000000
00000000
00000000
,
00000001
00002000
00000000
00000000
00003010
00000000
00000000
00000000
00001001
00000000
00000000
00000000
00001000
00000000
00000100
00000000
,
00000010
00000001
00001000
00000000
00001100
00000000
00000010
00000000
,
00001100
00000100
00000010
00000000
00001100
00000000
00001000
00000100
,
00010000
00001000
00100000
00000000
00110000
00000000
01000000
00000000
,
00110000
00010000
10000000
00000000
00110000
00000000
10000000
01000000
,
00100000
00010000
02000000
00000000
10000000
00000000
00000000
00000000
,
10000000
03020000
00100000
00000000
,
00100000
00000000
20030000
00000000
31000000
00000000
10000000
01000000
,
00100000
00010000
00000000
00100000
00000000
00001000
00000000
00011000
,
00000000
00000000
00010000
00001000
00000100
00001000
00010000
01000000
,
00010000
00001000
00020000
00000000
00130000
00000000
10000000
00000000
,
01000000
00100000
00000000
00000000
00010000
00000000
00010000
00000000
10000000
00000000
00000000
00000000
00100000
00000000
00000000
00000000
,
01000000
00100000
00000000
00000000
10000000
00000000
10000000
00000000
01000000
00000000
00000000
00000000
00100000
00000000
00001000
00000000
,
00010000
00000000
00001000
00010000
00100000
00010000
00001000
00000010
,
00001000
00010000
00002000
00000000
00003100
00000000
00000001
00000000
,
00000010
00000100
00000000
00000000
00001000
00000000
00001000
00000000
00000001
00000000
00000000
00000000
00000100
00000000
00000000
00000000
,
00000010
00000100
00000000
00000000
00000001
00000000
00000001
00000000
00000010
00000000
00000000
00000000
00000100
00000000
00010000
00000000
,
00001000
00100000
00102000
00000000
00010000
00000000
00103000
00000000
,
00010000
00100000
01000000
10000000
00100000
00000000
10000000
00000000
,
00100000
01000000
00000000
01000000
00100000
00000000
00000000
00000000
10000000
01000000
00000000
01000000
10000000
00000000
00000000
00000000
,
00100000
01000000
00000000
01000000
00100000
00000000
00000000
00000000
10000000
01000000
00000000
01000000
00100000
00000000
00010000
00000000
,
00100000
00001000
00020100
00000000
00001000
00000000
00030100
00000000
,
00001000
00000100
00000010
00000001
00000100
00000000
00000001
00000000
,
00000100
00000010
00000000
00000010
00000100
00000000
00000000
00000000
00000001
00000010
00000000
00000010
00000001
00000000
00000000
00000000
,
00000100
00000010
00000000
00000010
00000100
00000000
00000000
00000000
00000001
00000010
00000000
00000010
00000100
00000000
00001000
00000000
,
00000100
00010000
00001000
00000000
00100000
00000000
00010000
00000000
,
10000000
00000000
00100000
00000000
01000000
00000000
00010000
10000000
,
01000000
00100000
00001000
00000000
00010000
00000000
00100000
00000000
,
10000000
00000000
01000000
00010000
00001000
00000000
00000100
00000001
,
00000000
00000011
00000000
00000000
00000000
00000000
00000000
00000000
;
