#TITLE:Burn Up The Floor;
#SUBTITLE:;
#ARTIST:TH3 B3AT CONDUCTOR;
#TITLETRANSLIT:;
#SUBTITLETRANSLIT:;
#ARTISTTRANSLIT:;
#GENRE:;
#CREDIT:;
#BANNER:Burn Up The Floor.png;
#BACKGROUND:Burn Up The Floor-bg.png;
#LYRICSPATH:;
#CDTITLE:;
#MUSIC:Burn Up The Floor.ogg;
#OFFSET:-0.000000;
#SAMPLESTART:45.932926;
#SAMPLELENGTH:14.694003;
#SELECTABLE:YES;
#BPMS:0.000000=128.000000
;
#STOPS:
;
#BGCHANGES:;
#KEYSOUNDS:;
#ATTACKS:;

//---------------dance-single - ----------------
#NOTES:
     dance-single:
     :
     Hard:
     8:
     0.517768,0.655186,0.131265,0.189605,0.233360,497.000000,479.000000,18.000000,26.000000,0.000000,0.000000,0.517768,0.655186,0.131265,0.189605,0.233360,497.000000,479.000000,18.000000,26.000000,0.000000,0.000000:
// measure 0
0000
0000
0000
0000
,  // measure 1
0000
0000
0000
0000
,  // measure 2
0000
0000
0000
0000
,  // measure 3
0000
0000
0000
0000
,  // measure 4
1000
0000
0010
1000
0200
0000
1300
0000
,  // measure 5
0001
0000
0010
0001
0200
0000
0310
0000
,  // measure 6
1000
0000
0001
1000
0020
0000
0030
0000
,  // measure 7
0000
0000
0000
0000
0100
0001
0100
0001
,  // measure 8
1000
0000
0001
0010
0100
0000
0010
0000
,  // measure 9
0001
0000
0100
0001
1000
0000
0010
0000
,  // measure 10
1000
0000
0100
1000
0001
0000
0010
0000
,  // measure 11
0001
0100
0001
0000
1000
0100
1000
0000
,  // measure 12
0010
0000
1000
0100
1000
0000
0001
0010
,  // measure 13
0001
0000
1000
0000
0001
0010
0100
1000
,  // measure 14
0001
1000
2010
3001
,  // measure 15
0012
1003
2010
3001
,  // measure 16
1001
0000
0000
0001
1000
0000
0100
0000
1000
0000
0001
0000
1000
0000
0100
0000
,  // measure 17
1000
0000
0000
1000
0001
0000
0100
0000
0001
0000
1000
0000
0001
0000
0100
0000
,  // measure 18
0001
0000
0000
0001
1000
0000
0010
0000
1000
0000
0001
0000
1000
0000
0010
0000
,  // measure 19
1000
0000
0000
1000
0001
0000
0010
0000
0001
0000
1000
0000
0001
0000
0010
0000
,  // measure 20
0100
0100
0010
0001
1000
0001
0100
0100
,  // measure 21
0010
0010
1000
0010
0100
0001
1000
0001
,  // measure 22
0010
0010
0010
0100
1000
1000
1000
0001
,  // measure 23
0100
0001
0100
0001
0100
0001
0100
0001
0100
0001
0100
0001
1000
0000
0000
0000
,  // measure 24
1100
1001
0000
0000
,  // measure 25
0201
0000
0000
0000
0310
0000
1000
0010
1000
0000
0100
0000
1000
0000
0000
0000
,  // measure 26
0002
0000
0000
0000
0013
0000
0001
0100
0001
0000
1000
0000
0001
0000
0000
0000
,  // measure 27
2000
0000
0000
0000
3100
0000
1000
0010
1000
0000
0001
0000
1000
0000
0000
0000
,  // measure 28
0020
0000
0000
0000
0130
0000
0001
0100
0001
0000
1000
0000
0100
0000
0010
0000
,  // measure 29
0002
0000
0000
0000
0013
0000
0100
1000
0100
0000
1000
0000
0010
0000
0100
0000
,  // measure 30
0002
0000
0000
0000
0103
0000
0010
0100
0010
0000
0100
0000
0001
0000
0010
0000
,  // measure 31
0200
0000
0000
0000
1300
0000
0001
1000
0001
0000
1000
0000
0100
0000
0010
0000
,  // measure 32
0011
0000
1100
0000
0001
1000
0100
0010
,  // measure 33
0001
0000
1000
0000
0010
0000
0100
0010
0000
0010
1000
0000
0100
0000
1000
0000
,  // measure 34
0010
0000
0100
0000
0001
0000
1000
0100
1000
0000
0001
0000
0100
0000
0100
0000
,  // measure 35
0001
0000
1000
0000
0100
0000
1000
0010
0000
0010
0100
0000
0001
0000
1000
0000
,  // measure 36
0100
0000
0010
0000
0001
0000
0100
0001
1000
0000
0001
0000
1000
0000
0001
0000
,  // measure 37
0100
0000
0010
0000
1000
0000
0100
1000
0100
0000
1000
0000
0010
0100
0010
0000
,  // measure 38
1000
0000
0100
0000
0010
0000
0001
0100
0001
0000
1000
0000
0010
1000
0010
0000
,  // measure 39
1000
0000
0100
0000
0010
0000
0001
1000
0001
0000
1000
0000
0010
0100
0010
0000
,  // measure 40
1010
0000
1100
0000
0001
0010
0100
1000
,  // measure 41
0001
0000
0000
0000
,  // measure 42
0000
0000
0000
0000
,  // measure 43
0200
0010
0010
0010
,  // measure 44
0010
0010
0302
0010
,  // measure 45
2003
0100
0100
0100
,  // measure 46
0001
0001
3020
0100
,  // measure 47
1030
0100
0000
1000
0100
0000
0000
0000
1000
0000
0000
0100
1000
0000
0000
0010
,  // measure 48
0100
0000
0000
0010
0100
0000
0000
0000
0010
0000
0000
0100
0001
0000
0000
0100
,  // measure 49
0001
0000
0000
1000
0100
0000
0000
0000
1000
0000
0000
0001
0010
0000
0000
0001
,  // measure 50
0010
0000
0000
0100
1000
0000
0000
0000
0001
0000
0100
0000
1000
0000
0100
0000
,  // measure 51
0002
0000
0013
0001
2000
0000
3100
1000
,  // measure 52
0020
0000
0130
0010
1000
0001
1000
0001
,  // measure 53
0200
0000
0301
0010
0200
0000
1300
0010
,  // measure 54
1010
0101
0011
1100
,  // measure 55
0001
0000
1000
0001
1000
0000
0100
0000
0010
0000
0001
0000
1000
0000
0001
0000
,  // measure 56
1000
0000
0001
0100
0001
0000
1000
0000
0100
0000
0010
0000
0001
0000
1000
0000
,  // measure 57
0001
0000
1000
0100
1000
0000
0001
0000
1000
0000
0001
0000
0100
0000
0010
0000
,  // measure 58
1000
0000
0001
0100
0001
0000
1000
0000
0001
0000
1000
0000
0010
0000
0100
0000
,  // measure 59
0001
0000
1000
0100
1000
0000
0010
0000
0100
0000
0001
0100
0001
0000
0010
0000
,  // measure 60
0100
0000
1000
0100
1000
0000
0010
0000
0100
0000
0001
0100
0001
0000
1000
0000
,  // measure 61
0100
1000
0100
0000
0100
0000
0100
0000
0010
0001
0010
0000
0010
0000
0010
0000
,  // measure 62
0001
1000
0001
1000
0001
1000
0001
1000
0001
1000
0001
1000
0010
0000
0000
0000
,  // measure 63
1010
0101
0000
0000
,  // measure 64
1002
0000
0000
0000
1003
0000
0010
0100
0010
0000
1000
0000
0100
0000
0010
0000
,  // measure 65
0002
0000
0000
0000
0013
0000
0100
1000
0100
0000
0010
0000
0001
0000
1000
0000
,  // measure 66
0020
0000
0000
0000
0130
0000
0001
0100
0001
0000
1000
0000
0010
0000
0100
0000
,  // measure 67
0002
0000
0000
0000
1003
0000
0100
1000
0100
0000
1000
0000
0001
0000
0010
0000
,  // measure 68
0100
0000
1000
0000
0010
0000
0100
0001
0100
0000
0010
0000
1000
0000
0100
0000
,  // measure 69
0010
0000
0001
0000
1000
0000
0010
1000
0010
0000
1000
0000
0100
0000
0010
0000
,  // measure 70
0001
0000
0100
0000
0010
0000
1000
0001
1000
0000
0010
0000
0100
0000
0001
0000
,  // measure 71
1000
0000
0100
0000
0010
0000
0001
0100
0001
0000
0010
0000
0100
0000
1000
0000
;

//---------------dance-double - ----------------
#NOTES:
     dance-double:
     :
     Challenge:
     8:
     0.444843,0.655186,0.058340,0.218775,0.131265,427.000000,419.000000,8.000000,30.000000,0.000000,0.000000,0.444843,0.655186,0.058340,0.218775,0.131265,427.000000,419.000000,8.000000,30.000000,0.000000,0.000000:
00000000
00000000
00000000
00000000
,
00000000
00000000
00000000
00000000
,
00000000
00000000
00000000
00000000
,
00000000
00000000
00000000
00000000
,
10000000
00000000
00100000
10000000
02000000
00000000
03000000
00000000
,
00100000
00000000
00100000
00000000
00001000
00100000
00001000
00100000
,
00010000
00000000
01000000
00010000
20000000
00000000
30000000
00000000
,
00000000
00000000
00000000
00000000
00010000
01000000
00010000
01000000
,
00001000
00000000
00010000
00000100
00010000
00000000
00000000
00000000
,
00000100
00000000
00001000
00000000
00000010
00001000
00000100
00000000
,
00000010
00000000
00000001
00000100
00000002
00000000
00000003
00000000
,
00000100
00000100
00000010
00000010
,
00001000
00000000
00000100
00010000
00001000
00000000
00000000
00000000
,
00010000
00000000
00010000
00000000
00001000
00010000
00001000
00100000
,
00010000
00000000
01000000
00010000
20000000
00000000
30000000
00000000
,
00100000
00100000
10000000
10000000
,
00010000
00000000
00000000
10000000
01000000
00000000
10000000
00000000
00010000
00000000
10000000
00000000
01000000
00000000
10000000
00000000
,
00010000
00000000
00000000
01000000
00010000
00000000
10000000
00000000
00010000
00000000
01000000
00000000
00010000
00000000
10000000
00000000
,
00010000
00000000
00000000
00100000
00001000
00000000
00010000
00000000
00001000
00000000
00100000
00000000
00001000
00000000
00010000
00000000
,
00001000
00000000
00000000
00010000
00000010
00000000
00001000
00000000
00000010
00000000
00010000
00000000
00000010
00000000
00001000
00000000
,
00000100
00000100
00000010
00000001
00000100
00000100
00000010
00001000
,
00000001
00000001
00000001
00001000
00000010
00000010
00000010
00000100
,
00001000
00010000
00001000
00000000
00010000
00000000
00001000
00000000
00100000
00010000
00100000
00000000
00010000
00000000
01000000
00000000
,
00100000
10000000
00100000
10000000
00100000
00000000
10000000
00000000
01000000
00000000
01000000
00000000
10000000
00000000
00000000
00000000
,
01100000
10010000
00000000
00000000
,
00020000
00000000
00130000
00000000
00001000
00100000
00001000
00010000
,
00000200
00000000
00001300
00000000
00000010
00001000
00000010
00010000
,
00000200
00000000
00010300
00000000
00001000
00100000
00001000
00100000
,
00020000
00000000
01030000
00000000
00100000
10000000
01000000
00100000
,
00020000
00000000
00000000
00000000
01030000
00000000
00100000
01000000
00100000
00000000
01000000
00000000
00010000
00000000
00000000
00000000
,
20000000
00000000
00000000
00000000
31000000
00000000
10000000
00100000
10000000
00000000
01000000
00000000
10000000
00000000
00000000
00000000
,
00020000
00000000
00000000
00000000
00130000
00000000
00010000
01000000
00010000
00000000
10000000
00000000
00010000
00000000
00000000
00000000
,
01010000
00000000
00011000
00000000
00000100
00001000
00000010
00000100
,
00000002
00000000
00000000
00000000
00000103
00000000
00000010
00001000
00000010
00000000
00000100
00000000
00000002
00000000
00000000
00000000
,
00000023
00000000
00000000
00000000
00000130
00000000
00001000
00000100
00001000
00000000
00000010
00000000
00000200
00000000
00000000
00000000
,
00000302
00000000
00000000
00000000
00001003
00000000
00000100
00010000
00000100
00000000
00010000
00000000
00002000
00000000
00000000
00000000
,
00203000
00000000
00000000
00000000
00310000
00000000
01000000
00100000
01000000
00000000
00010000
00000000
00100000
00000000
01000000
00000000
,
20000000
00000000
00000000
00000000
30010000
00000000
10000000
01000000
10000000
00000000
00100000
00000000
02000000
00000000
00000000
00000000
,
03020000
00000000
00000000
00000000
00130000
00000000
01000000
00100000
00010000
00000000
10000000
00000000
00200000
00000000
00000000
00300000
,
02000000
00000000
00000000
03000000
00001000
00000000
00010000
00001000
00010000
00000000
00000100
00000000
00002000
00000000
00000000
00000000
,
00003010
00000100
00000001
00000100
00000010
00000010
00001000
00000100
,
00000010
00000000
00000000
00000000
,
00000000
00000000
00000000
00000000
,
00001002
00000000
00000100
00000100
,
00000000
00000000
00000203
00000000
,
00000010
00000000
00000010
00000010
,
00000000
00000000
00000300
00000000
00000001
00001000
00000001
00001000
,
00000100
00010000
00001000
01000000
,
00100000
00000000
10000000
00000000
01000000
00100000
00010000
00100000
,
01000000
10000000
00100000
01000000
,
00001000
00000000
00010000
00000000
00000100
00001000
00000010
00001000
,
00000100
00000010
00000001
00000100
,
00001000
00000000
00010000
00000000
00001000
00010000
00100000
01000000
,
00100000
00000000
01000000
00010000
10000000
00000000
01000000
00000000
,
10000000
10000000
00010000
00010000
,
10000000
00000000
00000000
10000000
01000000
00000000
00010000
00000000
01000000
00000000
00010000
00000000
01000000
00000000
00010000
00000000
,
01000000
00000000
00000000
00010000
00001000
00000000
00010000
00000000
00001000
00000000
00010000
00000000
00001000
00000000
00010000
00000000
,
00001000
00000000
00000000
00000100
00000001
00000000
00000100
00000000
00000001
00000000
00000100
00000000
00000001
00000000
00000100
00000000
,
00000001
00000000
00000000
00001000
00000100
00000000
00001000
00000000
00000100
00000000
00001000
00000000
00000100
00000000
00001000
00000000
,
00000001
00000010
00001000
00010000
00100000
10000000
01000000
00000000
,
10000000
01000000
00010000
00001000
00000010
00000001
00000100
00000000
,
00000010
00001000
00000010
00000000
00000100
00000000
00000001
00000000
00001000
00000100
00001000
00000000
00000001
00000000
00000100
00000000
,
00001000
00010000
00001000
00010000
00001000
00010000
00001000
00010000
00001000
00010000
00001000
00010000
00001000
00000000
00000000
00000000
,
00011000
00011000
00000000
00000000
,
00201000
00000000
00000000
00000000
00310000
00000000
00100000
01000000
00100000
00000000
00010000
00000000
10000000
00000000
00100000
00000000
,
02000000
00000000
00000000
00000000
03100000
00000000
10000000
01000000
10000000
00000000
00100000
00000000
01000000
00000000
00010000
00000000
,
00200000
00000000
00000000
00000000
00310000
00000000
00100000
00001000
00100000
00000000
00010000
00000000
00100000
00000000
00001000
00000000
,
00020000
00000000
00000000
00000000
00030100
00000000
00001000
00000010
00001000
00000000
00000100
00000000
00000010
00000000
00000001
00000000
,
00000100
00000000
00001000
00000000
00010000
00000000
00100000
10000000
00100000
00000000
10000000
00000000
01000000
00000000
00100000
00000000
,
00010000
10000000
01000000
00010000
01000000
00100000
00010000
01000000
,
00100000
00000000
00010000
00000000
00001000
00000000
00000010
00000001
00000010
00000000
00000100
00000000
00001000
00000000
00000010
00000000
,
00000100
00000001
00001000
00000010
00000100
00001000
00000100
00001000
;

//---------------dance-single - ----------------
#NOTES:
     dance-single:
     :
     Medium:
     5:
     0.318787,0.471734,0.277115,0.153143,0.058340,306.000000,268.000000,38.000000,21.000000,0.000000,0.000000,0.318787,0.471734,0.277115,0.153143,0.058340,306.000000,268.000000,38.000000,21.000000,0.000000,0.000000:
0000
0000
0000
0000
,
0000
0000
0000
0000
,
0000
0000
0000
0000
,
0000
0000
0000
0000
,
1000
0010
1000
0000
,
0100
0000
0100
0000
1000
0001
1000
0000
,
0001
0100
0100
0000
,
0001
0000
1000
0000
,
0001
0001
0010
0000
,
0001
0000
1000
0000
0001
0100
0001
0000
,
0100
0010
0010
0000
,
1000
0000
0001
0000
,
1000
0000
0100
1000
0100
0000
0000
0000
,
1000
1000
0010
0010
,
0100
0000
0001
0100
0001
0000
0000
0000
,
1000
0000
0001
0000
,
1000
0000
0000
0100
0000
0000
1000
0000
0000
0000
0000
0000
0000
0000
0000
0000
,
0001
0000
0000
0100
0000
0000
0001
0000
0000
0000
0000
0000
0000
0000
0000
0000
,
1000
0000
0000
0010
0000
0000
1000
0000
0000
0000
0000
0000
0000
0000
0000
0000
,
0001
0000
0000
0010
0000
0000
0001
0000
0000
0000
0000
0000
0000
0000
0000
0000
,
1000
0000
0000
0100
0000
0000
0100
0000
1000
0000
0000
0001
0000
0000
0001
0000
,
0100
0000
0000
0010
0000
0000
0010
0000
1000
0000
0000
0100
0000
0000
0100
0000
,
0010
0001
0010
0001
1000
0100
1000
0100
,
0010
0010
0001
1001
,
0101
1001
0000
0000
,
2010
3001
1000
0100
,
0012
1003
0001
0100
,
2010
3100
1000
0001
,
0102
1003
0001
0010
,
1100
1100
0001
1000
,
0101
0101
1000
0001
,
1010
1010
0001
1000
,
0011
0000
0011
0000
1000
0100
0010
0001
,
2000
0000
3100
0000
1000
0001
1000
0000
,
0002
0000
0103
0000
0001
1000
0001
0000
,
2000
0000
3010
0000
1000
0001
1000
0000
,
0002
0000
0013
0000
0001
1000
0001
0000
,
1100
0000
0101
0000
1000
0001
0100
0000
,
0101
0000
1100
0000
0001
1000
0100
0000
,
1010
0011
0101
1100
,
0001
1000
0001
1000
0100
0010
0001
0000
,
1000
0000
0000
0000
,
0000
0000
0000
0000
,
0020
0000
0000
0030
,
0100
0000
0002
0003
,
2000
0000
0000
3000
,
0100
0000
0200
0300
,
1000
0001
0100
0000
,
0001
0001
1000
1000
,
0010
1000
0100
0000
,
0010
0010
0001
0000
,
1000
0001
0100
0000
,
0001
0001
1000
1000
,
0010
1000
0100
0000
,
1000
1000
0001
0001
,
0101
0000
0000
0100
0000
0000
0010
0000
0000
0000
0000
0000
0000
0000
0000
0000
,
1010
0000
0000
0010
0000
0000
1000
0000
0000
0000
0000
0000
0000
0000
0000
0000
,
1100
0000
0000
0100
0000
0000
0010
0000
0000
0000
0000
0000
0000
0000
0000
0000
,
0011
0000
0000
0001
0000
0000
0100
0000
0000
0000
0000
0000
0000
0000
0000
0000
,
0010
0000
0000
0010
0000
0000
0010
0000
1000
0000
0000
1000
0000
0000
1000
0000
,
0100
0000
0000
0100
0000
0000
0100
0000
0010
0000
0000
0010
0000
0000
0010
0000
,
0001
1000
0001
1000
0010
0100
0010
0100
,
0001
0010
0100
1000
0010
1000
1001
0000
,
0110
1001
0000
0000
,
0002
0000
0103
0000
0001
0100
0001
0000
,
0101
1100
1010
0011
,
2000
0000
3100
0000
1000
0010
1000
0000
,
1010
1100
0101
0011
,
2000
0000
3002
0000
0103
0010
0100
0010
,
2000
3200
0310
0001
,
2000
0000
3002
0000
0103
0001
0100
0001
,
2000
0000
3010
0000
1000
0100
0010
0001
;

//---------------dance-single - ----------------
#NOTES:
     dance-single:
     :
     Easy:
     3:
     0.187522,0.261619,0.029170,0.175020,0.000000,180.000000,176.000000,4.000000,24.000000,0.000000,0.000000,0.187522,0.261619,0.029170,0.175020,0.000000,180.000000,176.000000,4.000000,24.000000,0.000000,0.000000:
0000
0000
0000
0000
,
0000
0000
0000
0000
,
0000
0000
0000
0000
,
0000
0000
0000
0000
,
0001
0000
0000
0000
,
0100
0000
0100
0000
,
0010
0000
0000
0000
,
1000
0000
0000
0000
,
0100
0000
1000
0000
,
0010
0010
0100
0100
,
0001
0000
1000
0000
,
0010
0000
0000
0000
,
1000
0000
0001
0000
,
0010
0010
0001
0001
,
0100
0000
0010
0000
,
1000
0000
0001
0000
,
1001
0000
1000
0100
,
0100
0000
0001
0100
,
0100
0000
1000
0010
,
0010
0000
0001
0000
,
1000
0100
1000
0000
,
0001
0100
0001
0000
,
1000
1000
0001
0001
,
0100
0010
1000
0001
,
1000
1001
0000
0000
,
2000
3000
0100
0100
,
0020
0030
0001
0001
,
0200
0300
0010
0010
,
2000
3000
0001
0001
,
2000
3000
0100
0010
,
0002
0003
0100
0001
,
2000
3000
0100
1000
,
0020
0030
1000
0000
,
0001
0010
0100
0100
,
2000
3000
0002
0003
,
1000
0010
0100
0100
,
0002
0003
2000
3000
,
0001
0010
0001
0001
,
0010
0001
0010
0000
,
0100
1000
0100
0100
,
1000
1000
0001
0001
,
0000
0000
0000
0000
,
0000
0000
0000
0000
,
2002
0000
0000
0000
,
0000
3003
0020
0030
,
0200
0000
0000
0000
,
0000
0300
0002
0003
,
1000
1000
0000
0000
,
0100
0100
0000
0000
,
0010
0010
0000
0000
,
0001
0001
0000
0000
,
1000
0010
0000
0000
,
0100
0001
0000
0000
,
1000
0001
0000
0000
,
0001
0010
0000
0000
,
0001
0010
0100
0100
,
1000
0000
0001
0000
,
1000
0010
0100
0100
,
0001
0000
1000
0000
,
0010
1000
0010
1000
,
0001
0010
0001
0010
,
0001
0010
0100
1000
,
0010
0100
0001
0100
,
0100
1001
0000
0000
,
2000
3000
0010
1000
,
0200
0300
0010
0001
,
2000
3000
0100
1000
,
0002
0003
0100
0100
,
0020
0030
1000
0010
,
0200
0300
0001
1000
,
0200
0300
0010
0001
,
1000
1000
0001
0001
;

//---------------dance-single - ----------------
#NOTES:
     dance-single:
     :
     Beginner:
     2:
     0.100012,0.156424,0.021878,0.000000,0.000000,96.000000,93.000000,3.000000,0.000000,0.000000,0.000000,0.100012,0.156424,0.021878,0.000000,0.000000,96.000000,93.000000,3.000000,0.000000,0.000000,0.000000:
0000
0000
0000
0000
,
0000
0000
0000
0000
,
0000
0000
0000
0000
,
0000
0000
0000
0000
,
1000
0000
0000
0000
,
0000
0000
0000
0000
,
0001
0000
0000
0000
,
0000
0000
0000
0000
,
0100
0000
0100
0000
,
0000
0000
0000
0000
,
0010
0000
0010
0000
,
0000
0000
0000
0000
,
1000
0000
1000
0000
,
0000
0000
0000
0000
,
0001
0000
0001
0000
,
0000
0000
0000
0000
,
0100
0100
0000
0000
,
0100
0000
0000
0000
,
0010
0010
0000
0000
,
0010
0000
0000
0000
,
1000
1000
0000
0000
,
1000
0000
0000
0000
,
0001
0001
0000
0000
,
0001
0000
0000
0000
,
0000
1001
0000
0000
,
0010
0000
0000
0010
,
0010
0000
0000
1000
,
1000
0000
0000
1000
,
1000
0000
0000
0000
,
1001
0000
0000
0001
,
0001
0000
0000
0100
,
0100
0000
0000
0100
,
0100
0000
0000
0000
,
0010
0000
0010
0000
,
0010
0000
0000
0000
,
1000
0000
1000
0000
,
1000
0000
0000
0000
,
0001
0001
0000
0000
,
0001
0000
0000
0000
,
1000
1000
0000
0000
,
1000
0000
1000
0000
,
0000
0000
0000
0000
,
0000
0000
0000
0000
,
0010
0000
0000
0000
,
0000
0000
1000
0000
,
1000
0000
0000
0000
,
0000
0000
0001
0000
,
0001
0000
0000
0000
,
0000
0000
0100
0000
,
0100
0000
0000
0000
,
0000
0000
0010
0000
,
0010
0000
0000
0000
,
0000
0000
1000
0000
,
1000
0000
0000
0000
,
0001
0000
0000
0000
,
0001
0001
0000
0000
,
1000
1000
0000
0000
,
0010
0010
0000
0000
,
0010
0010
0000
0000
,
0100
0100
0000
0000
,
0100
0100
0000
0000
,
0001
0000
0001
0000
,
0001
0000
0000
0000
,
0000
0000
1001
0000
,
1000
1000
0000
0000
,
0010
0010
0000
0000
,
1000
1000
0000
0000
,
0001
0000
0000
0000
,
0001
0001
0000
0000
,
0100
0100
0000
0000
,
0001
0001
0000
0000
,
1000
0000
1000
0000
;
