#VERSION:0.82;
#TITLE:Brotherswing;
#SUBTITLE:;
#ARTIST:Caravan Palace;
#TITLETRANSLIT:;
#SUBTITLETRANSLIT:;
#ARTISTTRANSLIT:;
#GENRE:Stevie Special;
#ORIGIN:;
#CREDIT:;
#BANNER:Brotherswing.png;
#BACKGROUND:Brotherswing-bg.png;
#PREVIEWVID:;
#JACKET:jacket.png;
#CDIMAGE:;
#DISCIMAGE:;
#LYRICSPATH:;
#CDTITLE:;
#MUSIC:Brotherswing.ogg;
#OFFSET:-0.025000;
#SAMPLESTART:49.108913;
#SAMPLELENGTH:13.714000;
#SELECTABLE:YES;
#BPMS:0.000=132.000;
#STOPS:;
#DELAYS:;
#WARPS:;
#TIMESIGNATURES:0.000=4=4;
#TICKCOUNTS:0.000=4;
#COMBOS:0.000=1;
#SPEEDS:0.000=1.000=0.000=0;
#SCROLLS:0.000=1.000;
#FAKES:;
#LABELS:0.000=Song Start;
#BGCHANGES:8.000=Brotherswing.avi=1.000=0=0=1=====,
99999=-nosongbg-=1.000=0=0=0 // don't automatically add -songbackground-
;
#KEYSOUNDS:;
#ATTACKS:
;

//---------------dance-single - ----------------
#NOTEDATA:;
#CHARTNAME:;
#STEPSTYPE:dance-single;
#DESCRIPTION:;
#CHARTSTYLE:;
#DIFFICULTY:Easy;
#METER:4;
#RADARVALUES:0.221322,0.493996,0.055003,0.174176,0.000000,144.000000,6.000000,19.000000,0.000000,0.000000,0.000000,0.000000,0.000000,0.221322,0.493996,0.055003,0.174176,0.000000,144.000000,6.000000,19.000000,0.000000,0.000000,0.000000,0.000000,0.000000;
#CREDIT:Ben Speirs;
#NOTES:
0000
0000
0000
0000
,
0000
0000
0000
0000
,
0000
0000
0000
0000
,
0000
0000
0000
0000
,
1000
0000
0001
0000
,
0100
0100
0000
0000
,
0010
0000
1000
0000
,
0001
1000
0100
0000
,
0010
0010
0001
0000
,
1000
1000
0000
0000
,
0001
0000
0020
0030
,
0001
0010
0100
0000
,
1000
0000
0020
0030
,
1000
0001
0100
0000
,
0001
0010
0001
0100
,
0001
0010
0001
0000
,
1000
0100
1000
0010
,
1000
0100
1000
0000
,
0001
0000
1000
0000
,
0010
0010
0010
0000
,
1000
0000
0001
0000
,
0100
0100
0100
0000
,
0001
0010
0001
0000
,
1000
0100
1000
0000
,
0001
0100
0001
0000
,
1000
0002
2000
0000
0000
0000
0000
0000
,
0000
0000
0000
3003
,
0010
1000
0100
0100
,
0010
0001
1000
0010
,
0100
0100
0001
1000
,
0010
1001
0000
0000
,
0100
0001
0010
0010
,
0100
1000
0001
0100
,
0010
0010
1000
0001
,
0100
1001
0000
0000
,
0000
0010
1000
0100
,
0010
0001
1000
0010
,
0100
0100
0001
0010
,
0001
1000
0010
0010
,
1000
0100
0000
1000
,
0001
0100
0000
0010
,
0100
0001
0000
0010
,
0001
1000
0010
0100
,
0001
0001
1000
1000
,
0010
0100
0010
0100
,
0001
0001
1000
1000
,
0100
0010
0100
0010
,
0002
0003
2000
3000
,
0020
0030
0200
0300
,
0002
0003
2000
3000
,
0220
0330
2002
3003
,
0220
0330
2002
0000
,
0000
0000
0000
0000
,
0000
0000
0000
0000
,
3003
0000
0000
0000
,
0000
0000
0000
0000
,
0000
0000
0000
0000
,
0000
0000
0000
0000
,
0000
0000
0000
0000
0000
0000
0100
0020
,
0000
0000
0000
0000
0000
0000
0000
0030
;

//---------------dance-single - ----------------
#NOTEDATA:;
#CHARTNAME:;
#STEPSTYPE:dance-single;
#DESCRIPTION:;
#CHARTSTYLE:;
#DIFFICULTY:Beginner;
#METER:1;
#RADARVALUES:0.117864,0.164665,0.009167,0.018334,0.000000,87.000000,1.000000,2.000000,0.000000,0.000000,0.000000,0.000000,0.000000,0.117864,0.164665,0.009167,0.018334,0.000000,87.000000,1.000000,2.000000,0.000000,0.000000,0.000000,0.000000,0.000000;
#CREDIT:Ben Speirs;
#NOTES:
0000
0000
0000
0000
,
0000
0000
0000
0000
,
0000
0000
0000
0000
,
0000
0000
0000
0000
,
1000
0000
0000
0000
,
0001
0001
0000
0000
,
0100
0100
0000
0000
,
0010
0000
1000
0000
,
0100
0000
0000
0000
,
0010
0010
0000
0000
,
0001
0000
1000
0000
,
0010
0000
0010
0000
,
1000
0000
0001
0000
,
0100
0000
0100
0000
,
0010
0000
0010
0000
,
0010
0000
0010
0000
,
1000
0000
0001
0000
,
0100
0000
0100
0000
,
0010
0000
0000
0000
,
1000
0000
0000
0000
,
0001
0000
0000
0000
,
0100
0000
0000
0000
,
0001
0001
0000
0000
,
1000
1000
0000
0000
,
0100
0100
0000
0000
,
0010
0000
0000
0000
,
0000
0000
0000
0000
,
0001
0000
1000
0000
,
0010
0010
0010
0000
,
1000
0000
0001
0000
,
0100
0100
0000
0000
,
0001
0000
1000
0000
,
0100
0100
0100
0000
,
0010
0000
0001
0000
,
1000
1000
0000
0000
,
0000
0010
0000
1000
,
0000
0001
0000
0100
,
0000
0001
0000
1000
,
0000
0100
0000
0100
,
0000
0010
0000
0001
,
0000
1000
0000
0010
,
0000
1000
0000
0001
,
0000
0100
0000
0100
,
0100
0000
0001
0000
,
1000
0000
1000
0000
,
0100
0000
1000
0000
,
0001
0000
0001
0000
,
0100
0000
0000
0000
,
0010
0000
0000
0000
,
1000
0000
0000
0000
,
0001
0000
1000
0000
,
0001
0000
1000
0000
,
0000
0000
0000
0000
,
0000
0000
0000
0000
,
0000
0000
0000
0000
,
0000
0000
0000
0000
,
0000
0000
0000
0000
,
0000
0000
0000
0000
,
0000
0000
0000
0220
,
0000
0000
0000
0000
0000
0000
0000
0330
;

//---------------dance-single - ----------------
#NOTEDATA:;
#CHARTNAME:;
#STEPSTYPE:dance-single;
#DESCRIPTION:;
#CHARTSTYLE:;
#DIFFICULTY:Medium;
#METER:5;
#RADARVALUES:0.319541,0.491933,0.165009,0.174176,0.000000,207.000000,18.000000,19.000000,0.000000,0.000000,0.000000,0.000000,0.000000,0.319541,0.491933,0.165009,0.174176,0.000000,207.000000,18.000000,19.000000,0.000000,0.000000,0.000000,0.000000,0.000000;
#CREDIT:Ben Speirs;
#NOTES:
0000
0000
0000
0000
,
0000
0000
0000
0000
,
0000
0000
0000
0000
,
0000
0000
0000
0000
,
1000
0001
0100
0100
,
0010
0010
1000
0000
0000
0000
0000
0000
,
0001
1000
0001
0000
0010
0000
0001
0000
,
1000
1000
0100
0000
1000
0000
0001
0000
,
0100
0100
0010
1000
,
0100
0100
0010
0000
0000
0000
0000
0000
,
0011
0000
1000
0000
,
0010
1000
0001
0000
,
1010
0000
0001
0000
,
0100
0001
1000
0000
,
0100
0100
0010
0010
,
0001
0001
1000
1000
,
0010
1000
0001
0100
,
0010
0000
0100
0000
0001
1000
0001
0000
,
1001
0000
0100
0000
1000
0001
1000
0000
,
0010
0000
1000
0000
0001
0100
0010
0000
,
1000
0000
0001
0000
1000
0100
1000
0000
,
0001
0000
1000
0100
0010
0000
0001
0000
,
2000
3010
0002
0013
,
2000
3100
0002
0103
,
0010
0100
0001
0000
0010
0100
1000
0000
,
0010
2000
0002
0000
0000
0000
0000
0000
,
0000
0000
0000
0000
3003
0000
0110
0001
,
2000
0000
3100
0000
0010
1000
0100
0000
,
1000
0100
0010
0000
0001
0000
1000
0000
,
0002
0103
0010
1000
,
0100
0100
0010
0000
0001
0000
1001
0000
,
0002
0000
0013
0000
0100
0001
0010
0000
,
0001
0010
0100
0000
1000
0000
0001
0000
,
2000
3010
0100
0001
,
0010
0010
0100
0000
1000
0000
1001
0020
,
0000
0000
0130
0001
1000
0000
0010
0000
,
2000
3001
0020
0130
,
0010
0001
1000
0000
0010
1000
0001
0000
,
0100
0000
0001
0000
1000
0100
0010
0000
,
0001
1000
0100
0100
,
1000
0010
1000
0001
,
0100
0100
0100
0000
0010
0010
0010
0000
,
1000
0001
1001
0110
,
0001
0010
0001
0000
2000
0000
3000
0000
,
0010
1000
0001
0000
,
1000
0010
1000
0000
0002
0000
0003
0000
,
0010
0001
0100
0000
,
0010
0010
0000
1000
0000
0001
0000
0010
,
0000
0001
0000
1000
0000
0100
0000
0100
,
0000
1000
0000
0001
0000
0100
0000
0010
,
2000
3000
0002
0003
,
2000
3000
1001
0110
,
1001
0110
1001
0110
,
1001
0110
1001
0000
,
0000
0000
0000
0000
,
0000
0000
0000
0000
,
0000
0000
0000
0000
,
0000
0000
0000
0000
,
0000
0000
0000
0000
0000
0000
1001
0020
,
0000
0000
0000
0000
0000
0030
0000
0000
;

//---------------dance-single - ----------------
#NOTEDATA:;
#CHARTNAME:;
#STEPSTYPE:dance-single;
#DESCRIPTION:;
#CHARTSTYLE:;
#DIFFICULTY:Hard;
#METER:8;
#RADARVALUES:0.478002,0.546592,0.155842,0.183343,0.087088,328.000000,17.000000,20.000000,0.000000,0.000000,0.000000,0.000000,0.000000,0.478002,0.546592,0.155842,0.183343,0.087088,328.000000,17.000000,20.000000,0.000000,0.000000,0.000000,0.000000,0.000000;
#CREDIT:Ben Speirs;
#NOTES:
0000
0000
0000
0000
,
0000
0000
0000
0000
,
0000
0000
0000
0000
,
0000
0000
0000
0000
,
1000
0100
0010
0000
0001
0000
1000
0000
,
0010
0000
0000
0010
0100
0000
0000
0000
0001
0000
0100
0000
0010
0000
0000
0000
,
1000
0100
0010
0001
2000
0000
3010
0000
,
0001
1000
0100
1000
0001
0000
0100
0000
,
0010
0010
1000
0000
1001
0000
0010
0000
,
0001
0000
0000
0001
1000
0000
0000
0000
0010
0000
1000
0000
0001
0000
1000
0000
,
0010
0100
0000
0100
0001
0000
1000
0000
,
0010
1000
0100
0010
0001
1000
0010
0000
,
1000
0001
0000
0001
0010
0000
0001
0000
,
0100
0010
0100
0001
0010
0100
1000
0000
,
0001
0000
0000
1000
0100
0020
0000
0000
,
0001
0100
1000
0031
,
1000
0000
0000
0001
0100
0020
0000
0000
,
1000
0000
0001
0000
1030
1000
0001
0001
,
1000
0010
0100
0000
0001
0010
0100
0000
,
1000
0100
1000
0001
0010
0001
1000
0000
,
0010
1000
0001
0000
0100
0001
0010
0000
,
0001
0010
1000
0010
0001
1000
0100
0000
,
1000
0100
0110
0000
0001
0100
0110
0000
,
1000
0010
0010
0100
0001
0010
0100
0000
,
0010
0001
1001
0000
0010
1000
1001
0000
,
0010
2000
0002
0000
0000
0000
0000
0000
,
0000
0000
0000
0000
3003
0000
0110
0001
,
2000
0100
3001
1000
0100
0010
0001
0000
,
0100
0100
0010
0100
0001
0010
0100
1000
,
0010
1000
0001
0100
0010
1000
0001
0000
,
0010
0000
0000
0010
0100
0000
0010
0000
0001
0000
1000
0000
0010
0000
0000
0000
,
0002
0010
1003
0001
0010
0100
1000
0000
,
0010
0010
0100
0010
1000
0100
0010
0001
,
0100
0001
1000
0010
0100
0001
1000
0000
,
0100
0000
0000
0100
0010
0000
0100
0000
1000
0000
0001
0000
0100
0000
0020
0000
,
0000
0000
1030
0100
1000
0000
0001
0100
0001
0000
1000
0000
0100
0000
0010
0000
,
0001
0000
0001
0000
1000
0000
1000
0000
0010
1000
0010
0000
1000
0000
0000
0000
,
0001
0000
1000
0000
0100
0000
0010
0000
0001
1000
0001
0000
0100
0000
0010
0000
,
1000
1000
0100
0100
0010
0001
1000
0000
,
0010
0100
0001
0100
1000
0100
0001
0010
,
1000
0010
0001
0010
0100
1000
0001
0100
,
0010
1000
0010
0000
0100
0000
0001
0000
0010
0000
0100
0000
1000
0001
1000
0000
,
0010
0100
0010
0000
0100
0000
0001
0000
0010
0000
0100
0000
1000
0000
0000
0000
,
0001
0000
0200
0000
0000
0000
0310
1000
0020
0000
0000
0000
0130
0000
0000
0000
,
0001
0100
0010
1000
0100
0010
0001
0000
,
1000
0000
0020
0000
0000
0000
0130
0001
0200
0000
0000
0000
0310
0000
0000
0000
,
0100
0001
0010
0100
1000
0001
0100
0000
,
0010
1000
0100
0000
0010
0001
0100
0000
,
0001
0100
1000
0000
0100
0001
1000
0000
,
0100
0010
0001
1000
0010
0100
0001
0010
,
0110
0000
1001
0000
,
0110
0000
1010
0101
,
0011
1100
0101
1010
,
1001
0000
0000
0000
0000
0100
0020
0000
0000
1030
0000
0000
,
0000
0000
0000
0000
0000
0100
0020
0000
0000
0031
0000
0000
,
0000
0000
0000
0000
0000
0100
0020
0000
0000
1030
0000
0000
,
0000
0000
0000
0000
0000
0100
0020
0000
0000
0031
0000
0000
,
0000
0000
0000
0000
0000
0100
0020
0000
0000
1030
0000
0000
,
0000
0000
0000
0000
0000
0000
0000
0000
0000
0000
0100
0000
0020
0000
0000
0000
0000
0000
0031
0000
0000
2200
0000
0000
,
0000
0000
0000
0000
0000
3300
0000
0000
;

//---------------dance-single - ----------------
#NOTEDATA:;
#CHARTNAME:;
#STEPSTYPE:dance-single;
#DESCRIPTION:;
#CHARTSTYLE:;
#DIFFICULTY:Challenge;
#METER:10;
#RADARVALUES:0.611581,0.847218,0.110006,0.137507,0.586698,440.000000,12.000000,15.000000,0.000000,0.000000,0.000000,0.000000,0.000000,0.611581,0.847218,0.110006,0.137507,0.586698,440.000000,12.000000,15.000000,0.000000,0.000000,0.000000,0.000000,0.000000;
#CREDIT:Ben Speirs;
#NOTES:
// measure 0
0000
0000
0000
0000
,  // measure 1
0000
0000
0000
0000
,  // measure 2
0000
0000
0000
0000
,  // measure 3
0000
0000
0000
0000
,  // measure 4
0100
0000
0001
0000
1000
0000
0010
0100
0010
0000
1000
0000
0001
0000
0000
0000
,  // measure 5
1000
0000
0100
0010
0001
0000
1000
0001
1000
0000
0010
0000
0100
0000
0000
0000
,  // measure 6
0001
0000
0100
0000
0010
0000
1000
0100
1000
0000
0010
0000
0100
0000
0000
0000
,  // measure 7
0001
1000
0010
1000
1002
0000
0103
0000
,  // measure 8
0010
0000
0100
0000
0001
0000
1000
0100
1000
0000
0001
0000
0010
0000
0000
0000
,  // measure 9
0001
0000
1000
0100
0010
0000
0001
1000
0001
0000
0100
0000
0010
0000
1000
0000
,  // measure 10
0100
0000
0010
0000
0000
0000
0010
0001
1000
0000
0000
0000
1001
0000
0000
0000
,  // measure 11
0010
1000
0000
1000
0100
0010
0001
0000
1000
0000
0100
0000
0001
0000
0100
0000
,  // measure 12
1000
0000
0010
0000
0000
0000
0010
0100
0001
0000
0000
0000
1001
0000
0000
0000
,  // measure 13
0100
0001
0000
0001
0010
0100
1000
0000
0001
0000
0010
0000
1000
0000
0010
0000
,  // measure 14
0001
0000
1000
0000
0100
0000
1000
0001
1000
0000
0010
0000
0100
0000
0001
0000
,  // measure 15
1000
0010
0000
1000
0100
1000
0100
0000
0010
0000
0001
0000
1000
0000
0010
0000
,  // measure 16
0100
0000
0001
0000
1000
0000
0100
0010
0100
0000
1000
0000
0001
0000
0100
0000
,  // measure 17
0010
1000
0000
0001
1000
0001
1000
0000
0110
0000
0101
0000
1001
0000
0000
0000
,  // measure 18
0100
1000
0010
0100
0001
1000
0010
0000
,  // measure 19
1000
0100
1000
0001
0010
0100
1000
0001
0100
0010
0000
0000
0000
0000
0000
0000
,  // measure 20
0100
0000
0001
1000
0000
0000
0010
1000
0100
0010
0001
1000
0000
0000
0000
0000
,  // measure 21
0010
1000
0100
0010
0001
1000
0010
0000
,  // measure 22
0100
0000
0001
0000
1000
0100
0010
0000
0100
0000
0010
0000
0001
0000
0000
0000
,  // measure 23
1000
0001
0100
0001
0100
0010
0000
1000
0100
1000
0100
0010
0000
0000
0001
1000
,  // measure 24
0001
0000
0100
0010
0000
0000
1000
0100
0010
0001
1000
0010
0000
0000
0100
0000
,  // measure 25
0010
2000
0002
0000
0000
0000
0000
0000
,  // measure 26
0000
0000
0000
0000
0000
0000
0000
0000
3003
0000
0000
0010
0100
0000
0001
0000
,  // measure 27
2000
0000
0100
0000
3010
0000
1000
0100
1000
0000
0010
0000
0100
0000
0001
0000
,  // measure 28
1000
0100
0010
0001
1000
0000
0001
0000
1000
0000
0010
0000
0100
0000
0001
0000
,  // measure 29
0010
0000
0100
0000
0010
0000
0001
1000
0001
0000
0100
0000
0010
0000
1000
0000
,  // measure 30
0001
0010
0100
1000
0001
0000
1000
0100
1000
0000
0001
0000
0100
0000
0000
0000
,  // measure 31
0002
0000
0010
0000
0103
0000
0001
0010
0001
0000
0100
0000
0010
0000
1000
0000
,  // measure 32
0001
0010
0100
1000
0001
0000
1000
0000
0001
0000
0100
0000
0010
0000
1000
0000
,  // measure 33
0100
0000
0010
0000
0100
0000
1000
0001
1000
0000
0010
0000
0100
0000
0001
0000
,  // measure 34
1000
0100
0010
0001
1000
0000
0001
0010
0001
0000
1000
0000
0010
0000
0200
0000
,  // measure 35
0000
0000
0301
1000
0100
0010
0001
1000
0010
0100
0001
0010
0100
1000
0001
0100
,  // measure 36
0010
1000
0001
0010
0100
0010
0001
1000
0010
0100
0001
0010
0100
1000
0001
0100
,  // measure 37
0010
0000
0000
1000
0100
1000
0010
0100
0001
0010
0100
0000
1000
0000
0000
0001
,  // measure 38
0000
0000
0000
0100
0010
1000
0001
1000
0100
0010
0001
1000
0010
0100
0001
1000
,  // measure 39
0010
0000
0100
0000
0000
0001
0000
0000
1000
0000
0100
1000
0100
0010
0001
0000
,  // measure 40
1000
0001
1000
0001
0100
0010
1000
0100
0010
0001
1000
0010
0100
0001
1000
0100
,  // measure 41
0000
0010
0000
0001
0000
1000
0000
0010
0000
0100
0000
0001
0000
1000
0100
0010
,  // measure 42
0001
1000
0010
0000
0000
0000
0100
0001
0010
0000
0000
0000
0100
1000
0002
0000
,  // measure 43
0000
0100
0000
0103
,  // measure 44
0010
1000
0000
1000
0100
0010
0001
0000
0100
0000
0010
0000
0100
0000
0001
0000
,  // measure 45
2000
0010
0000
3010
,  // measure 46
0100
0001
0000
0001
0010
0100
1000
0000
0010
0000
0100
0000
0010
0000
1000
0000
,  // measure 47
0001
0010
0000
0001
0000
1000
0000
0010
,  // measure 48
0000
0100
0000
0001
0000
1000
0100
0010
,  // measure 49
0000
0001
0000
1000
0000
0010
0000
0100
,  // measure 50
0001
0010
0000
0010
0100
0010
0100
0000
1000
0010
0000
0010
0100
0010
0100
0000
,  // measure 51
0001
0010
0000
0010
0100
0010
0100
0000
2000
0000
0000
0000
3200
0000
0000
0000
,  // measure 52
0320
0032
2003
0000
,  // measure 53
0000
0000
0000
0000
,  // measure 54
3000
0000
0000
0000
0000
0010
0100
0000
0000
1001
0000
0000
,  // measure 55
0000
0000
0000
0000
0000
0100
0010
0000
0000
1001
0000
0000
,  // measure 56
0000
0000
0000
0000
0000
0100
0010
0000
0000
1001
0000
0000
,  // measure 57
0000
0000
0000
0000
0000
0010
0100
0000
0000
1001
0000
0000
,  // measure 58
0000
0000
0000
0000
0000
0000
0000
0000
0000
0000
0100
0000
0010
0000
0000
0000
0000
0000
1001
0000
0000
0202
0000
0000
,  // measure 59
0000
0000
0000
0000
0000
0303
0000
0000
;

//---------------dance-double - ----------------
#NOTEDATA:;
#CHARTNAME:;
#STEPSTYPE:dance-double;
#DESCRIPTION:;
#CHARTSTYLE:;
#DIFFICULTY:Challenge;
#METER:8;
#RADARVALUES:0.487169,0.539717,0.165009,0.192510,0.100839,333.000000,18.000000,21.000000,0.000000,0.000000,0.000000,0.000000,0.000000,0.487169,0.539717,0.165009,0.192510,0.100839,333.000000,18.000000,21.000000,0.000000,0.000000,0.000000,0.000000,0.000000;
#CREDIT:Ben Speirs;
#NOTES:
00000000
00000000
00000000
00000000
,
00000000
00000000
00000000
00000000
,
00000000
00000000
00000000
00000000
,
00000000
00000000
00000000
00000000
,
10000000
00100000
20000000
00000000
30010000
00000000
00100000
00000000
,
00010000
00000000
00000000
00010000
10000000
00000000
00000000
00000000
00100000
00000000
01000000
00000000
00010000
00000000
00100000
00000000
,
00002000
00013000
00101000
00010010
,
00001000
00000010
00000100
00000001
00002001
00000000
00003010
00000000
,
00000001
00000100
00000002
00000000
00001003
00000000
00000100
00000000
,
00001000
00000000
00000000
00001000
00000001
00000000
00000000
00000000
00000100
00000000
00000010
00000000
00001000
00000000
00000100
00000000
,
00020000
00000000
00000000
00000100
00000100
00000100
00030000
00000000
,
00000100
00010000
00001000
00100000
00010000
00010000
00100000
00001000
,
00002000
00000000
00000000
00100000
00100000
00100000
00003000
00000000
,
00100000
00001000
00010000
00000100
00001000
00001000
00000100
00010000
,
00020000
00230000
20300000
32000000
,
03100000
00010000
10000000
00100000
01000000
00010000
00100000
00001000
,
00020000
00032000
00003200
00000302
,
00001003
00000100
00000010
00000001
00001000
00001000
00000001
00000000
,
00000101
00000000
00001100
00000000
00000001
00000010
00000100
00000000
,
00001000
00000100
00010000
00001000
00100000
00010000
10000000
00000000
,
00100000
10000000
00010000
00000000
00100000
00010000
10000000
00000000
,
10000000
01000000
00010000
00000000
00001000
00000100
00000001
00000000
,
00001000
00000100
00010000
00001000
00100000
00100000
00100000
00000000
,
00010000
00100000
01000000
10000000
00100000
01000000
00010000
00000000
,
10000000
01000000
00010000
00000000
00001000
00000100
00000001
00000000
,
00010000
00001000
00022000
00000000
00000000
00000000
00000000
00000000
,
00000000
00000000
00000000
00000000
00000000
00000000
00000000
00000000
00033000
00000000
00000000
00010000
00001000
00000000
00010000
00000000
,
00000100
00000000
00001000
00000000
00000010
00000000
00001000
00000100
00001000
00000000
00000010
00000000
00000100
00000000
00000001
00000000
,
00001000
00000010
00000001
00000010
00001000
00000100
00000010
00000001
,
00001000
00000000
00000010
00000000
00000100
00000000
00000010
00001000
00000010
00000000
00000100
00000000
00000001
00000000
00001000
00000000
,
00000100
00000000
00000000
00000100
00010000
00000000
00001000
00000000
00010000
00000000
00100000
00000000
10000000
00000000
00010000
00000000
,
00100000
00000000
00010000
00000000
01000000
00000000
00010000
00100000
00010000
00000000
01000000
00000000
00100000
00000000
10000000
00000000
,
00010000
01000000
10000000
01000000
00010000
00100000
01000000
10000000
,
00010000
00000000
01000000
00000000
00100000
00000000
01000000
00010000
01000000
00000000
00100000
00000000
10000000
00000000
00010000
00000000
,
00100000
00000000
00000000
00100000
00001000
00000000
00010000
00000000
00001000
00000000
00000100
00000000
00000001
00000000
00002000
00000000
,
00000000
00003001
00000010
00000100
00001000
00000010
00000001
00000010
,
00001000
00000100
00010000
00001000
00010000
00100000
10000000
01000000
,
00010000
01000000
10000000
00100000
00010000
00001000
00000010
00000001
,
00001000
00000100
00000010
00000001
00000100
00000010
00001000
00000000
,
00000001
00000100
00001000
00000100
00000001
00000010
00001000
00000010
,
00000001
00000100
00001000
00010000
00001000
00010000
00100000
10000000
,
01000000
00100000
00010000
10000000
00100000
01000000
00100000
10000000
,
00010000
01000000
00020000
00000000
00000000
00000000
10030000
01000000
20000000
00000000
00000000
00000000
30010000
00000000
00000000
00000000
,
02010000
00000000
00000000
10000000
00100000
03010000
00000000
00000000
,
10000000
01000000
00010000
00001000
00000100
00000001
00001000
00000000
,
00000201
00000000
00000000
00001000
00000010
00000301
00000000
00000000
,
00001000
00000100
00000010
00000001
00000100
00000010
00001000
00000000
,
00000100
00001000
00000000
00000010
00000000
00000100
00000000
00000001
,
00000000
00001000
00000000
00000100
00000000
00010000
00000000
00001000
,
00000000
00100000
00000000
00010000
00000000
10000000
00000000
00100000
,
01000000
00010000
00000000
00010000
10000000
00000000
00000000
00000000
01000000
10000000
00000000
10000000
00010000
00000000
00000000
00000000
,
00100000
00010000
00000000
00010000
10000000
00000000
00000000
00000000
10100000
00000000
00000000
00000000
00110000
00000000
00000000
00000000
,
00011000
00001010
00001001
00000000
,
00000000
00000000
00000000
00000000
,
00000100
00000000
00000000
00000000
00000000
00001000
00000100
00000000
00000000
00001100
00000000
00000000
,
00000001
00000000
00000000
00000000
00000000
00000100
00000001
00000000
00000000
00000101
00000000
00000000
,
00010000
00000000
00000000
00000000
00000000
00001000
00010000
00000000
00000000
00011000
00000000
00000000
,
00100000
00000000
00000000
00000000
00000000
00010000
00100000
00000000
00000000
00110000
00000000
00000000
,
10000000
00000000
00000000
00000000
00000000
00000000
00000000
00000000
00000000
00000000
00100000
00000000
10000000
00000000
00000000
00000000
00000000
00000000
10100000
00000000
00000000
00010000
00000000
00000000
;
