#VERSION:0.83;
#TITLE:Boss Mode;
#SUBTITLE:;
#ARTIST:Knife Party;
#TITLETRANSLIT:;
#SUBTITLETRANSLIT:;
#ARTISTTRANSLIT:;
#GENRE:;
#ORIGIN:;
#CREDIT:;
#BANNER:Boss Mode.png;
#BACKGROUND:Boss Mode-bg.png;
#PREVIEWVID:;
#JACKET:jacket.png;
#CDIMAGE:;
#DISCIMAGE:;
#LYRICSPATH:;
#CDTITLE:;
#MUSIC:Boss Mode.ogg;
#OFFSET:-1.930000;
#SAMPLESTART:56.462948;
#SAMPLELENGTH:14.694003;
#SELECTABLE:YES;
#BPMS:0.000=87.980;
#STOPS:;
#DELAYS:;
#WARPS:;
#TIMESIGNATURES:0.000=4=4;
#TICKCOUNTS:0.000=4;
#COMBOS:0.000=1;
#SPEEDS:0.000=1.000=0.000=0;
#SCROLLS:0.000=1.000;
#FAKES:;
#LABELS:0.000=Song Start;
#BGCHANGES:;
#KEYSOUNDS:;
#ATTACKS:
;

//---------------dance-single - ----------------
#NOTEDATA:;
#CHARTNAME:;
#STEPSTYPE:dance-single;
#DESCRIPTION:;
#CHARTSTYLE:;
#DIFFICULTY:Hard;
#METER:8;
#RADARVALUES:0.477031,0.509670,0.334759,0.066952,0.418449,399.000000,359.000000,40.000000,8.000000,0.000000,0.000000,0.000000,0.000000,0.000000,0.477031,0.509670,0.334759,0.066952,0.418449,399.000000,359.000000,40.000000,8.000000,0.000000,0.000000,0.000000,0.000000,0.000000;
#CREDIT:Ben Speirs;
#NOTES:
0000
0000
0000
0000
,
0000
0000
0000
0000
,
0011
0000
0000
0000
1000
0100
0000
0000
1000
0000
0001
0000
0100
0001
1000
0010
,
0000
0000
1010
0000
0000
1100
0000
0000
0000
0000
0011
0000
0000
0101
0000
0000
,
2001
0000
0000
0000
0001
0000
0010
0000
3010
0000
0000
0000
1000
0010
1000
0001
,
0020
0000
0000
0000
0001
0000
0100
0000
0130
0000
0000
0000
0010
0001
1000
0001
,
0200
0000
0000
0000
0001
0000
0010
0000
0310
0000
0000
0000
0100
0001
1000
0001
,
1000
0000
0100
0000
0010
0000
0110
0000
1001
0000
0000
1000
0001
0100
0000
0000
,
1002
0000
0000
0000
1000
0000
0100
0000
0103
0000
0000
0000
0001
0100
0001
1000
,
0200
0000
0000
0000
1000
0000
0010
0000
0310
0000
0000
0000
0100
1000
0001
1000
,
0020
0000
0000
0000
1000
0000
0100
0000
0130
0000
0000
0000
0010
1000
0001
1000
,
0001
0000
0010
0000
0100
0000
0110
0000
1001
0001
1000
0001
0100
0100
0010
1000
,
0001
0000
0000
0100
0100
0000
0000
0000
0001
0000
1000
0000
0010
0000
0000
0000
,
1000
0000
0000
0100
0100
0000
0000
0000
1000
0000
0100
0000
0010
0000
0000
0000
,
0001
0000
0000
0100
0100
0000
0000
0000
0001
0000
1000
0000
0010
0000
0000
0000
,
1000
0000
0000
0001
0001
0000
0000
0000
1000
0000
0001
0000
0100
0000
0000
0000
,
0001
0000
0100
0010
1000
0000
0001
0000
1000
0000
0100
0010
0001
0000
0000
0000
,
1000
0000
0100
0010
0001
0000
1000
0000
0001
0000
0100
0010
1000
0000
0000
0000
,
0001
0100
0001
0000
1000
0100
1000
0000
0001
0010
0001
0000
1000
0010
1000
0000
,
0001
0010
0100
1000
0010
0100
0001
1000
0100
0010
0001
1000
0010
0100
0000
0000
,
0101
0100
0010
0100
0001
0000
1000
0000
0001
0000
0010
0000
0100
0010
0001
0000
,
1000
0000
0000
0001
1000
0100
0010
0000
0001
0000
1000
0100
1000
0001
0100
0000
,
0001
0001
0100
0010
0010
0000
0100
0000
0001
0000
1000
0000
0010
1000
0001
0000
,
1000
0000
0000
0001
1000
0001
0100
0000
0001
0000
1000
1000
0100
1000
0001
0000
,
0100
0000
0000
0010
0100
0000
0001
0100
0001
0000
0101
0000
1100
0000
0000
0000
,
0001
0000
0000
1000
0100
0000
1000
0010
1000
0000
1010
0000
0011
0000
0000
0000
,
0000
0000
0000
1000
0100
0010
0001
0000
1000
0000
0001
0000
0100
0001
1000
0000
,
0010
0000
0000
0100
0100
0010
0100
0000
0001
0000
1000
0010
0001
0010
1000
0000
,
0001
1000
0001
1000
0100
0000
1000
0000
0001
0000
0010
0000
0001
1000
0001
0000
,
0100
0000
0000
0010
0010
0100
0001
0000
1000
0000
0001
0010
1000
0010
0001
0000
,
0200
0000
0000
0010
0010
0000
0001
0000
0000
0000
0010
0000
0010
0000
0000
0000
,
0320
0000
0000
0100
0100
0000
1000
0000
0000
0000
0100
0000
0130
0000
0000
0000
,
1001
0000
1000
0100
0010
0000
0110
0000
0010
0001
0100
0000
0101
0000
1000
0000
,
0101
0000
0100
0001
1000
0000
1010
0000
0010
1000
0100
0000
1100
0000
0001
0000
,
1100
0000
0100
0010
0001
0000
0011
0000
1000
0010
0100
0000
0110
0000
0001
0000
,
0110
0000
0010
1000
0100
0000
1100
0000
0100
0010
0001
0000
0011
0000
1000
0001
,
1000
0000
1100
1001
0000
0101
1001
0000
,
0010
0000
1010
1001
0000
0011
1001
0000
,
0001
0100
0010
0100
0001
0000
1000
0000
0001
1000
0100
1000
0001
0000
0000
0000
,
1000
0100
0010
0100
1000
0000
0001
0000
1000
0010
0100
0010
1000
0000
0000
0000
,
0010
1000
0001
1000
0010
0000
0100
0000
0010
1000
0001
1000
0010
0000
0000
0000
,
1000
0100
1100
0000
0101
0000
1000
0000
0001
0010
0100
1000
0001
0000
0101
0000
,
1010
0000
0000
0000
;

//---------------dance-single - ----------------
#NOTEDATA:;
#CHARTNAME:;
#STEPSTYPE:dance-single;
#DESCRIPTION:;
#CHARTSTYLE:;
#DIFFICULTY:Challenge;
#METER:9;
#RADARVALUES:0.627673,0.579970,0.426818,0.100428,0.782499,525.000000,474.000000,51.000000,12.000000,0.000000,0.000000,0.000000,0.000000,0.000000,0.627673,0.579970,0.426818,0.100428,0.782499,525.000000,474.000000,51.000000,12.000000,0.000000,0.000000,0.000000,0.000000,0.000000;
#CREDIT:Ben Speirs;
#NOTES:
0000
0000
0000
0000
,
0000
0000
0000
0000
,
1010
0000
0002
0000
0013
0001
1000
0000
0001
0000
0100
0000
0010
0100
0001
1000
,
0010
0000
1010
0000
0000
1100
0000
0000
0010
0000
0011
0000
0000
0101
0000
0000
,
1001
0000
1000
0100
0010
0000
0110
0000
0011
0000
1000
0000
0001
0010
0100
1000
,
0001
0000
1000
0010
0100
0000
0110
0000
1010
0000
0001
0000
1000
0010
0100
0001
,
1000
0000
0001
0100
0001
0000
0101
0000
1100
0000
0001
0000
1000
0100
0010
0001
,
0100
0000
0010
0100
0010
0000
0110
0000
1001
0000
0000
0001
1000
0020
0000
0000
,
0130
0001
0100
0001
0100
0001
1000
0001
1000
0001
0100
0001
1000
0100
0010
0001
,
1000
0010
1000
0010
1000
0010
0100
0010
0100
0010
1000
0010
1000
0100
0010
0001
,
1000
0001
1000
0001
1000
0001
0100
0001
0100
0001
1000
0001
1000
0100
0010
0001
,
0100
0001
0100
0001
0100
0001
0010
0001
0010
0001
0100
0001
0010
0100
1000
0001
,
0200
0000
0000
0010
0310
0000
0000
0000
0110
0000
0110
0000
1001
0000
0000
0000
,
2000
0000
0000
0100
3100
0000
0000
0000
1100
0000
0110
0000
0011
0000
0000
0000
,
0002
0000
0000
1000
0000
0000
0100
0000
0103
0000
0000
0000
0000
0000
0000
0000
0101
0000
0000
0000
0101
0000
0000
0000
1001
0000
0000
0000
0000
0000
0000
0000
,
2000
0000
0000
0001
0000
0000
0010
0000
3010
0000
0000
0000
0000
0000
0000
0000
1000
0000
0000
0000
0001
0000
0100
0000
1001
0000
0000
0000
0000
0000
0000
0000
,
0001
0100
0010
1000
0100
0010
0001
1000
0010
0100
0001
1000
0100
1000
0010
0100
,
0010
0100
0001
0010
0100
1000
0001
0100
0010
1000
0001
0010
0100
0010
0100
0010
,
0001
0001
0010
0010
0100
0100
1000
1000
0010
0010
0100
0100
0001
0001
1000
1000
,
0010
0100
0000
0000
0010
0100
0000
0000
0001
0010
0000
0000
0001
0010
0000
0000
0100
1000
0000
0000
0100
1000
0000
0000
0001
0100
0000
0000
0020
0000
0000
0000
,
1030
0100
0001
0100
1000
0001
0200
0000
0320
0000
0130
0001
0100
0010
1000
0000
,
1001
0000
0001
0001
0010
0001
1000
0000
0001
1000
0010
0010
0100
0100
0001
0000
,
0100
0010
0100
0001
2000
0000
3010
1000
0002
0000
0013
0000
0001
1000
0100
0000
,
1100
0000
0000
0100
1000
0001
1000
0001
0100
0000
0001
0001
1000
0010
0100
0001
,
1000
0000
0000
0001
0000
0000
0100
0000
0100
0000
0000
0000
0010
0000
0000
0000
0110
0000
0000
0000
0110
0000
0000
0000
1001
0000
0000
0000
0000
0000
0000
0000
,
0001
0000
0000
1000
0000
0000
0100
0000
0100
0000
0000
0000
0010
0000
0000
0000
0110
0000
0000
0000
0110
0000
0000
0000
1001
0000
0000
0000
0000
0000
0000
0000
,
0000
0000
0000
0011
0010
0100
1000
0001
1000
0001
0100
0100
0001
1000
0010
0000
,
2000
0000
3010
1000
0100
1000
0001
0010
0001
0000
0100
0100
0001
1000
0001
0000
,
0100
0010
0100
0001
1000
0000
0010
1000
0001
0000
0010
0000
0001
1000
0100
0000
,
1000
0000
0100
0010
0100
0010
0001
1000
0001
1000
0010
0010
0100
0100
0001
0000
,
0101
0000
0000
0100
0000
0000
0010
0000
1000
0000
0000
0000
0100
0000
0000
0000
1100
0000
0000
0000
0110
0000
0000
0000
0011
0000
0000
0000
1000
0000
0000
0000
,
1010
0000
0000
0010
0000
0000
0100
0000
0001
0000
0000
0000
1000
0000
0000
0000
1100
0000
0000
0000
0110
0000
0000
0000
0011
0000
0000
0000
0000
0000
0000
0000
,
0001
0010
0100
0010
0001
0000
1000
0100
0010
0100
1000
0000
0001
1000
0010
0000
,
1000
0010
0100
0010
1000
0000
0010
1000
0100
1000
0001
0000
1000
0100
0010
0000
,
0001
0010
0100
1000
0010
0100
0001
1000
0010
0100
0001
1000
0010
0010
0100
0000
,
0001
0100
0010
1000
0100
0010
0001
1000
0010
0100
0001
1000
0100
0100
1000
0000
,
1100
0000
0100
1000
0001
1000
0001
0000
0100
0001
1000
0001
1000
0000
1001
0000
,
0101
0000
0100
0001
1000
0001
1000
0000
0100
1000
0001
1000
0001
0000
1001
0000
,
0101
0000
0000
0100
0000
0000
0010
0000
1000
0000
0001
0000
1000
0000
0000
0000
0001
0000
0000
1000
0000
0000
0100
0000
0100
0000
0000
0000
1000
0000
0000
0000
,
0010
0000
0000
0100
0000
0000
0010
0000
0010
0000
1000
0000
0100
0000
0000
0000
1000
0000
0000
0100
0000
0000
0010
0000
0001
0000
0000
0000
1000
0000
0000
0000
,
0001
0000
0000
0100
0000
0000
0010
0000
0010
0000
0100
0000
0001
0000
0000
0000
0100
0000
0000
0001
0000
0000
1000
0000
1000
0000
0000
0000
0010
0000
0000
0000
,
1000
0100
1100
0000
1001
0000
0011
0000
0001
1000
0010
0100
0001
0100
0110
0000
,
1001
0000
0000
0000
;

//---------------dance-double - ----------------
#NOTEDATA:;
#CHARTNAME:;
#STEPSTYPE:dance-double;
#DESCRIPTION:;
#CHARTSTYLE:;
#DIFFICULTY:Challenge;
#METER:8;
#RADARVALUES:0.504529,0.579970,0.535614,0.150641,0.376604,422.000000,358.000000,64.000000,18.000000,0.000000,0.000000,0.000000,0.000000,0.000000,0.504529,0.579970,0.535614,0.150641,0.376604,422.000000,358.000000,64.000000,18.000000,0.000000,0.000000,0.000000,0.000000,0.000000;
#CREDIT:Ben Speirs;
#NOTES:
00000000
00000000
00000000
00000000
,
00000000
00000000
00000000
00000000
,
11000000
00000000
00000000
00000000
00010000
00000000
01000000
00000000
01000000
00000000
00100000
00000000
10000000
01000000
00100000
00010000
,
00000000
00000000
11000000
00000000
00000000
01010000
00000000
00000000
00000000
00000000
00001100
00000000
00000000
00000101
00000000
00000000
,
00002001
00000000
00000000
00000000
00000001
00000000
00000010
00000000
00003010
00000000
00001000
00000000
00000001
00000010
00000100
00001000
,
00000002
00000000
00000000
00000000
00001000
00000000
00000100
00000000
00000100
00000003
00000001
00000000
00001000
00000100
00010000
00001000
,
00200000
00000000
00000000
00000000
00010000
00000000
01000000
00000000
01300000
00000000
00100000
00000000
00010000
00100000
01000000
10000000
,
00020000
00000000
00000000
00000000
01000000
00000000
10000000
00000000
10000000
00030000
00010000
10000000
00100000
02000000
00000000
00000000
,
03002000
00000000
00000000
00000000
00013000
00000000
00011000
00000000
00000100
00000000
00001000
00000000
00000010
00000100
00000001
00001000
,
00000020
00000000
00000000
00000000
00000130
00000000
00000110
00000000
00000002
00000000
00000103
00000000
00000010
00001000
00000100
00000010
,
00000002
00000000
00000000
00000000
00001003
00000000
00001100
00000000
00002000
00000000
00003001
00000000
00001000
00000100
00010000
00001000
,
00020000
00000000
00000000
00000000
00031000
00000000
00101000
00000000
00100000
00000000
00020000
00000000
01030000
00010000
10000000
00000000
,
00200000
00000000
00000000
01300000
00010000
00000000
00000000
00000000
01010000
00000000
00011000
00000000
00001100
00000000
00000000
00000000
,
00000001
00000000
00001000
00000100
00000010
00000000
00000001
00001000
00000010
00000000
00000100
00000000
00000001
00000000
00000000
00000000
,
00000101
00000000
00000000
00001000
00000100
00000000
00000000
00000000
00001100
00000000
00011000
00000000
01010000
00000000
00000000
00000000
,
01000000
00000000
00010000
10000000
01000000
00000000
00000000
00000000
11000000
00000000
01010000
00000000
10010000
00000000
00000000
00000000
,
00010000
10000000
01000000
10000000
00010000
10000000
01000000
00000000
10000000
00010000
01000000
00000000
01001000
00000000
00010100
00000000
,
00000100
00001000
00000001
00001000
00000100
00001000
00000001
00000000
00000100
00000001
00001000
00000000
00010010
00000000
00011000
00000000
,
00001000
00100000
00010000
00100000
00010000
00100000
00010000
00100000
00001000
00010000
00000010
00001000
00000010
00001000
00000010
00001000
,
00000001
00000010
00000100
00001000
00000010
00000100
00001000
00010000
00100000
10000000
01000000
00100000
00010000
00000000
00000000
00000000
,
11000000
00000000
00010000
10000000
01000000
00100000
00010000
00000000
01000000
00100000
01000000
00000000
00010000
00100000
00001000
00000000
,
00020000
00000000
00031000
00010000
00000100
00001000
00000001
00000000
00001000
00000000
00000010
00000010
00000100
00000001
00001000
00000000
,
00000001
00000010
00000100
00000010
00000001
00000000
00000100
00000000
00000010
00000000
00001000
00000000
00000100
00010000
00001000
00000000
,
00010000
00000000
00001000
00100000
00010000
00000000
01000000
00000000
00010000
00010000
10000000
00000000
10000000
00100000
01000000
00000000
,
00020000
00000000
00000000
01030000
00100000
00000000
00000000
00000000
10100000
00000000
01010000
00000000
10010000
00000000
00000000
00000000
,
20000000
00000000
00000000
31000000
10000000
00000000
00000000
00000000
11000000
00000000
01010000
00000000
01001000
00000000
00000000
00000000
,
00000000
00000000
00000000
00000000
00001001
00000000
00000101
00000000
00001010
00000000
00001001
00000000
00001000
00000100
00000010
00000000
,
00000001
00000010
00000100
00000010
00000001
00001000
00000010
00000000
00000100
00000000
00000010
00000010
00001000
00000100
00010000
00000000
,
00011000
00000000
00001000
00010000
00001000
00000000
00100000
00000000
00010000
00000000
01000000
00000000
00100000
10000000
01000000
00000000
,
10000000
10000000
01000000
00100000
00010000
00010000
10000000
00000000
00010000
00000000
01000000
01000000
00010000
10000000
00100000
00000000
,
20100000
00000000
00010000
00000000
01000000
00010000
30001000
00000000
,
00021000
00000000
00000100
00000000
00001000
00000100
00030001
00000000
,
00001001
00000000
00000101
00001001
00000100
00001100
00000101
00001000
,
00001010
00000000
00000001
00001000
00000100
00000000
00001100
00000000
00010000
00000000
00001000
00100000
00010000
00000000
00000000
00000000
,
01010000
00000000
01000000
00100000
10000000
00000000
00010000
00000000
10000000
00000000
01000000
00100000
00010000
00000000
01000000
00010000
,
01000000
00000000
00010000
01000000
00001000
00000000
00010000
00000000
00000100
00001000
00000010
00000000
00000100
00000000
00000000
00000000
,
00001010
00000000
00010100
00011000
00000000
00101000
00011000
00000000
,
00010100
00000000
00011000
01001000
00000000
00011000
00010100
00000000
,
00100010
00000000
00000000
00000000
00110000
00000000
00010000
10000000
01000000
00000000
10000000
00010000
01000000
00000000
00000000
00000000
,
10010000
00000000
00010000
10000000
01000000
00000000
10000000
00100000
01000000
00000000
00100000
01000000
00010000
00000000
00000000
00000000
,
01010000
00000000
00010000
01000000
00001000
00000000
00010000
00000000
00000100
00000000
00001000
00000010
00000100
00000000
00000000
00000000
,
00000001
00000010
00000011
00000000
00001100
00000000
00000001
00000000
00000100
00000000
00000010
00000000
00001000
00000000
00001100
00000000
,
00110000
00000000
00000000
00000000
;

//---------------dance-single - ----------------
#NOTEDATA:;
#CHARTNAME:;
#STEPSTYPE:dance-single;
#DESCRIPTION:;
#CHARTSTYLE:;
#DIFFICULTY:Medium;
#METER:4;
#RADARVALUES:0.249874,0.298772,0.083690,0.217593,0.008369,209.000000,199.000000,10.000000,26.000000,0.000000,0.000000,0.000000,0.000000,0.000000,0.249874,0.298772,0.083690,0.217593,0.008369,209.000000,199.000000,10.000000,26.000000,0.000000,0.000000,0.000000,0.000000,0.000000;
#CREDIT:Ben Speirs;
#NOTES:
0000
0000
0000
0000
,
0000
0000
0000
0000
,
1001
0000
1000
0000
0010
0000
0010
0100
,
0000
0000
0001
0000
0000
0001
0000
0000
0000
0000
1000
0000
0000
1000
0000
0000
,
0200
0000
0300
0010
0010
0000
0001
1000
,
0020
0000
0030
1000
1000
0000
0010
1000
,
0002
0000
0003
0010
0010
0000
0001
1000
,
2000
0000
3000
0100
0100
0000
1001
0000
,
2000
0000
3010
0000
1000
0000
0100
0010
,
0002
0000
0103
0000
0001
0000
0100
0001
,
2000
0000
3010
0000
1000
0000
0010
1000
,
0002
0000
0103
0000
0001
1000
0100
0010
,
0002
0000
0000
0003
0100
0000
0000
0000
2000
0000
0000
0000
3000
0000
0000
0000
,
2000
3100
0002
0003
,
0002
0013
2000
3000
,
2000
3010
0002
0003
,
1000
0100
1000
0100
0010
0010
0010
0000
,
0001
0100
0001
0100
0010
0010
0010
0000
,
1000
1000
0001
0001
0100
0100
0010
0010
,
1000
0100
0010
0001
0100
0010
1000
0000
,
0102
0000
1003
0000
0001
0100
0001
0000
,
2000
0000
3100
0000
1000
0001
1000
0000
,
0002
0000
0103
0000
0100
0010
0100
0000
,
0002
0000
0000
0000
0013
0000
0000
0000
0002
0000
0000
0003
1000
0000
0000
0000
,
2000
0000
3100
0000
1000
0001
1000
0000
,
0002
0000
0103
0000
0001
1000
0001
0000
,
2010
0000
3001
0000
1000
0100
1000
0000
,
0001
0000
1000
0000
0010
0100
0010
0000
,
2000
0000
3100
0000
1000
0001
1000
0000
,
0002
0000
0103
0000
0001
1000
0001
0000
,
0101
0000
1100
0000
0010
0010
0010
0000
,
1100
0000
0101
0000
0010
0010
0010
0000
,
1001
0000
0000
0001
0000
0100
0100
0000
,
0010
0000
0000
1000
0000
0100
0100
0000
,
1000
0000
0000
0001
0000
0100
0001
0000
,
0100
0000
0000
0001
0000
1000
0100
0000
,
1000
0000
0100
0100
0000
0010
0010
0000
,
0001
0000
1000
1000
0000
0010
0010
0000
,
0100
0001
0100
0000
0010
0000
0010
0000
,
1000
0100
1000
0000
0001
0000
0001
0000
,
1000
0010
1000
0000
0001
0000
0001
0000
,
0100
0010
0100
0001
1000
0100
0010
0100
,
1001
0000
0000
0000
;

//---------------dance-single - ----------------
#NOTEDATA:;
#CHARTNAME:;
#STEPSTYPE:dance-single;
#DESCRIPTION:;
#CHARTSTYLE:;
#DIFFICULTY:Easy;
#METER:2;
#RADARVALUES:0.139881,0.158174,0.050214,0.125535,0.000000,117.000000,111.000000,6.000000,15.000000,0.000000,0.000000,0.000000,0.000000,0.000000,0.139881,0.158174,0.050214,0.125535,0.000000,117.000000,111.000000,6.000000,15.000000,0.000000,0.000000,0.000000,0.000000,0.000000;
#CREDIT:Ben Speirs;
#NOTES:
// measure 0
0000
0000
0000
0000
,  // measure 1
0000
0000
0000
0000
,  // measure 2
0010
1000
0001
0000
,  // measure 3
0020
0000
0030
0000
,  // measure 4
0002
0003
0001
1000
,  // measure 5
0020
0030
1000
0100
,  // measure 6
0020
0030
0001
1000
,  // measure 7
2000
3000
0010
0100
,  // measure 8
0002
0003
0100
0100
,  // measure 9
0020
0030
1000
1000
,  // measure 10
0200
0300
1000
1000
,  // measure 11
0002
0003
0100
0001
,  // measure 12
2000
3000
0001
0000
,  // measure 13
0002
0003
1000
0000
,  // measure 14
2000
3000
0001
0000
,  // measure 15
0002
0003
1000
0000
,  // measure 16
0001
0001
0100
0100
,  // measure 17
0010
0010
1000
1000
,  // measure 18
0100
0100
0010
0010
,  // measure 19
0001
1000
0001
0000
,  // measure 20
1001
0000
1000
0100
,  // measure 21
0010
0000
0001
1000
,  // measure 22
0010
0000
1000
0100
,  // measure 23
1000
0000
0001
1000
,  // measure 24
0010
0000
0100
0000
,  // measure 25
0001
0000
1000
0000
,  // measure 26
1001
0000
0001
0010
,  // measure 27
0100
0000
1000
0001
,  // measure 28
0100
0000
0001
1000
,  // measure 29
0010
0000
1000
0100
,  // measure 30
0200
0300
0010
0000
,  // measure 31
0020
0030
0010
0000
,  // measure 32
1001
0000
0001
1000
,  // measure 33
0010
0000
1000
0100
,  // measure 34
1000
0000
1000
0001
,  // measure 35
0100
0000
0001
1000
,  // measure 36
0001
0000
0000
0100
,  // measure 37
1001
0000
0000
0010
,  // measure 38
1001
0000
1000
0000
,  // measure 39
0100
0100
0010
0000
,  // measure 40
0001
0000
1000
0000
,  // measure 41
0010
0010
0100
0001
,  // measure 42
1001
0000
0000
0000
;

//---------------dance-single - ----------------
#NOTEDATA:;
#CHARTNAME:;
#STEPSTYPE:dance-single;
#DESCRIPTION:;
#CHARTSTYLE:;
#DIFFICULTY:Beginner;
#METER:1;
#RADARVALUES:0.075321,0.105449,0.041845,0.000000,0.000000,63.000000,58.000000,5.000000,0.000000,0.000000,0.000000,0.000000,0.000000,0.000000,0.075321,0.105449,0.041845,0.000000,0.000000,63.000000,58.000000,5.000000,0.000000,0.000000,0.000000,0.000000,0.000000,0.000000;
#CREDIT:Ben Speirs;
#NOTES:
// measure 0
0000
0000
0000
0000
,  // measure 1
0000
0000
0000
0000
,  // measure 2
1000
0000
0000
0000
,  // measure 3
0001
0000
0000
0000
,  // measure 4
1001
0000
0000
0001
,  // measure 5
0001
0000
0000
1000
,  // measure 6
1000
0000
0000
0010
,  // measure 7
0010
0000
0000
0000
,  // measure 8
1000
0000
0000
0001
,  // measure 9
0001
0000
0000
0100
,  // measure 10
0100
0000
0000
0001
,  // measure 11
0001
0000
0000
0000
,  // measure 12
1001
0000
0000
0000
,  // measure 13
1000
0000
0000
0000
,  // measure 14
0010
0000
0000
0000
,  // measure 15
0100
0000
0000
0000
,  // measure 16
0001
0000
0001
0000
,  // measure 17
0001
0000
0000
0000
,  // measure 18
1000
0000
1000
0000
,  // measure 19
1000
0000
0000
0000
,  // measure 20
1001
0000
0000
0000
,  // measure 21
0010
0000
0000
0000
,  // measure 22
0100
0000
0000
0000
,  // measure 23
0001
0000
0000
0000
,  // measure 24
1000
0000
0000
1000
,  // measure 25
1000
0000
0000
0001
,  // measure 26
0001
0000
0000
0000
,  // measure 27
0100
0000
0000
0000
,  // measure 28
0010
0000
0000
0000
,  // measure 29
1000
0000
0000
0000
,  // measure 30
0001
0000
0000
0001
,  // measure 31
0001
0000
0000
1000
,  // measure 32
1000
0000
0000
0100
,  // measure 33
0100
0000
0000
0100
,  // measure 34
0000
0000
0000
0100
,  // measure 35
0000
0000
0000
0000
,  // measure 36
1001
0000
0000
0001
,  // measure 37
0001
0000
0000
1000
,  // measure 38
1000
0000
0000
0000
,  // measure 39
0010
0000
0010
0000
,  // measure 40
0010
0000
0000
0000
,  // measure 41
0100
0000
0100
0000
,  // measure 42
1001
0000
0000
0000
;
