#VERSION:0.82;
#TITLE:Bloom;
#SUBTITLE:;
#ARTIST:VerseQuence;
#TITLETRANSLIT:;
#SUBTITLETRANSLIT:;
#ARTISTTRANSLIT:;
#GENRE:Dark Pop;
#ORIGIN:;
#CREDIT:;
#BANNER:Bloom.png;
#BACKGROUND:Bloom-bg.png;
#PREVIEWVID:;
#JACKET:jacket.png;
#CDIMAGE:;
#DISCIMAGE:;
#LYRICSPATH:;
#CDTITLE:;
#MUSIC:Bloom.ogg;
#OFFSET:-0.382000;
#SAMPLESTART:48.672134;
#SAMPLELENGTH:15.533999;
#SELECTABLE:YES;
#BPMS:0.000=82.000;
#STOPS:;
#DELAYS:;
#WARPS:;
#TIMESIGNATURES:0.000=4=4;
#TICKCOUNTS:0.000=4;
#COMBOS:0.000=1;
#SPEEDS:0.000=1.000=0.000=0;
#SCROLLS:0.000=1.000;
#FAKES:;
#LABELS:0.000=Song Start;
#BGCHANGES:0.000=Bloom.avi=1.000=0=0=1=====,
99999=-nosongbg-=1.000=0=0=0 // don't automatically add -songbackground-
;
#KEYSOUNDS:;
#ATTACKS:
;

//---------------dance-single - ----------------
#NOTEDATA:;
#CHARTNAME:;
#STEPSTYPE:dance-single;
#DESCRIPTION:;
#CHARTSTYLE:;
#DIFFICULTY:Hard;
#METER:6;
#RADARVALUES:0.281215,0.348794,0.082021,0.188648,0.045112,207.000000,10.000000,23.000000,0.000000,0.000000,0.000000,0.000000,0.000000,0.281215,0.348794,0.082021,0.188648,0.045112,207.000000,10.000000,23.000000,0.000000,0.000000,0.000000,0.000000,0.000000;
#CREDIT:Ben Speirs;
#NOTES:
0000
0000
0000
0000
,
0000
0000
0000
0000
,
0010
1000
0010
0001
0000
1000
0000
0000
,
0001
0000
0000
1000
0000
0000
0100
0000
0000
0000
0000
0000
1000
0000
0100
0000
,
0010
0000
0000
0000
0000
0000
0000
0000
0001
0000
0000
1000
0000
0000
0010
0000
,
0200
0000
0000
0000
0310
0000
0000
0000
1000
0000
0000
0010
0000
0000
1000
0000
,
0002
0000
0000
0000
0013
0000
0000
0000
0001
0000
0000
1000
0000
0000
0010
0000
,
0000
0100
0010
0000
1000
0010
0100
0001
,
2000
0000
0000
0000
3100
0000
0000
0000
1000
0000
0000
0100
0000
0000
0010
0000
,
0002
0000
0000
0000
1003
0000
0000
0000
0001
0000
0000
0100
0000
0000
0010
0000
,
2000
0000
0000
0000
3001
0000
0000
0000
1000
0000
0000
0001
0000
0000
1000
0000
,
0020
0000
0000
0000
0130
0000
0000
0000
0010
0000
0000
0100
0000
0000
0001
0000
,
2000
0000
3100
0000
1000
0100
1000
0001
,
1000
0010
0000
2002
0000
0000
3003
0001
,
1000
0010
0010
0100
0001
1000
0001
0100
,
0001
0010
0000
2002
0000
0000
0000
3003
,
0000
0000
0000
0000
1100
0100
1000
0001
,
0100
0010
1000
0000
0001
1000
0001
1000
,
0010
0010
0100
0100
0002
0013
0002
0103
,
0002
1003
0001
0100
0010
1000
0100
0010
,
0002
0000
1003
0000
0011
0010
0001
1000
,
0010
0100
0001
0000
1000
0001
1000
0001
,
0100
0100
0010
0010
2000
3100
2000
3010
,
2000
3001
1000
0010
0100
0001
0010
0100
,
2000
0000
3001
0000
1001
0000
1000
0010
,
0100
0010
1000
0000
0001
0000
0010
0001
,
0100
0001
0010
0000
0001
0000
0100
0001
,
0100
0010
1000
0000
0010
0000
1000
0000
,
0001
0000
0010
0000
1001
0000
0001
1000
,
0010
0010
0100
0001
1000
0000
0100
1000
,
0010
0010
0100
0001
0000
0100
0010
0100
,
0000
0010
1000
0000
0010
1000
0001
0000
,
1000
0100
0010
0001
0011
0000
2100
0000
,
0001
0001
3001
0000
0101
0000
2010
0000
,
3001
1000
0020
0000
0200
0000
0000
0000
,
0000
0000
0330
0000
,
0000
0000
0000
0000
0000
0000
0000
0000
0010
0000
0000
0000
1000
0000
0100
1000
,
0000
0000
0000
0000
0000
0000
0000
0000
0010
0000
0000
0000
0100
0000
0001
0100
,
0000
0000
0000
0000
0001
0100
1000
0100
,
0000
0000
0010
0000
0000
0000
0000
0000
1000
0000
0000
0010
0000
0000
0100
0000
,
0000
0000
0001
1000
0100
0000
0000
0000
;

//---------------dance-single - ----------------
#NOTEDATA:;
#CHARTNAME:;
#STEPSTYPE:dance-single;
#DESCRIPTION:;
#CHARTSTYLE:;
#DIFFICULTY:Challenge;
#METER:8;
#RADARVALUES:0.444085,0.431841,0.131234,0.123031,0.360892,348.000000,16.000000,15.000000,0.000000,0.000000,0.000000,0.000000,0.000000,0.444085,0.431841,0.131234,0.123031,0.360892,348.000000,16.000000,15.000000,0.000000,0.000000,0.000000,0.000000,0.000000;
#CREDIT:Ben Speirs;
#NOTES:
0000
0000
0000
0000
,
0000
0000
0000
0000
,
1000
0000
0100
0000
1000
0000
0001
0000
0000
0000
0100
0000
0000
0000
0001
1000
,
0010
0000
0000
0100
0000
0000
0001
0000
0000
0000
1000
0000
0010
0000
0001
0000
,
0100
0000
0000
0000
0000
0000
0000
0000
0001
0100
0001
0010
0000
0001
0100
0000
,
0020
0000
1000
0000
0130
0000
0000
0000
1000
0010
1000
0100
0000
1000
0010
0000
,
0200
0000
0001
0000
0310
0000
0000
0000
0100
0000
0001
0100
0010
0000
1000
0000
,
0100
0010
0001
0000
1000
0000
0010
0000
1010
0000
0001
0000
0010
0000
0011
0000
,
0200
0000
0000
0000
0310
0000
1000
0000
0001
0100
0001
0100
0000
0001
1000
0001
,
1000
0000
0010
0000
1000
0000
0000
0000
1000
0100
1000
0100
0000
1000
0001
1000
,
0001
0000
0100
0000
0001
0000
0000
0000
0100
0010
0100
0010
0000
1000
0001
1000
,
0001
0000
0010
0000
0001
0000
1000
0000
0010
1000
0010
1000
0000
0001
0100
0001
,
0100
0000
0010
0000
1000
0100
0010
0001
0100
0000
0010
1000
0001
0000
0020
0000
,
0031
2000
3010
0200
0001
0010
0310
0100
,
0001
0100
0010
0000
1000
0000
0001
1000
0001
0000
0010
0001
1000
0000
0002
0000
,
0103
0000
0020
0000
1030
0100
0010
0001
0200
0000
0000
0000
0000
0000
0300
0000
,
0000
0000
0000
0000
1001
1000
0100
0001
,
0010
0001
0100
0000
0100
0000
1001
0000
0010
1000
0100
0000
0010
1000
0100
0000
,
0010
0000
0001
1000
0001
0000
0100
0000
0010
1000
0001
0000
0010
0001
1000
0000
,
0010
1000
0001
0000
1000
0100
0010
0001
0100
0000
0001
1000
0001
0000
0100
0000
,
0010
1000
0100
0000
1000
0001
1000
1000
0001
0000
0100
0001
0100
0001
1000
0000
,
0010
1000
0001
0000
1000
0000
1001
0000
0100
1000
0010
0000
0100
1000
0010
0000
,
1000
0000
0010
1000
0001
0000
0100
0000
0001
0010
0001
0000
1000
0010
1000
0000
,
0001
0100
0001
0000
1000
0000
0100
0000
0010
0000
0001
1000
0001
0000
0100
0000
,
0010
1000
0010
0000
0100
0001
0100
0100
0010
0000
1000
0010
1000
0000
0100
0000
,
0001
0000
0010
0000
1000
0000
0100
0000
1000
0000
0001
1000
0001
0000
0100
0000
,
0002
0000
0023
0000
0230
0000
1300
0000
0001
0000
1000
0100
0010
0000
1100
0000
,
0001
0000
1000
0100
0010
0000
1100
0000
0001
0000
1000
0001
1000
0000
0010
1000
,
0001
1000
0001
0000
0100
0001
1000
1000
0010
0000
0100
0000
0100
0000
0001
1000
,
0001
0000
1000
0000
0100
1000
0100
0000
1000
0000
0001
0000
0100
0000
0010
1000
,
0010
0000
0100
0001
1000
0000
1010
0000
0010
0000
0100
0001
1000
0000
1010
0000
,
0010
0000
0100
0001
1000
0000
0001
0000
0010
0000
0001
1000
0001
0000
1000
0000
,
1100
0100
0010
0001
0011
0001
2001
0000
,
3100
1000
0100
0000
1000
0001
1000
0000
1010
0000
0010
0000
1002
0000
0000
0000
,
0013
0001
1000
0000
0001
0000
1000
0100
0020
0000
0000
0000
0000
0000
0000
0000
,
0000
0000
0031
0000
,
0000
0000
0000
0000
0000
0000
0001
1000
0010
0000
1000
0001
0010
0000
0001
0001
,
0000
0000
0000
0000
1000
0000
0010
1000
0100
0000
1000
0001
0100
0000
0001
0001
,
0000
0100
0010
1000
0001
0010
0001
1000
,
0000
0000
0010
0000
0000
0000
1000
0100
0010
0000
0000
0001
0000
0000
1000
0000
,
0000
0101
0100
0010
1001
0000
0000
0000
;

//---------------dance-double - ----------------
#NOTEDATA:;
#CHARTNAME:;
#STEPSTYPE:dance-double;
#DESCRIPTION:;
#CHARTSTYLE:;
#DIFFICULTY:Challenge;
#METER:7;
#RADARVALUES:0.425337,0.448450,0.114829,0.221457,0.274770,322.000000,14.000000,27.000000,0.000000,0.000000,0.000000,0.000000,0.000000,0.425337,0.448450,0.114829,0.221457,0.274770,322.000000,14.000000,27.000000,0.000000,0.000000,0.000000,0.000000,0.000000;
#CREDIT:Ben Speirs;
#NOTES:
00000000
00000000
00000000
00000000
,
00000000
00000000
00000000
00000000
,
10000000
00000000
01000000
00000000
00010000
00000000
00001000
00000000
00000000
00000000
00010000
00000000
00000000
00000000
00001000
00000100
,
00000001
00000000
00000000
00001000
00000000
00000000
00000010
00000000
00000000
00000000
00001000
00000000
00000100
00000000
00010000
00000000
,
00001000
00000000
00000000
00000000
00000000
00000000
00000000
00000000
00100000
00010000
00100000
00001000
00000000
00100000
00010000
00000000
,
00200000
00000000
00001000
00000000
00310000
00000000
00000000
00000000
00001000
00100000
00001000
00010000
00000000
00001000
00010000
00000000
,
00000200
00000000
00010000
00000000
00001300
00000000
00000000
00000000
00000100
00000000
00001000
00000010
00001000
00000000
00000001
00000010
,
00000001
00000100
00000100
00000010
00001000
00000100
00010000
00001000
,
00100000
00000000
00010000
00000000
10000000
00000000
00000000
00000000
00100000
10000000
00100000
10000000
00000000
00010000
10000000
00010000
,
10000000
00000000
00010000
00000000
00100000
00000000
00000000
00000000
00001000
00100000
00001000
00100000
00000000
00100000
00010000
00100000
,
00010000
00000000
01000000
00000000
00010000
00000000
00000000
00000000
01000000
00001000
01000000
00001000
00000000
00010000
00001000
00010000
,
00001000
00000000
00010000
00000000
00000100
00000000
00000000
00000000
00001000
00000010
00001000
00000010
00000000
00000100
00000010
00000100
,
00000010
00000000
00001000
00000000
00000100
00000000
00000000
00000000
00001000
00000000
00000100
00000010
00000001
00000000
00000200
00000000
,
00000310
00000000
00002000
00000000
00003100
00000000
00020000
00000000
00000000
00000000
00000000
00000000
00031000
00000000
00010000
00001000
,
00010000
00000000
00001000
00000000
00100000
00000000
00010000
10000000
00100000
00000000
01000000
00100000
01000000
00000000
00020000
00000000
,
00130000
00002000
00013000
00000100
00020200
00000000
00000000
00000000
,
00030300
00000000
00000000
00000000
00011000
00001000
00100000
00010000
,
01000000
00100000
01000000
00000000
00010000
00000000
10000000
00000000
00010000
00100000
00001000
00000000
00010000
00100000
00001000
00000000
,
00010000
00000000
00001000
00010000
00001000
00000000
00010000
00000000
00000100
00000000
00001100
00000000
00010000
00000000
00011000
00000000
,
00000100
00000000
00001100
00000000
00010000
00000000
00001000
00100000
00001000
00000000
00100000
00010000
00100000
00000000
00001000
00000000
,
00010000
00000100
00001000
00000000
00000010
00000000
00000100
00000010
00000100
00000000
00000001
00001000
00000001
00001000
00000001
00000000
,
00000100
00000000
00000100
00000000
00000010
00000000
00001000
00000000
00000100
00010000
00001000
00000000
00000100
00010000
00001000
00000000
,
00010000
00000000
00001000
00010000
00001000
00000000
00100000
00000000
00010000
00000000
00110000
00000000
10000000
00000000
10100000
00000000
,
00010000
00000000
00110000
00000000
10000000
00000000
00100000
01000000
00100000
00000000
10000000
01000000
10000000
00000000
00010000
00000000
,
00100000
00010000
00100000
00000000
00010000
10000000
00010000
00010000
01000000
00000000
00010000
01000000
00010000
00000000
00100000
00000000
,
00020000
00000000
00230000
00000000
00302000
00000000
00023000
00000000
00030100
00000000
00001000
00000010
00001000
00000000
00000001
00000000
,
00002000
00000000
00003100
00000000
00020000
00000000
00032000
00000000
00103000
00000000
00010000
10000000
00010000
00000000
02000000
00000000
,
03100000
00000000
10000000
01000000
10000000
00000000
00200000
00000000
01300000
00000000
00010000
00000000
00100000
00000000
01000000
00000000
,
10000000
00000000
00100000
00000000
01000000
00000000
00010000
00000000
00100000
00000000
00001000
00100000
00001000
00000000
00010000
00000000
,
00000010
00000000
00001000
00000010
00001000
00000000
00000001
00000000
00000100
00000000
00000010
00001000
00000010
00000000
00000100
00000000
,
00000002
00000023
00000230
00001300
00000010
00000200
00000302
00002003
,
00003010
00001000
00000100
00010000
00001000
00100000
00001000
00010000
,
00000100
00000010
00000100
00000000
00000010
00000001
00000010
00000000
00000011
00000000
00000001
00000000
00002001
00000000
00000000
00000000
,
00003100
00001000
00000100
00000000
00010000
00000100
00010000
00000000
00011000
00000000
00001000
00000000
00201000
00000000
00000000
00000000
,
00301000
00010000
00001000
00000000
01000000
00000000
00010000
10000000
00200000
00000000
00000000
00000000
00000000
00000000
00000000
00000000
,
00000000
00000000
01300000
00000000
,
00000000
00000000
00000000
00000000
00000000
00000000
00100000
10000000
00010000
00000000
00100000
00000000
00001000
00000000
00010000
00010000
,
00000000
00000000
00000000
00000000
00000000
00000000
00001000
00010000
00000100
00000000
00001000
00000000
00000010
00000000
00000100
00000100
,
00000000
00000001
00001000
00000010
00001010
00001000
00000001
00000011
,
00000000
00000000
00001000
00000000
00000000
00000000
00000100
00010000
00001000
00000000
00000000
00100000
00000000
00000000
00010000
00000000
,
00000000
10000000
00100000
00010000
00001000
00000000
00000000
00000000
;

//---------------dance-single - ----------------
#NOTEDATA:;
#CHARTNAME:;
#STEPSTYPE:dance-single;
#DESCRIPTION:;
#CHARTSTYLE:;
#DIFFICULTY:Medium;
#METER:4;
#RADARVALUES:0.195679,0.249139,0.049213,0.131234,0.008202,145.000000,6.000000,16.000000,0.000000,0.000000,0.000000,0.000000,0.000000,0.195679,0.249139,0.049213,0.131234,0.008202,145.000000,6.000000,16.000000,0.000000,0.000000,0.000000,0.000000,0.000000;
#CREDIT:Ben Speirs;
#NOTES:
0000
0000
0000
0000
,
0000
0000
0000
0000
,
1000
0000
0000
0001
0000
0000
0000
0000
,
0100
0000
0000
0100
0000
0000
0100
0000
0000
0000
0000
0000
0001
0000
0000
0000
,
1000
0000
0000
0000
0010
0000
1000
0100
,
0100
0000
0000
0000
1000
0000
0001
0010
,
0010
0000
0000
0000
0001
0000
1000
0010
,
0010
0000
0100
0000
0001
0000
0010
0001
,
0010
0000
0000
0000
0001
0000
0010
0001
,
2000
0000
3000
0000
0100
0000
1000
0010
,
0200
0000
0300
0000
0010
0000
1000
0001
,
0020
0000
0030
0000
0001
0000
0100
0001
,
2000
0000
3000
0000
0001
0010
0001
0010
,
0000
0001
0000
2000
0000
3000
0000
0000
,
0010
0100
0010
0000
1000
0100
1000
0100
,
0000
1000
0000
0002
0000
0000
0000
0003
,
0000
0000
1010
0001
,
0100
0010
0100
0000
0001
0001
1000
1000
,
0010
0010
2000
3200
,
0320
0000
0031
0000
0010
0000
0001
1000
,
0001
0000
0101
1000
,
0010
0100
0010
0000
1000
1000
0001
0001
,
0100
0100
0002
0023
,
0230
0000
1300
0000
0100
0000
1000
0001
,
1000
0000
1001
0000
,
1000
0100
0010
0001
0000
0000
0000
0000
,
1000
0010
0100
0001
0000
0000
0100
0000
,
0000
0010
0000
1000
,
0100
0010
1001
0000
,
0001
0010
0100
1000
0000
0000
0000
0000
,
0001
0100
0010
1000
0000
0000
0100
0000
,
0000
1000
0010
0010
,
0100
0001
1001
2002
,
0000
0000
3003
1000
,
0010
1000
0200
0000
0020
0000
0000
0000
,
0000
0000
0330
0000
,
0000
0000
0010
0001
,
1000
0000
0010
1000
,
0001
0000
0000
0000
1000
0000
0001
0100
,
0000
0000
0001
0000
0000
0000
0000
0000
1000
0000
0000
1000
0000
0000
1000
0000
,
0000
0000
0100
0010
0001
0000
0000
0000
;

//---------------dance-single - ----------------
#NOTEDATA:;
#CHARTNAME:;
#STEPSTYPE:dance-single;
#DESCRIPTION:;
#CHARTSTYLE:;
#DIFFICULTY:Easy;
#METER:2;
#RADARVALUES:0.138264,0.166093,0.041010,0.114829,0.000000,99.000000,5.000000,14.000000,0.000000,0.000000,0.000000,0.000000,0.000000,0.138264,0.166093,0.041010,0.114829,0.000000,99.000000,5.000000,14.000000,0.000000,0.000000,0.000000,0.000000,0.000000;
#CREDIT:Ben Speirs;
#NOTES:
// measure 0
0000
0000
0000
0000
,  // measure 1
0000
0000
0000
0000
,  // measure 2
0001
0000
1000
0000
,  // measure 3
0010
0010
0000
0100
,  // measure 4
0100
0000
1001
0000
,  // measure 5
2000
3000
0100
0100
,  // measure 6
0020
0030
0001
0000
,  // measure 7
2000
3000
0010
0100
,  // measure 8
0001
0000
1000
0100
,  // measure 9
2000
3000
0001
0100
,  // measure 10
0002
0003
1000
0010
,  // measure 11
2000
3000
0001
0010
,  // measure 12
0002
0003
0100
0010
,  // measure 13
0100
0010
0100
0000
,  // measure 14
0001
0000
1000
0100
,  // measure 15
1000
0100
1001
0000
,  // measure 16
0000
0000
0001
0000
,  // measure 17
0100
0000
0010
0010
,  // measure 18
1000
0100
0020
0030
,  // measure 19
0020
0030
0001
1000
,  // measure 20
0001
0000
1001
0000
,  // measure 21
1000
0000
0010
0010
,  // measure 22
0100
0100
0002
0003
,  // measure 23
2000
3000
0100
0100
,  // measure 24
1000
0000
0001
0000
,  // measure 25
0010
0001
0100
0000
,  // measure 26
0010
1000
0100
0000
,  // measure 27
1000
0000
0001
0001
,  // measure 28
1000
0000
1001
0000
,  // measure 29
1000
0010
0100
0000
,  // measure 30
0010
1000
0001
0000
,  // measure 31
1000
0000
0010
0010
,  // measure 32
1000
1000
0100
0020
,  // measure 33
0000
0000
0030
0000
,  // measure 34
0001
1000
2002
0000
,  // measure 35
0000
0000
3003
0000
,  // measure 36
0000
0000
0001
0000
,  // measure 37
0100
0000
0010
0000
,  // measure 38
1000
0000
0100
0000
,  // measure 39
1000
0000
0010
0010
,  // measure 40
0000
0100
0001
0000
;

//---------------dance-single - ----------------
#NOTEDATA:;
#CHARTNAME:;
#STEPSTYPE:dance-single;
#DESCRIPTION:;
#CHARTSTYLE:;
#DIFFICULTY:Beginner;
#METER:1;
#RADARVALUES:0.087880,0.099656,0.032808,0.000000,0.000000,71.000000,4.000000,0.000000,0.000000,0.000000,0.000000,0.000000,0.000000,0.087880,0.099656,0.032808,0.000000,0.000000,71.000000,4.000000,0.000000,0.000000,0.000000,0.000000,0.000000,0.000000;
#CREDIT:Ben Speirs;
#NOTES:
// measure 0
0000
0000
0000
0000
,  // measure 1
0000
0000
0000
0000
,  // measure 2
1000
0000
0000
0000
,  // measure 3
0010
0000
0000
0100
,  // measure 4
0100
0000
1001
0000
,  // measure 5
0001
0000
1000
0000
,  // measure 6
1000
0000
0010
0000
,  // measure 7
0010
0000
0100
0100
,  // measure 8
0100
0000
0001
0000
,  // measure 9
0000
1000
1000
0000
,  // measure 10
0000
0010
0010
0000
,  // measure 11
0000
0000
1000
0000
,  // measure 12
1000
0000
1000
0000
,  // measure 13
0000
0000
0100
0000
,  // measure 14
0100
0100
0100
0000
,  // measure 15
0000
0000
1001
0000
,  // measure 16
0000
0000
1001
0000
,  // measure 17
0001
0000
1000
0000
,  // measure 18
1000
0000
0010
0000
,  // measure 19
0010
0000
0100
0100
,  // measure 20
0000
0000
1001
0000
,  // measure 21
1000
0000
0010
0000
,  // measure 22
0010
0000
1000
0000
,  // measure 23
1000
0000
0001
0001
,  // measure 24
0000
0000
0100
0000
,  // measure 25
0100
0100
0000
0000
,  // measure 26
0001
0001
0000
1000
,  // measure 27
0000
1000
0000
0000
,  // measure 28
0000
0000
0010
0000
,  // measure 29
0010
0010
0000
0000
,  // measure 30
1000
1000
0000
0001
,  // measure 31
0000
0001
0000
0000
,  // measure 32
0100
0100
0100
0100
,  // measure 33
0000
0000
0000
0000
,  // measure 34
0010
0010
0010
0000
,  // measure 35
0000
0000
0000
0000
,  // measure 36
0000
0000
1000
0000
,  // measure 37
0000
0000
0001
0000
,  // measure 38
0000
0000
0100
0100
,  // measure 39
0000
0000
0010
0010
,  // measure 40
0000
0010
0010
0000
;
