#VERSION:0.83;
#TITLE:Bloom;
#SUBTITLE:;
#ARTIST:ODESZA;
#TITLETRANSLIT:;
#SUBTITLETRANSLIT:;
#ARTISTTRANSLIT:;
#GENRE:;
#ORIGIN:;
#CREDIT:;
#BANNER:Bloom (Odesza).png;
#BACKGROUND:Bloom (Odesza)-bg.png;
#PREVIEWVID:;
#JACKET:jacket.png;
#CDIMAGE:;
#DISCIMAGE:;
#LYRICSPATH:;
#CDTITLE:;
#MUSIC:Bloom (Odesza).ogg;
#OFFSET:-0.000000;
#SAMPLESTART:88.572929;
#SAMPLELENGTH:14.694003;
#SELECTABLE:YES;
#BPMS:0.000=130.000;
#STOPS:;
#DELAYS:;
#WARPS:;
#TIMESIGNATURES:0.000=4=4;
#TICKCOUNTS:0.000=4;
#COMBOS:0.000=1;
#SPEEDS:0.000=1.000=0.000=0;
#SCROLLS:0.000=1.000;
#FAKES:;
#LABELS:0.000=Song Start;
#BGCHANGES:;
#KEYSOUNDS:;
#ATTACKS:
;

//---------------dance-single - ----------------
#NOTEDATA:;
#CHARTNAME:;
#STEPSTYPE:dance-single;
#DESCRIPTION:;
#CHARTSTYLE:;
#DIFFICULTY:Hard;
#METER:8;
#RADARVALUES:0.393087,0.478176,0.167781,0.516765,0.093957,410.000000,385.000000,25.000000,77.000000,0.000000,0.000000,0.000000,0.000000,0.000000,0.393087,0.478176,0.167781,0.516765,0.093957,410.000000,385.000000,25.000000,77.000000,0.000000,0.000000,0.000000,0.000000,0.000000;
#CREDIT:Ben Speirs;
#NOTES:
0000
0000
0000
0000
,
0000
0000
0000
0000
,
0000
0000
0000
0000
,
0000
0000
0000
0000
,
0002
0000
0100
0000
0103
0000
0001
1000
,
0020
0000
0100
0000
0130
0010
1000
0001
,
2000
0000
0100
0000
0100
0000
3100
1000
,
0002
0000
1003
0000
0001
1000
0010
0100
,
0002
0103
2001
3200
,
0300
0000
1000
0001
1000
0001
0100
0010
,
2000
0000
3100
0100
0010
0001
0010
0001
,
0200
0000
0301
0000
1000
0001
1000
0000
,
0202
0000
0303
0000
1000
0001
2000
0000
,
3100
0000
1000
0001
1000
0010
0100
0001
,
0200
0000
0310
0010
0100
0010
2000
0000
,
3002
0000
0013
0100
0000
0010
0100
0010
,
2001
0000
3100
0000
0001
1000
1002
0000
,
0103
0000
0001
1000
0010
0100
0001
0000
,
0102
0000
1003
0001
1000
0000
2100
0000
,
3001
1000
0100
0000
1000
0001
0010
0000
,
2001
0000
3001
1000
0010
0100
1002
0000
,
0103
0001
2000
0000
3010
1000
0200
0000
,
1300
1000
0100
1000
0001
1000
0010
0010
,
0100
0001
2000
0000
3001
0000
0101
0000
,
2001
0000
3020
0000
,
0230
0000
0302
0000
,
2003
0000
3200
0000
,
0320
0000
0032
0000
,
0203
0320
2030
3200
,
0320
0032
0203
0320
,
2030
3200
0302
0203
,
2300
0000
0000
0000
3020
0000
0000
0000
0230
0000
0000
0000
0301
1000
0001
1000
,
0001
0000
0000
0000
1000
0000
0100
0000
1100
0000
0000
0000
0000
0000
0001
0100
,
0001
0000
1000
0000
0100
0000
0000
0000
1001
0000
0000
0001
0100
0000
0000
0000
,
0001
0000
0000
0000
1000
0000
0010
0000
1010
0000
0000
0000
0000
0000
0001
0010
,
0001
0000
0010
0000
0100
0000
1000
0000
0001
0000
0000
1000
0010
0000
0010
0000
,
0200
0000
0000
0000
0310
0000
0100
0000
0002
0000
0000
0000
0103
0000
0001
1000
,
0001
1000
0001
0100
0020
0000
0130
0001
,
2000
0000
0000
0000
3010
0000
1000
0000
0200
0000
0000
0000
1300
0000
0001
0100
,
0001
0000
0100
0000
0010
0000
1000
0000
0002
0000
0000
0000
1003
0100
1000
0100
,
0020
0001
0130
0110
,
0010
0001
0200
0000
0310
1000
0200
0000
,
2300
0001
3100
1100
,
1000
0000
0010
0000
0100
0000
0001
0000
1000
0000
0000
0000
0001
0100
0001
0100
,
0020
0000
0130
0000
0100
0010
1000
0001
,
1000
0000
0000
0010
0100
0010
0100
0000
0110
0000
0000
0001
1000
0000
0000
0000
,
1001
0000
0000
0000
0100
0000
1000
0000
0100
0000
0000
1000
0010
0000
0010
0000
,
1000
0000
1000
0000
0001
0000
0001
0000
0100
0000
0100
0010
1000
0010
1000
0010
,
0200
0000
0310
0000
0100
0001
1000
0001
,
2000
0000
3001
0010
0100
1000
0001
1000
,
0020
0000
0130
0100
0010
1000
0100
0010
,
0210
0000
1300
0001
1000
0010
0100
0000
,
0102
0000
1003
0001
1000
1000
0020
0000
,
0000
0000
0130
0001
1000
0001
1000
0100
,
0020
0000
0031
0010
0100
1000
0001
0000
,
0100
0000
0100
0000
0100
0000
0001
1000
0001
1000
0001
1000
0001
1000
0001
1000
,
0020
0000
0130
0010
0100
0001
2000
0000
,
3100
1000
0010
0100
0001
1000
0100
0010
,
0002
0000
0013
0100
0010
0001
0200
0000
,
0310
0100
0001
0010
0110
0000
0000
0000
,
0100
0010
0002
0000
0000
0000
0000
0003
1000
0000
0000
0000
0001
1000
0020
0000
,
0000
0000
0130
0000
0010
1000
0001
0000
,
1000
0100
0020
0000
0000
0000
0000
0000
0031
0000
0000
0000
0010
0001
0200
0000
,
0000
0000
0310
0100
0101
0000
0000
0000
,
1000
1000
0100
0000
1001
0000
0000
0000
,
0000
0000
0001
0000
1000
0001
0010
0100
,
1000
0001
1000
0000
0010
0000
0100
0000
,
0000
0110
1001
0001
,
0100
0001
1000
0001
2000
0000
3100
0000
,
0000
0000
0100
0000
1000
0001
1000
0000
,
0020
0000
0130
2002
,
0000
3003
0000
0000
;

//---------------dance-single - ----------------
#NOTEDATA:;
#CHARTNAME:;
#STEPSTYPE:dance-single;
#DESCRIPTION:;
#CHARTSTYLE:;
#DIFFICULTY:Medium;
#METER:4;
#RADARVALUES:0.188873,0.286905,0.181203,0.510054,0.000000,197.000000,170.000000,27.000000,76.000000,0.000000,0.000000,0.000000,0.000000,0.000000,0.188873,0.286905,0.181203,0.510054,0.000000,197.000000,170.000000,27.000000,76.000000,0.000000,0.000000,0.000000,0.000000,0.000000;
#CREDIT:Ben Speirs;
#NOTES:
0000
0000
0000
0000
,
0000
0000
0000
0000
,
0000
0000
0000
0000
,
0000
0000
0000
0000
,
2000
0000
0010
0000
,
0010
0000
3010
0000
,
0002
0000
0010
0000
,
0010
0000
0013
0000
,
2002
3003
0001
0100
,
0100
0010
1000
0001
,
2000
3000
0100
0100
,
0000
1000
0001
0000
,
2000
3000
0100
0100
,
1000
0001
1000
0010
,
0020
0030
0100
0100
,
0001
1000
0002
0003
,
2200
3300
0000
0202
,
0303
0000
0001
1000
,
2020
3030
0000
0202
,
0303
0000
1000
0001
,
2002
3003
0000
0220
,
0330
0000
0001
0001
,
2020
3030
0000
2002
,
3003
0000
0001
0000
,
0200
0300
0020
0030
,
2000
3000
0000
0000
,
0200
0300
0020
0030
,
0002
0003
0000
0000
,
2000
3000
0002
0003
,
0200
0300
0000
0000
,
0002
0003
2000
3000
,
0020
0030
0000
0000
,
2000
0100
3100
0000
,
0002
0100
0103
0000
,
2000
0010
3010
0000
,
0002
0010
0013
0000
,
0002
0100
0103
0000
,
2000
0100
3100
0000
,
0001
0001
1000
1000
,
0010
0100
0010
0000
,
1002
0000
1003
0000
,
2001
0000
3001
0000
,
0100
0100
0010
0000
,
0010
0010
0100
0000
,
2002
3003
0220
0330
,
2002
3003
0220
0330
,
0001
0001
1000
1000
,
0010
0000
0100
0000
0001
1000
0001
1000
,
2002
3003
1000
0010
,
0010
0100
0001
1000
,
0002
0003
0010
0010
,
0000
0001
1000
0000
,
0002
0003
0010
0010
,
0001
1000
0001
0100
,
0200
0300
0010
0010
,
0000
0000
0000
0000
1000
0001
1000
0001
,
0022
0033
0000
2020
,
3030
0000
1000
0001
,
0202
0303
0000
2020
,
3030
0000
0001
1000
,
2002
3003
0000
0220
,
0330
0000
1000
1000
,
0202
0303
0000
2002
,
3003
0000
1000
0000
,
0001
0001
0100
0000
0101
0000
0000
0000
,
0000
0000
0000
0000
0000
1000
0100
0010
,
0001
0000
1000
0000
,
0000
0000
0001
0000
,
1000
1000
0100
0000
1100
0000
0000
0000
,
0000
0000
0000
0000
0000
0001
0010
0100
,
2000
0000
3001
2002
,
0000
3003
0000
0000
;

//---------------dance-single - ----------------
#NOTEDATA:;
#CHARTNAME:;
#STEPSTYPE:dance-single;
#DESCRIPTION:;
#CHARTSTYLE:;
#DIFFICULTY:Easy;
#METER:2;
#RADARVALUES:0.108339,0.239088,0.020134,0.248316,0.000000,113.000000,110.000000,3.000000,37.000000,0.000000,0.000000,0.000000,0.000000,0.000000,0.108339,0.239088,0.020134,0.248316,0.000000,113.000000,110.000000,3.000000,37.000000,0.000000,0.000000,0.000000,0.000000,0.000000;
#CREDIT:Ben Speirs;
#NOTES:
0000
0000
0000
0000
,
0000
0000
0000
0000
,
0000
0000
0000
0000
,
0000
0000
0000
0000
,
0020
0000
0030
0000
,
0200
0000
0300
0000
,
0002
0000
0003
0000
,
2000
0000
3000
0000
,
2002
3003
0000
0000
,
0001
0000
0100
0000
,
0100
0000
0000
0000
,
0010
0000
1000
0000
,
1000
0000
0000
0000
,
1000
0000
0001
0000
,
0001
0000
0000
0000
,
0100
0000
0100
0000
,
0002
0003
0000
2000
,
3000
0000
0000
0000
,
0020
0030
0000
0020
,
0030
0000
0000
0000
,
2000
3000
0000
0002
,
0003
0000
0000
0000
,
0200
0300
0000
0200
,
0300
0000
0000
0000
,
0002
0003
0000
0000
,
2000
3000
0000
0000
,
0020
0030
0000
0000
,
0200
0300
0000
0000
,
0002
0003
0002
0003
,
0001
0000
0000
0000
,
2000
3000
2000
3000
,
1000
0000
0000
0000
,
0010
0010
0010
0000
,
1000
0100
0010
0000
,
0001
0001
0001
0000
,
0010
0001
1000
0000
,
0100
0100
0100
0000
,
1000
0010
0100
0000
,
0001
0001
0001
0000
,
0100
0001
1000
0000
,
0020
0000
0000
0030
,
0020
0000
0000
0030
,
0200
0000
0000
0300
,
0200
0000
0000
0300
,
0001
0001
0001
0000
,
1000
0001
1000
0000
,
1000
1000
1000
0000
,
0100
0100
0010
0110
,
2002
3003
0001
0000
,
0000
0000
1000
0000
,
0010
0000
0010
0000
,
0100
0000
0100
0000
,
0001
0000
1000
0000
,
0000
0000
0001
0000
,
1000
0000
1000
0000
,
0000
0000
0100
0100
,
0200
0300
0000
2000
,
3000
0000
0000
0000
,
0020
0030
0000
0200
,
0300
0000
0000
0000
,
0002
0003
0000
2000
,
3000
0000
0000
0000
,
0020
0030
0000
0020
,
0030
0000
0000
0000
,
1000
0100
0100
0000
,
0000
0000
1000
0001
,
1000
0000
0000
0000
,
0000
0000
0000
0000
,
0001
0001
0100
0000
,
0000
0000
0001
1000
,
0001
0000
0000
0200
,
0000
0300
0000
0000
;

//---------------dance-single - ----------------
#NOTEDATA:;
#CHARTNAME:;
#STEPSTYPE:dance-single;
#DESCRIPTION:;
#CHARTSTYLE:;
#DIFFICULTY:Beginner;
#METER:1;
#RADARVALUES:0.069989,0.166187,0.020134,0.000000,0.000000,73.000000,70.000000,3.000000,0.000000,0.000000,0.000000,0.000000,0.000000,0.000000,0.069989,0.166187,0.020134,0.000000,0.000000,73.000000,70.000000,3.000000,0.000000,0.000000,0.000000,0.000000,0.000000,0.000000;
#CREDIT:Ben Speirs;
#NOTES:
0000
0000
0000
0000
,
0000
0000
0000
0000
,
0000
0000
0000
0000
,
0000
0000
0000
0000
,
0001
0000
0000
0000
,
0000
0000
0000
0000
,
1000
0000
0000
0000
,
0000
0000
0000
0000
,
0010
0000
0010
0000
,
0000
0000
0000
0000
,
0100
0000
0100
0000
,
0000
0000
0000
0000
,
0001
0000
0001
0000
,
0000
0000
0000
0000
,
1000
0000
1000
0000
,
0000
0000
0000
0000
,
0010
0000
0000
0010
,
0000
0000
0000
0000
,
1000
0000
0000
1000
,
0000
0000
0000
0000
,
0001
0000
0000
0001
,
0000
0000
0000
0000
,
0100
0000
0000
0100
,
0000
0000
0000
0000
,
1001
0000
0000
0000
,
0000
0000
0000
0000
,
0010
0000
0000
0000
,
0000
0000
0000
0000
,
0001
0000
0000
0000
,
0000
0000
0000
0000
,
0000
0000
0000
0000
,
0000
0000
0000
0000
,
1000
0000
1000
0000
,
1000
0000
0000
0000
,
0010
0000
0010
0000
,
0010
0000
0000
0000
,
0100
0000
0100
0000
,
0100
0000
0000
0000
,
0001
0000
0001
0000
,
0001
0000
0000
0000
,
1000
1000
0000
0000
,
1000
0000
0000
0000
,
0010
0010
0000
0000
,
0010
0000
0000
0000
,
1000
0000
0000
0000
,
0001
0000
0000
0000
,
0100
0000
0100
0000
,
0100
0100
0100
0000
,
1001
0000
0000
0000
,
0001
0000
0000
0000
,
0010
0000
0000
0000
,
0100
0000
0000
0000
,
1000
0000
0000
0000
,
0001
0000
0000
0000
,
0100
0000
0000
0000
,
0000
0000
0000
0000
,
0010
0000
0000
0010
,
0000
0000
0000
0000
,
1000
0000
0000
1000
,
0000
0000
0000
0000
,
0001
0000
0000
0001
,
0000
0000
0000
0000
,
0100
0000
0000
0100
,
0000
0000
0000
0000
,
0001
0001
0000
0000
,
0000
0000
1000
0000
,
1000
0000
0000
0000
,
0000
0000
0000
0000
,
0010
0010
0000
0000
,
0000
0000
0100
0000
,
0100
0000
0000
1001
;

//---------------dance-double - ----------------
#NOTEDATA:;
#CHARTNAME:;
#STEPSTYPE:dance-double;
#DESCRIPTION:;
#CHARTSTYLE:;
#DIFFICULTY:Challenge;
#METER:8;
#RADARVALUES:0.418014,0.502084,0.107380,0.409386,0.073824,436.000000,420.000000,16.000000,61.000000,0.000000,0.000000,0.000000,0.000000,0.000000,0.418014,0.502084,0.107380,0.409386,0.073824,436.000000,420.000000,16.000000,61.000000,0.000000,0.000000,0.000000,0.000000,0.000000;
#CREDIT:Ben Speirs;
#NOTES:
// measure 0
00000000
00000000
00000000
00000000
,  // measure 1
00000000
00000000
00000000
00000000
,  // measure 2
00000000
00000000
00000000
00000000
,  // measure 3
00000000
00000000
00000000
00000000
,  // measure 4
00010200
00000000
00001000
00000000
00001300
00000000
00000100
00010000
,  // measure 5
00000100
00001000
00000010
00000100
,  // measure 6
00001002
00000000
00000100
00000000
00000103
00000000
00000001
00000100
,  // measure 7
00000010
00000000
00001000
00000000
00000001
00001000
00000100
00010000
,  // measure 8
00012000
00000000
00000000
00000000
00103000
00010000
02000000
00000000
,  // measure 9
03100000
00000000
10000000
00100000
01000000
00010000
00100000
01000000
,  // measure 10
20000000
00000000
31000000
01000000
00100000
00010000
01000000
00001000
,  // measure 11
01000000
00000000
00001000
00010000
00000100
00001000
00000010
00000000
,  // measure 12
00001010
00000000
00010010
00000000
00001000
00010000
00002000
00000000
,  // measure 13
00000000
00000000
00103000
00001000
00010000
00001000
00100000
00010000
,  // measure 14
02000000
00000000
03100000
00100000
01000000
00010000
20000000
00000000
,  // measure 15
32000000
00000000
03100000
00010000
01000000
00010000
01000000
00000000
,  // measure 16
00002000
00000000
00013000
00000100
00001000
00000010
00000200
00000000
,  // measure 17
00000310
00001000
00000100
00000010
00000001
00000100
00000010
00001000
,  // measure 18
00000200
00000000
00001300
00000100
00010000
00001000
00200000
00000000
,  // measure 19
00310000
01000000
00100000
10000000
01000000
00100000
00010000
10000000
,  // measure 20
00200000
00000000
01300000
00010000
01000000
00001000
00020000
00000000
,  // measure 21
00031000
00010000
00000100
00001000
00000010
00000100
00001000
00000100
,  // measure 22
00000020
00000000
00001030
00000010
00000100
00000001
00002000
00000000
,  // measure 23
00003100
00010000
00000010
00000000
00010010
00000000
00000000
00000000
,  // measure 24
00002000
00010000
00100000
00000000
,  // measure 25
00023000
00001000
00000100
00000000
,  // measure 26
00032000
00100000
00010000
00000000
,  // measure 27
00023000
00000100
00032000
00000000
,  // measure 28
00103000
00010000
02000000
00000000
03100000
00000000
00000000
00000000
,  // measure 29
00100000
10000000
02000000
00000000
13000000
00000000
00000000
00000000
,  // measure 30
00020000
20030000
32000000
03020000
,  // measure 31
00032000
00003020
00000032
00000003
,  // measure 32
00001000
00000000
00000010
00000000
00000100
00000000
00000000
00000000
00000110
00000000
00000000
00000000
00000010
00000000
00001000
00000100
,  // measure 33
00001000
00000010
00000100
00000001
00001000
00000000
00000001
00001000
,  // measure 34
00000010
00000000
00001000
00000000
00000100
00000000
00010000
00000000
00001000
00000000
00000000
00000000
00010000
00000000
00001000
00010000
,  // measure 35
00001000
00000000
00100000
00000000
00010000
00000000
01000000
00000000
00200000
00000000
00000000
00300000
10000000
00100000
10000000
00100000
,  // measure 36
01000000
00000000
00010000
00000000
10000000
00000000
01000000
00000000
00100000
00000000
00000000
00000000
00010000
00000000
00100000
01000000
,  // measure 37
00100000
00010000
01000000
00001000
00020000
00000000
00031000
00010000
,  // measure 38
00000100
00000000
00001000
00000000
00000010
00000000
00000100
00000000
00000002
00000000
00000000
00000000
00001003
00000000
00000010
00000100
,  // measure 39
00000010
00000000
00001000
00000000
00000100
00000000
00000010
00000000
00000002
00000000
00000000
00000000
00001003
00000100
00001000
00000100
,  // measure 40
00010000
00010000
00001000
00100000
00010000
00010000
01000000
00100000
,  // measure 41
10000000
00000000
10000000
00000000
00100000
00000000
00000000
00000000
10100000
00000000
00000000
10000000
00010000
00000000
00000000
00000000
,  // measure 42
11000000
01000000
00100000
00010000
01000000
01000000
00100000
01000000
,  // measure 43
00010000
00000000
00100000
00000000
00001000
00000000
00010000
00000000
00000200
00000000
00000000
00000000
00001300
00000010
00001000
00000010
,  // measure 44
00000100
00000100
00000001
00000100
00000010
00001000
00000100
00010000
,  // measure 45
00001000
00000000
00000000
00001000
00100000
00001000
00100000
00000000
00110000
00000000
00000000
00000000
10010000
00000000
00000000
00000000
,  // measure 46
10100000
00100000
01000000
00010000
10000000
01000000
00100000
00010000
,  // measure 47
01000000
00000000
01000000
00000000
00100000
00000000
01000000
00000000
00010000
00000000
00100000
00010000
00100000
00010000
00100000
00001000
,  // measure 48
00020000
00000000
00031000
00010000
00000100
00001000
00000010
00000100
,  // measure 49
00000002
00000000
00000103
00000010
00000100
00000001
00000010
00000100
,  // measure 50
00002000
00000000
00003100
00000100
00001000
00000100
00010000
00001000
,  // measure 51
00010000
00000100
00001000
00000010
00000100
00000100
00000010
00001000
,  // measure 52
00000002
00000000
00000013
00000001
00000100
00000010
00002000
00000000
,  // measure 53
00003100
00000000
00001000
00000010
00000100
00000001
00001000
00000100
,  // measure 54
00020000
00000000
00031000
00001000
00010000
00001000
00200000
00000000
,  // measure 55
00310000
00000000
01000000
00000000
00100000
00000000
10000000
00000000
00010000
00000000
01000000
00100000
01000000
00100000
01000000
00100000
,  // measure 56
20000000
00000000
30100000
10000000
01000000
00100000
00002000
00000000
,  // measure 57
00103000
00010000
01000000
00100000
01000000
00010000
00100000
00001000
,  // measure 58
00020000
00000000
00000000
00000000
00031000
00000000
00010000
00000000
00000100
00001000
00000000
00000000
00000002
00000000
00000000
00000000
,  // measure 59
00000103
00000000
00000010
00000000
00000100
00000000
00000001
00000000
00001000
00000000
00000010
00000000
00000200
00000000
00000000
00000300
,  // measure 60
00000001
00000010
00000200
00000000
00000000
00000000
00001300
00000000
00000001
00000000
00001000
00000000
00000020
00000000
00000000
00000000
,  // measure 61
00000130
00000000
00000010
00000000
00001000
00000000
00000100
00000000
00010000
00000000
00001000
00000000
00200000
00000000
00000000
00300000
,  // measure 62
00010000
10000000
00200000
00000000
00000000
00000000
01300000
00000000
00100000
00000000
10000000
00000000
02000000
00000000
00000000
00000000
,  // measure 63
03100000
00010000
01000000
00001000
00010000
00000100
00001000
00000000
,  // measure 64
00000010
00001000
00000100
00000000
00000101
00000000
00002000
00000000
,  // measure 65
00000000
00000000
00003000
00000000
00000001
00000010
00000100
00001000
,  // measure 66
00000020
00000130
00000110
00002000
,  // measure 67
00003010
00001000
00000100
00000000
00001100
00000000
00010000
00000000
,  // measure 68
00001000
00010000
00200000
00000000
10300000
00000000
02000000
00000000
,  // measure 69
00000000
00000000
00000000
00000000
00000000
00000000
00000000
03000000
10000000
00000000
01000000
00000000
00100000
00000000
00010000
00000000
,  // measure 70
02000000
00000000
03010000
01000000
00001000
00000000
00022000
00000000
,  // measure 71
00000000
00033000
00000000
00000000
;
