#VERSION:0.82;
#TITLE:Bills;
#SUBTITLE:;
#ARTIST:Lunchmoney Lewis;
#TITLETRANSLIT:;
#SUBTITLETRANSLIT:;
#ARTISTTRANSLIT:;
#GENRE:Grim Reality;
#ORIGIN:;
#CREDIT:;
#BANNER:Bills.png;
#BACKGROUND:Bills-bg.png;
#PREVIEWVID:;
#JACKET:jacket.png;
#CDIMAGE:;
#DISCIMAGE:;
#LYRICSPATH:;
#CDTITLE:;
#MUSIC:Bills.ogg;
#OFFSET:0.000000;
#SAMPLESTART:48.573902;
#SAMPLELENGTH:13.714000;
#SELECTABLE:YES;
#BPMS:0.000=252.000,
72.000=126.000,
76.000=252.000,
140.000=126.000,
172.000=252.000,
300.000=126.000,
340.000=252.000;
#STOPS:;
#DELAYS:;
#WARPS:;
#TIMESIGNATURES:0.000=4=4;
#TICKCOUNTS:0.000=4;
#COMBOS:0.000=1;
#SPEEDS:0.000=1.000=0.000=0;
#SCROLLS:0.000=1.000;
#FAKES:;
#LABELS:0.000=Song Start;
#BGCHANGES:12.000=Bills.avi=1.000=0=0=1=====,
99999=-nosongbg-=1.000=0=0=0 // don't automatically add -songbackground-
;
#KEYSOUNDS:;
#ATTACKS:
;

//---------------dance-single - ----------------
#NOTEDATA:;
#CHARTNAME:;
#STEPSTYPE:dance-single;
#DESCRIPTION:;
#CHARTSTYLE:;
#DIFFICULTY:Hard;
#METER:8;
#RADARVALUES:0.563302,0.805530,0.336235,0.152834,0.015283,452.000000,44.000000,20.000000,0.000000,0.000000,0.000000,0.000000,0.000000,0.563302,0.805530,0.336235,0.152834,0.015283,452.000000,44.000000,20.000000,0.000000,0.000000,0.000000,0.000000,0.000000;
#CREDIT:Ben Speirs;
#NOTES:
0000
0000
0000
0000
,
0000
0000
0000
0000
,
0000
0000
0000
0000
,
0000
0000
0000
0000
,
1001
0000
0100
0000
,
0001
0000
0000
1000
0000
0000
0100
0000
,
0000
0000
1100
0000
,
0011
0000
1000
0001
,
0101
0000
1100
0000
,
0101
0000
1000
0001
,
0100
0000
0010
0000
,
0100
0000
0001
0000
,
1001
0000
0100
0000
,
1000
0000
0000
0001
0000
0000
1000
0000
,
0000
0000
1010
0000
,
1001
0000
0100
0001
,
0011
0000
1100
0000
,
0001
0010
0100
1000
,
0020
0000
0100
0130
,
0110
0000
0001
0100
,
0010
0000
1000
0000
0100
0010
0100
0000
,
0010
0000
0001
0000
1000
0010
1000
0010
,
0100
0000
0001
1000
,
0010
0000
0000
0000
1000
0100
1000
0000
,
0001
0000
0100
0010
0100
0000
0001
1000
,
0001
0000
0010
0000
0100
1000
0001
0000
,
0010
0000
0001
0100
,
0010
0000
0000
0000
1000
0100
1000
0000
,
0010
0000
1000
0000
0001
0000
0100
0010
,
1000
0000
0001
0000
0010
0100
0010
0001
,
1000
0000
0010
1000
,
0001
0000
0000
0000
0100
0001
0100
0000
,
0010
1000
0001
0010
,
0100
1000
0001
0100
,
0010
0010
1000
0000
,
1001
0000
0000
0100
0001
0000
0000
0000
1000
0000
0000
0000
0001
0000
1000
0000
,
0010
1000
0010
1000
0010
1000
0010
0000
,
1010
0000
0000
0100
0001
0000
0000
0000
1000
0000
0000
0000
0001
0000
0010
0000
,
0100
0010
0100
0010
0100
0010
0100
0000
,
0011
0000
0000
1000
0001
0000
0000
0000
0100
0000
0000
0000
0010
0000
0100
0000
,
0001
0100
0001
0100
0001
0100
0001
0000
,
1001
0000
0000
1000
0100
0000
0000
0000
1100
0000
0000
0000
0011
0000
0000
0000
,
0101
1010
1100
0011
,
1001
1000
0100
1000
,
0010
0000
0100
0001
0000
0001
1000
0000
,
0001
0100
0010
1000
,
0001
0000
0010
0100
0000
0100
1000
0000
,
1100
0000
0101
0000
,
1100
0000
0001
0010
,
0100
1000
0010
0100
,
0101
0000
1010
0000
,
1001
0001
0010
0001
,
0100
0000
0010
1000
0000
1000
0001
0000
,
1000
0010
0100
0001
,
1000
0000
0100
0010
0000
0010
0001
0000
,
0011
0000
1010
0000
,
0001
0000
0010
0000
0100
0000
1000
0010
,
1000
0001
0010
0100
,
1100
0000
0101
0000
,
1000
0100
0001
0100
,
1000
0000
0001
0100
0000
0000
0000
0000
,
0010
1000
0010
0000
1000
0000
0001
0000
,
0010
0000
0001
1000
0000
0000
0000
0000
,
0100
1000
0001
1000
,
0100
0000
0010
0001
0000
0000
0000
0000
,
1000
0010
1000
0000
0001
0000
0100
0000
,
0010
0000
1000
0001
0000
0000
0000
0000
,
0001
0010
1000
0010
,
0001
0000
1000
0010
0000
0000
0000
0000
,
0100
0001
0100
0000
0001
0000
1000
0000
,
0100
0000
1000
0001
0000
0000
0000
0000
,
0010
0001
1000
0001
,
0010
0000
0100
1000
0000
0000
0000
0000
,
0001
0100
0001
0000
1000
0000
0010
0000
,
0100
0000
0001
1000
0000
0000
0000
0000
,
0200
0010
0000
0010
,
0000
0010
0000
0310
,
0002
0100
0000
0100
,
0000
0100
0000
0103
,
2000
0100
0000
0100
,
3002
0010
0000
0010
,
0203
0310
2000
3001
,
0020
0130
2000
3001
,
0200
0320
2030
3002
,
0103
0010
1000
0001
0101
0000
1010
0000
,
1001
0010
0001
0100
,
0010
0000
1000
0100
0000
0100
0010
0000
,
0001
1000
0010
0100
,
0001
0000
1000
0010
0000
0010
0100
0000
,
0101
0010
1100
0010
,
0101
0010
1000
0100
,
0010
0000
0001
0000
1000
0000
0010
0100
,
0010
0000
0100
0001
0100
0000
0010
0000
,
1000
0100
1000
0010
,
0100
0000
0001
0010
0000
0010
0100
0000
,
1000
0001
0100
0010
,
1000
0000
0001
0100
0000
0100
0010
0000
,
1010
0100
0011
0100
,
1010
0100
0001
0010
,
0100
1000
0001
0100
,
0010
0000
1000
0001
1000
0000
0010
0000
,
0110
0000
1001
0000
,
0100
0001
1000
0020
0000
0000
0000
0000
,
1030
0001
1000
0000
0010
0000
1000
0000
,
0100
1000
0001
0020
0000
0000
0000
0000
,
0031
1000
0010
0100
,
0001
0100
0010
2000
0000
0000
0000
0000
,
3001
0100
0001
0000
1000
0000
0010
0000
,
0100
0001
0010
0200
0000
0000
0000
0000
,
1300
0001
1000
0000
0001
0100
0001
0000
,
1000
0100
0010
0001
2000
0000
0000
0000
,
3001
0100
0001
0000
1000
0100
1000
0000
,
0001
0010
0100
1000
0002
0000
0000
0000
,
0103
0010
0100
0000
0001
1000
0001
0000
,
0010
0100
1000
0001
0020
0000
0000
0000
,
0031
0100
0010
1000
,
0100
0010
0001
1000
,
0010
0100
0000
0000
0000
0000
0000
0000
;

//---------------dance-single - ----------------
#NOTEDATA:;
#CHARTNAME:;
#STEPSTYPE:dance-single;
#DESCRIPTION:;
#CHARTSTYLE:;
#DIFFICULTY:Challenge;
#METER:9;
#RADARVALUES:0.784911,1.000000,0.420293,0.328593,0.053492,621.000000,55.000000,43.000000,0.000000,0.000000,0.000000,0.000000,0.000000,0.784911,1.000000,0.420293,0.328593,0.053492,621.000000,55.000000,43.000000,0.000000,0.000000,0.000000,0.000000,0.000000;
#CREDIT:Ben Speirs;
#OFFSET:0.010000;
#BPMS:0.000000=251.999985
,72.000000=125.999992
,76.000000=251.999985
,140.000000=125.999992
,172.000000=251.999985
,300.000000=125.999992
,316.000000=251.999985
;
#STOPS:;
#DELAYS:;
#WARPS:;
#TIMESIGNATURES:0.000000=4=4
;
#TICKCOUNTS:0.000000=4
;
#COMBOS:0.000000=1
;
#SPEEDS:0.000000=1.000000=0.000000=0
;
#SCROLLS:0.000000=1.000000
;
#FAKES:;
#LABELS:0.000000=Song Start
;
#NOTES:
0000
0000
0000
0000
,
0000
0000
0000
0000
,
0000
0000
0000
0000
,
0000
0000
0000
0000
,
1000
0100
0001
0100
,
1000
0000
0010
0100
0000
0100
0001
0000
,
1000
0001
0101
0000
,
1010
0000
1000
0010
0100
0010
1000
0000
,
0001
0010
0100
0000
1000
0010
0100
0000
,
0001
0010
0100
0000
1000
0100
0010
0001
,
1000
0010
0100
0001
,
0101
0010
1001
0000
,
0001
0010
1000
0010
,
0001
0000
0100
0010
0000
0010
1000
0000
,
0001
1000
1010
0000
,
0101
0000
0001
0100
0010
0100
0001
0000
,
1000
0100
0010
0000
0001
0100
0010
0000
,
1000
0100
0010
0000
0001
0010
0100
1000
,
0020
0000
0100
0130
,
1001
1000
0010
0100
,
0001
0000
1000
0000
0100
0010
0001
0000
,
0100
0000
0010
0000
1000
0100
0010
0001
,
1000
0010
0100
0100
,
0001
0000
0001
0000
0100
0010
1000
0000
,
0001
0000
1000
0100
0010
0000
0001
1000
,
0001
0000
0100
0000
0010
1000
0100
0010
,
0001
1000
0010
1000
,
0001
0000
0100
0000
0010
1000
0100
0000
,
0010
0000
0001
0000
1000
0000
0010
0100
,
0010
0000
1000
0000
0001
0010
0100
1000
,
0001
0100
0010
1000
,
0001
0000
0010
0000
0100
1000
0100
0000
,
0010
0001
1000
0010
,
0100
0100
0010
0010
,
1000
0001
1001
0110
,
1001
0000
1000
0100
0010
0000
0001
0000
1000
0000
0010
0000
0100
0000
1001
0000
,
0100
1001
0010
1001
0100
1001
0010
1001
,
0010
0000
0001
0100
0010
0000
1000
0000
0001
0000
0010
0000
0100
0000
1100
0000
,
0001
0101
1000
1010
0001
0011
1000
0001
,
0100
0000
0010
1000
0100
0000
0010
0000
0001
0000
1000
0000
0010
0000
1001
0000
,
0010
1001
0100
1001
0010
1001
0100
0001
,
1000
0000
0010
1000
0100
0000
0010
0000
0001
0000
1000
0000
0010
0000
0100
0000
,
0101
1000
1100
0001
0011
1000
1010
0001
,
0100
0010
0100
1000
,
0100
0000
0001
0010
0100
1000
0010
0000
,
1000
0001
1000
0010
,
0100
0000
0001
0010
0100
0000
1000
0000
,
2010
3100
0012
0103
,
2010
0000
3100
0000
0010
0001
0100
0010
,
1000
0001
1000
0010
,
0110
0001
0101
1000
,
0010
0100
0010
0001
,
0010
0000
1000
0100
0010
0001
0100
0000
,
0001
1000
0001
0100
,
0010
0000
1000
0100
0010
0000
0001
0000
,
0102
0013
2100
3010
,
0102
0000
0013
0000
0100
1000
0010
0100
,
0001
1000
0001
0100
,
0110
1000
1010
0001
,
2000
3100
0002
0103
,
1000
0010
0001
0010
2000
0000
3100
0000
,
0010
0001
0200
0000
0320
0000
2030
0000
,
3001
0010
1000
0010
0002
0000
0103
0000
,
0002
0013
2000
3010
,
0001
0100
1000
0100
0002
0000
0013
0000
,
0100
1000
0020
0000
0230
0000
0302
0000
,
1003
0100
0001
0100
2000
0000
3010
0000
,
0120
0130
0201
0301
,
0001
0010
0100
1000
0002
0000
0103
0000
,
0010
0100
0010
0000
1010
0000
0101
0000
,
1000
0100
0010
0001
2000
0000
3001
0000
,
0210
0310
1020
1030
,
1000
0100
0010
0001
2000
0000
3010
0000
,
0100
0010
0100
0000
0101
0000
1010
0000
,
0001
0010
0100
1000
0002
0000
0000
0000
,
0013
0000
0100
1000
0100
0000
0010
0000
0001
0000
1000
0000
0010
0000
0100
0000
,
0001
1000
0000
1000
0100
0000
1000
0000
0010
0000
0100
0000
0001
0000
1000
0000
,
0010
0000
0100
0001
0100
0000
0010
0000
1000
0000
0100
0000
0010
0000
0001
0000
,
1000
0001
0000
0001
0100
0000
0010
0000
1000
0000
0001
0000
0010
0000
0100
0000
,
1000
1000
0100
0100
,
0001
0001
0010
0010
,
1000
1000
0100
0100
,
0001
0001
0010
0010
,
0002
0000
0103
0000
,
2000
0000
3100
0000
,
0002
0000
0013
0000
,
2000
0000
3010
0000
,
0002
0000
2003
0000
,
3020
0000
0230
0000
,
0301
1000
0010
0100
,
0001
0000
0000
1000
0000
0000
0001
0000
0000
1000
0000
0000
0010
0000
0100
0000
0010
0000
0100
0000
0010
0000
0100
0000
,
0010
0100
0010
0001
,
0010
0000
1000
0100
0010
0001
0100
0000
,
0001
1000
0001
0100
,
0010
0000
1000
0100
0010
0000
0001
0000
,
0102
0013
2100
3010
,
0102
0000
0013
0000
0100
1000
0010
0100
,
0001
1000
0001
0100
,
0110
1000
1010
0001
,
0100
0010
0100
1000
,
0100
0000
0001
0010
0100
1000
0010
0000
,
1000
0001
1000
0010
,
0100
0000
0001
0010
0100
0000
1000
0000
,
2010
3100
0012
0103
,
2010
0000
3100
0000
0010
0001
0100
0010
,
1000
0001
1000
0010
,
0110
0001
0101
1000
,
0100
0010
0001
0000
1000
0010
0100
0000
,
0001
0010
0100
1000
0001
0000
0100
0000
,
0010
1000
0010
0000
0100
0000
0001
0000
,
1000
0100
0010
0001
1000
0000
0001
0000
,
1000
0010
1000
0000
0001
0100
0001
0000
,
1000
0100
0010
0001
1000
0000
0001
0000
,
0100
0010
0100
0000
0001
0000
1000
0000
,
0001
0010
0100
1000
0001
0000
0100
0000
,
0010
1000
0100
0000
0010
0001
0100
0000
,
0010
1000
0100
0010
0001
1000
0010
0000
,
0100
0001
1000
0000
0100
1000
0001
0000
,
0010
0001
1000
0010
0100
0001
1000
0000
,
0010
0100
0001
0000
0010
0100
1000
0000
,
0001
0010
0100
1000
0001
0100
0010
0000
,
1000
0100
0001
0010
,
1000
0100
0001
0010
,
1000
0010
0000
0000
0000
0000
0000
0000
;

//---------------dance-single - ----------------
#NOTEDATA:;
#CHARTNAME:;
#STEPSTYPE:dance-single;
#DESCRIPTION:;
#CHARTSTYLE:;
#DIFFICULTY:Medium;
#METER:6;
#RADARVALUES:0.409377,0.759967,0.137551,0.206326,0.000000,330.000000,18.000000,27.000000,0.000000,0.000000,0.000000,0.000000,0.000000,0.409377,0.759967,0.137551,0.206326,0.000000,330.000000,18.000000,27.000000,0.000000,0.000000,0.000000,0.000000,0.000000;
#CREDIT:Ben Speirs;
#NOTES:
0000
0000
0000
0000
,
0000
0000
0000
0000
,
0000
0000
0000
0000
,
0000
0000
0000
0000
,
1001
0000
0100
0000
,
0010
1000
0100
1000
,
0001
0000
0100
0000
,
0010
0000
1000
0100
,
0010
0000
0010
0000
,
0010
0000
0001
0010
,
0100
0000
1000
0000
,
0001
1000
0010
0000
,
1001
0000
0100
0000
,
0010
0000
1000
0001
,
0010
0000
0100
0000
,
1000
0000
0010
1000
,
0001
0000
0001
0000
,
0001
0010
0100
1000
,
0020
0000
0100
0130
,
0110
0000
0001
0100
,
0010
0000
1000
0000
,
0001
0000
1000
0100
,
0010
0000
0001
0000
,
1000
0000
0010
1000
,
0100
0000
0010
0000
,
0001
0000
1000
0001
,
0100
0000
0010
0000
,
0100
0000
0001
0010
,
0100
0000
1000
0000
,
0001
0000
1000
0010
,
0100
0000
0001
0000
,
1000
0000
0010
1000
,
0100
0000
0010
0000
,
0001
0000
1000
0001
,
0100
0000
0010
0000
,
2000
0000
3200
0000
0310
0000
0000
1000
,
0001
1000
0001
1000
0001
1000
0001
0000
,
0020
0000
0032
0000
0103
0000
0000
0010
,
0100
0010
0100
0010
0100
0010
0100
0000
,
0020
0000
2030
0000
3100
0000
0000
1000
,
0100
1000
0100
1000
0100
1000
0100
0000
,
2000
3002
0203
0320
,
2030
3002
0023
0230
,
1300
0000
0101
0000
,
1000
0000
0001
0010
,
0100
0000
1000
0000
,
0001
1000
0010
0100
,
0001
0100
0001
0100
,
0001
0000
0010
0001
,
0100
0000
0010
0000
,
0100
0001
1000
0000
,
0001
0000
1010
0000
,
0001
0000
1000
0100
,
0010
0000
0001
0000
,
1000
0001
0100
0010
,
1000
0010
1000
0010
,
1000
0000
0100
1000
,
0010
0000
0100
0000
,
0010
1000
0001
0000
,
1000
0000
0001
0000
,
0100
0000
0000
0010
0000
0000
0000
0000
,
1000
0100
0010
0001
,
1000
0000
0000
0010
0000
0000
0000
0000
,
0100
0000
0001
0000
,
1000
0000
0000
0001
0000
0000
0000
0000
,
0010
0001
0100
0010
,
1000
0000
0000
0100
0000
0000
0000
0000
,
1000
0000
0001
0000
,
0100
0000
0000
0010
0000
0000
0000
0000
,
0100
0001
0010
0100
,
1000
0000
0000
0001
0000
0000
0000
0000
,
1000
0000
0010
0000
,
1000
0000
0000
0001
0000
0000
0000
0000
,
0010
0001
0100
0010
,
1000
0000
0000
0001
0000
0000
0000
0000
,
0200
0010
0000
0010
,
0000
0010
0000
0310
,
0002
0010
0000
0010
,
0000
0010
0000
0013
,
2000
3100
1000
0010
,
0200
0310
1000
0100
,
0020
0031
2000
3001
,
0020
0031
2000
3001
,
0020
0032
2003
3002
,
0013
0001
1000
0001
0010
0001
1000
0001
,
0100
0000
0010
0000
,
1000
0000
0001
0010
,
0100
0000
1100
0000
,
0101
0000
1000
0001
,
0100
0000
0100
0000
,
0010
0100
0001
0010
,
0100
0000
1000
0000
,
0001
1000
0010
0000
,
1001
0000
0110
0000
,
1001
0000
0100
0010
,
1000
0000
0001
0000
,
1000
0000
0100
0010
,
0001
0000
0001
0000
,
1000
0001
1000
0001
,
0100
0000
0010
0000
,
0100
0001
1000
0000
,
1100
0000
0101
0000
,
1000
0000
0000
0001
0000
0000
0000
0000
,
1000
0100
0010
0001
,
1000
0000
0000
0001
0000
0000
0000
0000
,
1010
0000
0011
0000
,
0100
0000
0000
0010
0000
0000
0000
0000
,
0100
0001
0010
0100
,
1000
0000
0000
0001
0000
0000
0000
0000
,
1000
0000
1100
0000
,
1001
0000
0000
0001
0000
0000
0000
0000
,
0001
0100
0001
1000
,
0001
0000
0000
1001
0000
0000
0000
0000
,
0010
0000
0011
0000
,
1000
0000
0000
0010
0000
0000
0000
0000
,
0100
0001
0010
0100
,
1000
0010
0100
0001
,
1000
0000
0000
0000
;

//---------------dance-single - ----------------
#NOTEDATA:;
#CHARTNAME:;
#STEPSTYPE:dance-single;
#DESCRIPTION:;
#CHARTSTYLE:;
#DIFFICULTY:Easy;
#METER:5;
#RADARVALUES:0.338418,0.625855,0.137551,0.099342,0.000000,279.000000,18.000000,13.000000,0.000000,0.000000,0.000000,0.000000,0.000000,0.338418,0.625855,0.137551,0.099342,0.000000,279.000000,18.000000,13.000000,0.000000,0.000000,0.000000,0.000000,0.000000;
#CREDIT:Ben Speirs;
#NOTES:
0000
0000
0000
0000
,
0000
0000
0000
0000
,
0000
0000
0000
0000
,
0000
0000
0000
0000
,
1001
0000
0100
0000
,
0010
0000
1000
0100
,
0010
0000
0001
0000
,
1000
0000
0010
0100
,
0001
0000
0001
0000
,
0001
0000
0100
0010
,
1000
0000
0001
0000
,
0010
0100
1000
0000
,
1001
0000
0010
0000
,
0001
0000
1000
0010
,
0100
0000
0001
0000
,
1000
0000
0001
0010
,
0100
0000
0100
0000
,
0100
1000
0010
0100
,
0002
0000
0003
0000
,
0001
0000
1000
0000
,
0010
0000
1000
0000
,
0001
0000
0010
0100
,
1000
0000
0001
0000
,
1000
0000
0010
0000
,
0100
0000
0010
0000
,
1000
0000
0100
0010
,
0001
0000
1000
0000
,
0001
0000
0100
0100
,
0100
0000
0010
0000
,
0100
0000
0001
1000
,
0100
0000
0010
0000
,
0001
0000
1000
1000
,
1000
0000
0010
0000
,
1000
0000
0100
0010
,
0001
0000
0000
0000
,
1000
0001
0100
0010
,
2000
0100
3100
0000
,
1000
0010
0100
0001
,
0020
0100
0130
0000
,
0010
0001
0100
0010
,
2000
0001
3001
0000
,
1000
0100
0010
0001
,
1001
0110
1001
0110
,
1001
0000
0100
0000
,
0010
0000
1000
1000
,
1000
0000
0001
0000
,
1000
0100
0010
0000
,
0001
1000
0001
1000
,
0001
0000
0010
0010
,
0010
0000
0001
0000
,
0100
0010
1000
0000
,
1001
0000
0100
0000
,
0010
0000
0100
0100
,
0100
0000
0001
0000
,
1000
0000
0100
0010
,
0001
1000
0001
1000
,
0001
0000
0100
0100
,
0100
0000
0010
0000
,
1000
0000
0001
0000
,
1001
0000
0100
0000
,
0010
0000
0000
0010
0000
0000
0000
0000
,
1000
0000
0001
0000
,
0010
0000
0000
0010
0000
0000
0000
0000
,
0001
0000
1000
0000
,
0010
0000
0000
0010
0000
0000
0000
0000
,
1000
0000
0001
0000
,
0010
0000
0000
0010
0000
0000
0000
0000
,
0001
0000
1000
0000
,
0100
0000
0000
0100
0000
0000
0000
0000
,
1000
0000
0001
0000
,
0100
0000
0000
0100
0000
0000
0000
0000
,
0001
0000
1000
0000
,
0100
0000
0000
0100
0000
0000
0000
0000
,
1000
0000
0001
0000
,
0100
0000
0000
0100
0000
0000
0000
0000
,
0010
0000
1000
0000
,
0001
1000
0001
1000
,
0100
0000
0010
0000
,
0001
1000
0001
1000
,
0010
0000
0100
0000
,
0001
1000
0001
1000
,
0200
0300
0020
0030
,
0002
0003
2000
3000
,
0020
2030
3002
0203
,
0320
0000
0100
0130
,
0110
0000
0001
0000
,
0100
0000
0010
1000
,
0100
0000
0010
0000
,
0001
0000
1000
0000
,
1001
0000
1001
0000
,
1001
0000
0010
0010
,
0010
0000
0001
0000
,
1000
0001
0100
0000
,
1001
0000
0100
0000
,
0010
0000
1000
0100
,
0010
0000
0001
0000
,
1000
0000
0010
0000
,
1001
0000
1001
0000
,
0010
0010
0010
0010
,
0010
0000
0100
0000
,
0001
1000
0001
0000
,
1000
0000
0100
0000
,
0010
0000
0000
0001
0000
0000
0000
0000
,
1000
0000
0001
0000
,
0100
0000
0000
0010
0000
0000
0000
0000
,
0100
0000
0001
0000
,
0010
0000
0000
0100
0000
0000
0000
0000
,
0010
0000
0001
0000
,
1000
0000
0001
0000
,
0110
0000
0001
0000
,
1000
0000
0000
0010
0000
0000
0000
0000
,
1000
0000
0001
0000
,
0010
0000
0000
0100
0000
0000
0000
0000
,
0010
0000
0001
0000
,
1000
0000
0000
0010
0000
0000
0000
0000
,
0100
0000
0001
0000
,
1000
0000
0100
0000
,
0011
0000
0000
0000
;

//---------------dance-single - ----------------
#NOTEDATA:;
#CHARTNAME:;
#STEPSTYPE:dance-single;
#DESCRIPTION:;
#CHARTSTYLE:;
#DIFFICULTY:Beginner;
#METER:3;
#RADARVALUES:0.179034,0.402335,0.030567,0.000000,0.000000,160.000000,4.000000,0.000000,0.000000,0.000000,0.000000,0.000000,0.000000,0.179034,0.402335,0.030567,0.000000,0.000000,160.000000,4.000000,0.000000,0.000000,0.000000,0.000000,0.000000,0.000000;
#CREDIT:Ben Speirs;
#NOTES:
0000
0000
0000
0000
,
0000
0000
0000
0000
,
0000
0000
0000
0000
,
0000
0000
0000
0000
,
1000
0000
0000
0000
,
0001
0000
0000
0000
,
0100
0000
0000
0000
,
0100
0000
0000
0000
,
0010
0000
0010
0000
,
0010
0000
0000
0000
,
1000
0000
0000
0000
,
0001
0000
0000
0000
,
0010
0000
0000
0000
,
0001
0000
0000
0000
,
1000
0000
0000
0000
,
0010
0000
0000
0000
,
0100
0000
0100
0000
,
0100
0000
0000
0000
,
1001
0000
0000
0000
,
0100
0000
0000
0000
,
1000
0000
0000
0000
,
0010
0000
0010
0000
,
0010
0000
0000
0000
,
0100
0000
0000
0000
,
0001
0000
0000
0000
,
1000
0000
1000
0000
,
1000
0000
0000
0000
,
0100
0000
0000
0000
,
0010
0000
0000
0000
,
0001
0000
0001
0000
,
0001
0000
0000
0000
,
1000
0000
0000
0000
,
0010
0000
0000
0000
,
0100
0000
0100
0000
,
0100
0000
0000
0000
,
0001
0000
0000
0000
,
1000
1000
1000
0000
,
0100
0000
0000
0000
,
0010
0010
0010
0000
,
0001
0000
0000
0000
,
1000
1000
1000
0000
,
0010
0000
0010
0000
,
0100
0100
0100
0100
,
0100
0000
0000
0000
,
0001
0000
0001
0000
,
0001
0000
0000
0000
,
1000
0000
0000
0000
,
0010
0000
0010
0000
,
0010
0000
0000
0000
,
1000
0000
0000
0000
,
0001
0000
0001
0000
,
0001
0000
0000
0000
,
0010
0000
0010
0000
,
0010
0000
0000
0000
,
0001
0000
0000
0000
,
1000
0000
1000
0000
,
1000
0000
1000
0000
,
1000
0000
0000
0000
,
0010
0000
0000
0000
,
0110
0000
0000
0000
,
0001
0000
0000
0000
,
1000
0000
1000
0000
,
1000
0000
0000
0000
,
0100
0000
0000
0000
,
1000
0000
0000
0000
,
0001
0000
0001
0000
,
0001
0000
0000
0000
,
0010
0000
0000
0000
,
0001
0000
0000
0000
,
0100
0000
0100
0000
,
0100
0000
0000
0000
,
0010
0000
0000
0000
,
1000
0000
0000
0000
,
0001
0000
0001
0000
,
0001
0000
0000
0000
,
1001
0000
0000
0000
,
0100
0000
0000
0000
,
0010
0000
0000
0000
,
1000
0000
0000
0000
,
0001
0000
1000
0000
,
0010
0000
0010
0000
,
1000
0000
0001
0000
,
1000
0000
0001
0000
,
1000
0001
1000
0001
,
1000
0001
1000
0001
,
1000
0000
0000
0000
,
0100
0000
0000
0000
,
0010
0000
0000
0000
,
0001
0000
0000
0000
,
0100
0000
0100
0000
,
0100
0000
0100
0000
,
0100
0000
0000
0000
,
0001
0000
0001
0000
,
0001
0000
0000
0000
,
1000
0000
0000
0000
,
0010
0000
0000
0000
,
1000
0000
0000
0000
,
0100
0000
0100
0000
,
0100
0000
0100
0000
,
0100
0000
0000
0000
,
0010
0000
0000
0000
,
1001
0000
0000
0000
,
0010
0000
0000
0000
,
1000
0000
0100
0000
,
0010
0000
0000
0000
,
0001
0000
0000
0000
,
1000
0000
0000
0000
,
0001
0000
0100
0000
,
0010
0000
0000
0000
,
1000
0000
0000
0000
,
0001
0000
0000
0000
,
1000
0000
0010
0000
,
0100
0000
0000
0000
,
0001
0000
0000
0000
,
1000
0000
0000
0000
,
0100
0000
0100
0000
,
0100
0000
0100
0000
,
0100
0000
0000
0000
;

//---------------dance-double - ----------------
#NOTEDATA:;
#CHARTNAME:;
#STEPSTYPE:dance-double;
#DESCRIPTION:;
#CHARTSTYLE:;
#DIFFICULTY:Challenge;
#METER:9;
#RADARVALUES:0.739061,1.000000,0.458502,0.267459,0.076417,582.000000,60.000000,35.000000,0.000000,0.000000,0.000000,0.000000,0.000000,0.739061,1.000000,0.458502,0.267459,0.076417,582.000000,60.000000,35.000000,0.000000,0.000000,0.000000,0.000000,0.000000;
#CREDIT:Ben Speirs;
#NOTES:
// measure 0
00000000
00000000
00000000
00000000
,  // measure 1
00000000
00000000
00000000
00000000
,  // measure 2
00000000
00000000
00000000
00000000
,  // measure 3
00000000
00000000
00000000
00000000
,  // measure 4
10000000
01000000
10000000
00100000
,  // measure 5
10000000
00000000
00010000
00100000
00000000
00100000
01000000
00000000
,  // measure 6
10000000
00010000
01010000
00000000
,  // measure 7
11000000
00000000
00010000
00100000
01000000
10000000
00100000
00000000
,  // measure 8
01010000
00000000
00011000
00000000
,  // measure 9
00001100
00000000
00000000
00000000
00001000
00000100
00000010
00000001
,  // measure 10
00001000
00000010
00000100
00000001
,  // measure 11
00000101
00000100
00001010
00000000
,  // measure 12
00000001
00000010
00000001
00000100
,  // measure 13
00000001
00000000
00001000
00000100
00000000
00000100
00000010
00000000
,  // measure 14
00000001
00001000
00001010
00000000
,  // measure 15
00000011
00000000
00001000
00000100
00000010
00000001
00000100
00000000
,  // measure 16
00001010
00000000
00011000
00000000
,  // measure 17
00110000
00000000
00000000
00000000
00010000
00100000
01000000
10000000
,  // measure 18
00020000
00000000
01000000
01030000
,  // measure 19
10010000
00000000
10000000
01000000
,  // measure 20
00100000
00010000
01000000
00100000
,  // measure 21
10000000
00000000
00010000
00000000
01000000
00100000
01000000
00100000
,  // measure 22
10000000
00000000
00010000
00000000
,  // measure 23
10000000
00000000
01000000
00100000
,  // measure 24
00001000
00100000
00001000
00010000
,  // measure 25
00000100
00000000
00001000
00000000
00000010
00001000
00000010
00001000
,  // measure 26
00000001
00000100
00000010
00000000
,  // measure 27
00001000
00000000
00000010
00000000
00000100
00000001
00000100
00000000
,  // measure 28
00000010
00000000
00001000
00000000
00000100
00000000
00000010
00000001
,  // measure 29
00000010
00000000
00000100
00000000
00001000
00000001
00001000
00000001
,  // measure 30
00001000
00000010
00000100
00000000
,  // measure 31
00000001
00000100
00000010
00001000
,  // measure 32
00000100
00000100
00010000
00010000
,  // measure 33
00001000
00001000
00100000
00010000
,  // measure 34
01000000
00100000
10000000
00000000
,  // measure 35
01010000
00000000
11000000
00000000
01010000
00000000
00000000
10000000
,  // measure 36
00010000
10000000
00010000
10000000
01000000
00100000
00010000
00000000
,  // measure 37
00101000
00000000
00011000
00000000
00101000
00000000
00000000
00000100
,  // measure 38
00010000
00000100
00010000
00000100
00010000
00000010
00000100
00000000
,  // measure 39
00000101
00000000
00001100
00000000
00000101
00000000
00000000
00001000
,  // measure 40
00000001
00001000
00000001
00001000
00000010
00000100
00000001
00000000
,  // measure 41
00001000
00000100
00002000
00000000
00003001
00000100
00000002
00000000
,  // measure 42
00001003
00000100
00010000
00001000
00101000
00000000
00011000
00000000
,  // measure 43
01010000
01000000
10000000
01000000
,  // measure 44
00010000
00000000
00010000
00100000
01000000
10000000
00100000
00000000
,  // measure 45
01000000
00010000
01010000
00000000
,  // measure 46
11000000
00000000
00010000
00100000
01000000
10000000
00100000
00000000
,  // measure 47
10000000
01000000
10000000
00000000
01000000
00010000
01000000
00000000
,  // measure 48
00010000
00001000
00010000
00000000
00001000
00000100
00001000
00000100
,  // measure 49
00000001
00001000
00000100
00000010
,  // measure 50
00000001
00001000
00000001
00000000
00001001
00000000
00000000
00000000
,  // measure 51
00001010
00000010
00000001
00000010
,  // measure 52
00001000
00000000
00001000
00000100
00000010
00000001
00000100
00000000
,  // measure 53
00000010
00001000
00001010
00000000
,  // measure 54
00000011
00000000
00001000
00000100
00000010
00000001
00000100
00000000
,  // measure 55
00000001
00000010
00000001
00000000
00000010
00001000
00000010
00000000
,  // measure 56
00001000
00010000
00001000
00000000
00010000
00100000
00010000
00100000
,  // measure 57
10000000
00010000
00100000
01000000
,  // measure 58
10000000
00010000
10000000
00000000
10010000
00000000
00000000
00000000
,  // measure 59
01010000
00100000
11000000
00100000
,  // measure 60
10000000
01000000
00100000
00010000
20000000
00000000
30010000
00000000
,  // measure 61
01000000
00010000
00200000
00000000
02300000
00000000
23000000
00000000
,  // measure 62
30010000
00100000
01000000
10000000
00010000
00000000
01000000
00000000
,  // measure 63
01010000
10000000
11000000
00010000
,  // measure 64
10000000
01000000
00100000
00010000
20000000
00000000
30100000
00000000
,  // measure 65
01000000
00010000
00200000
00000000
00302000
00000000
00023000
00000000
,  // measure 66
00030100
00001000
00000010
00000100
00000002
00000000
00000003
00000000
,  // measure 67
00001010
00000100
00000011
00000100
,  // measure 68
00000001
00000010
00000100
00001000
00000002
00000000
00001003
00000000
,  // measure 69
00000010
00001000
00000200
00000000
00000320
00000000
00000032
00000000
,  // measure 70
00001003
00000100
00000010
00000001
00001000
00000000
00000010
00000000
,  // measure 71
00001010
00000001
00000011
00001000
,  // measure 72
00000001
00000010
00000100
00001000
00000002
00000000
00000103
00000000
,  // measure 73
00000010
00001000
00000200
00000000
00020300
00000000
00032000
00000000
,  // measure 74
00103000
00010000
01000000
00100000
20000000
00000000
30000000
00000000
,  // measure 75
00010000
00000000
00000000
00010000
01000000
00000000
00000000
00000000
00010000
00000000
00000000
00000000
01010000
00000000
00000000
00000000
,  // measure 76
10000000
00000000
00000000
10000000
01000000
00000000
00000000
00000000
10000000
00000000
00000000
00000000
11000000
00000000
00000000
00000000
,  // measure 77
00010000
00000000
00000000
00010000
00100000
00000000
00000000
00000000
00010000
00000000
00000000
00000000
00110000
00000000
00000000
00000000
,  // measure 78
10000000
00000000
00000000
10000000
00100000
00000000
00000000
00000000
10000000
00000000
00000000
00000000
10100000
00000000
00000000
00000000
,  // measure 79
00010000
00100000
01000000
10000000
00100000
01000000
00010000
00100000
,  // measure 80
00001000
00010000
00000100
00001000
00000010
00000100
00000001
00001000
,  // measure 81
00000010
00000100
00000010
00000100
00000010
00000000
00000000
00000000
00000100
00000001
00000100
00000001
00000100
00000000
00000000
00000000
,  // measure 82
00000010
00001000
00000010
00001000
00000010
00000000
00000000
00000000
00010000
00000100
00010000
00000100
00010000
00000000
00000000
00000000
,  // measure 83
00001000
00010000
00001000
00000000
00100000
00010000
00100000
00000000
00001000
00010000
00001000
00000000
00010000
00000100
00010000
00000000
,  // measure 84
00001000
00000000
00000010
00000000
00000100
00000000
00000001
00000000
00001000
00000010
00001000
00000010
00001000
00000010
00001000
00000010
,  // measure 85
00001010
00000010
00000001
00000010
,  // measure 86
00001000
00000000
00001000
00000100
00000010
00000001
00000100
00000000
,  // measure 87
00000010
00001000
00001010
00000000
,  // measure 88
00000011
00000000
00001000
00000100
00000010
00000001
00000100
00000000
,  // measure 89
00000001
00000010
00000001
00000000
00000010
00001000
00000010
00000000
,  // measure 90
00001000
00010000
00001000
00000000
00010000
00100000
00010000
00100000
,  // measure 91
10000000
00010000
00100000
01000000
,  // measure 92
10000000
00010000
10000000
00000000
10010000
00000000
00000000
00000000
,  // measure 93
01010000
01000000
10000000
01000000
,  // measure 94
00010000
00000000
00010000
00100000
01000000
10000000
00100000
00000000
,  // measure 95
01000000
00010000
01010000
00000000
,  // measure 96
11000000
00000000
00010000
00100000
01000000
10000000
00100000
00000000
,  // measure 97
10000000
01000000
10000000
00000000
01000000
00010000
01000000
00000000
,  // measure 98
00010000
00001000
00010000
00000000
00001000
00000100
00001000
00000100
,  // measure 99
00000001
00001000
00000100
00000010
,  // measure 100
00000001
00001000
00000001
00000000
00001001
00000000
00000000
00000000
,  // measure 101
00001010
00000100
00000011
00000100
,  // measure 102
00000001
00000010
00000100
00001000
00000002
00000000
00001003
00000000
,  // measure 103
00000010
00001000
00000200
00000000
00000320
00000000
00000032
00000000
,  // measure 104
00001003
00000100
00000010
00000001
00001000
00000000
00000010
00000000
,  // measure 105
00001010
00000001
00000011
00001000
,  // measure 106
00000001
00000010
00000100
00001000
00000002
00000000
00000103
00000000
,  // measure 107
00000010
00001000
00000200
00000000
00020300
00000000
00032000
00000000
,  // measure 108
00103000
00010000
01000000
00100000
20000000
00000000
30000000
00000000
,  // measure 109
01010000
00100000
11000000
00100000
,  // measure 110
10000000
01000000
00100000
00010000
20000000
00000000
30010000
00000000
,  // measure 111
01000000
00010000
00200000
00000000
02300000
00000000
23000000
00000000
,  // measure 112
30010000
00100000
01000000
10000000
00010000
00000000
01000000
00000000
,  // measure 113
01010000
10000000
11000000
00010000
,  // measure 114
10000000
01000000
00100000
00010000
20000000
00000000
30100000
00000000
,  // measure 115
01000000
00010000
00100000
00001000
00010000
00000010
00000100
00000010
,  // measure 116
00001000
00000100
00000010
00000001
00001000
00000100
00010000
00001000
,  // measure 117
01000000
00100000
00000000
00000000
00000000
00000000
00000000
00000000
;
