#TITLE:Bad Blood;
#SUBTITLE:[ANOTHER];
#ARTIST:Taylor Swift ft. Kendrick Lamar;
#TITLETRANSLIT:;
#SUBTITLETRANSLIT:;
#ARTISTTRANSLIT:;
#GENRE:Always Relevant;
#CREDIT:;
#BANNER:Bad Blood.png;
#BACKGROUND:Bad Blood-bg.png;
#LYRICSPATH:;
#CDTITLE:;
#MUSIC:../Bad Blood/Bad Blood.ogg;
#OFFSET:-0.520000;
#SAMPLESTART:93.673958;
#SAMPLELENGTH:13.714000;
#SELECTABLE:YES;
#BPMS:0.000000=85.000000
,132.000000=170.000000
,252.000000=1360.000000
;
#STOPS:
;
#BGCHANGES:4.000=../Bad Blood/Bad Blood.avi=1.000=0=0=1=====,
99999=-nosongbg-=1.000=0=0=0 // don't automatically add -songbackground-
;
#KEYSOUNDS:;
#ATTACKS:;

//---------------dance-single - ----------------
#NOTES:
     dance-single:
     :
     Challenge:
     13:
     0.820102,0.905868,0.348137,0.000000,1.000000,759.000000,49.000000,0.000000,0.000000,0.000000,0.000000,0.820102,0.905868,0.348137,0.000000,1.000000,759.000000,49.000000,0.000000,0.000000,0.000000,0.000000:
// measure 0
0000
0000
0000
0000
,  // measure 1
0000
0000
0000
0000
0000
0000
0000
1010
,  // measure 2
0000
0000
0000
0101
0000
0000
0000
0000
,  // measure 3
0000
0000
0000
0011
0000
0000
0000
1100
,  // measure 4
1001
0000
0010
1000
0000
0100
0010
0001
0000
1000
0001
1000
0010
0000
0100
0000
,  // measure 5
0001
1000
0100
0010
0001
1000
0010
0100
0010
1000
0100
0010
0001
1000
0100
1000
,  // measure 6
0001
0100
0010
0100
0001
0010
0100
0010
0001
1000
0010
0100
0001
1000
0100
0010
,  // measure 7
0000
0000
0001
0000
1000
0000
0010
0000
1000
0000
0001
0000
0100
0000
0010
0000
1000
0000
0100
0010
0100
0000
1000
0000
0001
0000
0000
0000
1000
0000
0010
0000
,  // measure 8
0100
0000
0101
0000
0100
0010
1000
0000
0001
0000
0000
0000
1000
0000
1100
0000
0100
0010
0001
0000
1000
0000
0000
0000
,  // measure 9
0010
0000
1010
0000
0100
0001
1000
0000
0100
0000
0010
0000
0001
0000
0011
0000
0001
1000
0100
0000
1000
0000
0000
0000
,  // measure 10
0010
0000
0000
0000
0110
0000
0000
0000
0100
0000
0001
0000
1000
0000
0000
0000
0100
0000
0000
0000
0000
0000
0000
0000
0010
0000
0000
0001
0000
0000
1000
0000
0000
0010
0000
0000
0100
0000
0000
0001
0000
0000
1000
0000
0000
0100
0000
0000
,  // measure 11
0010
0000
0001
0000
1000
0000
0010
0100
0010
0000
1000
0000
0100
0000
0010
0000
0001
0000
1000
0000
0010
0000
0100
0000
0001
0000
0000
0000
0101
0000
0000
0000
,  // measure 12
1001
0000
0100
0000
1000
0010
0100
0000
0001
0010
0001
1000
0010
1000
0100
0000
,  // measure 13
0010
0000
0001
0000
1000
0010
0100
0000
0001
0100
0001
1000
0010
1000
0100
0000
,  // measure 14
0010
0000
0001
0000
1000
0010
0100
0000
0001
0100
0001
1000
0010
1000
0001
0000
,  // measure 15
0100
0000
0001
0000
0010
0000
0100
0000
1000
0000
0010
0000
0100
0000
0001
0000
1000
0100
0010
0001
0100
0010
1000
0001
0000
0000
0000
0000
0000
0000
0000
0000
,  // measure 16
0101
0100
0010
0000
1001
0000
1000
0100
0010
0001
1000
0000
1001
0001
1000
0010
,  // measure 17
1010
0010
0100
0000
1001
0000
0100
0001
0010
0100
1000
0000
1100
0100
1000
0010
,  // measure 18
1010
0010
0100
0000
1001
0000
0001
0010
0100
1000
0001
0000
1001
1000
0010
0100
,  // measure 19
0101
0100
0010
0000
1001
0000
0010
1000
0100
0010
0001
0000
0011
0000
0000
0000
,  // measure 20
1100
0100
0010
0000
0001
1000
0010
0100
0001
1000
0010
0000
1010
0000
0001
0000
,  // measure 21
0101
0100
0010
0000
1001
1000
0100
0010
0001
1000
0010
0000
0110
0000
1000
0000
,  // measure 22
1100
1000
0001
0000
1001
0001
1000
0100
0010
0001
0010
0000
0011
0000
1000
0000
,  // measure 23
1100
0100
0010
0000
1001
1000
0010
0100
0001
1000
0010
0000
1001
0000
0000
0000
,  // measure 24
0100
0000
0100
0000
0010
0000
0010
0000
0100
0010
1000
0010
0100
0000
0000
0000
,  // measure 25
0001
0000
0001
0000
1000
0000
1000
0000
0001
1000
0010
1000
0001
0000
0000
0000
,  // measure 26
1000
0000
1000
0000
0100
0000
0100
0000
1000
0100
0010
0100
1000
0000
0010
0100
,  // measure 27
0010
0000
1000
0001
1000
0000
1000
0100
0010
0001
1000
0001
0000
0000
1001
0000
,  // measure 28
0010
0000
0100
0010
0010
0000
0110
0000
0100
0010
0010
0000
0110
0000
0010
1000
,  // measure 29
0001
0000
1000
0001
0001
0000
1001
0000
1000
0001
0001
0000
1001
0001
0010
0100
,  // measure 30
1000
0000
0100
1000
1000
0000
1100
0000
0100
1000
1000
0000
1100
0000
0100
1000
,  // measure 31
0001
0000
0100
0001
0001
0000
0101
0000
0100
0001
0001
0000
0101
0000
0100
0010
,  // measure 32
1000
0100
0010
0001
1000
0000
0010
0000
1010
0000
0000
1001
0000
0000
0101
0000
,  // measure 33
1000
0001
0100
0010
1000
0100
0010
0001
,  // measure 34
1000
0010
1000
0010
0100
0001
0100
0001
1000
0000
0100
0000
0010
0000
0001
0000
,  // measure 35
1000
0010
0100
0001
0010
0100
0010
0001
,  // measure 36
1000
0001
1000
0001
0100
0010
0100
0010
1000
0000
0001
0000
0010
0000
0100
0000
,  // measure 37
1000
0010
0100
0001
0010
0100
1000
0100
,  // measure 38
0010
0001
0010
0001
1000
0001
1000
0001
0100
0000
0010
0000
1000
0000
0100
0000
,  // measure 39
0010
0001
0100
0010
1000
0100
0010
0001
,  // measure 40
0100
0010
0100
0010
1000
0001
1000
0001
0100
0000
0010
0000
1000
0000
0100
0000
,  // measure 41
0010
0000
0001
0000
1000
0000
0010
0000
0100
0001
0100
0001
1000
0100
1000
0100
,  // measure 42
0010
0001
0010
0001
1000
0010
1000
0010
0100
0000
0001
0000
0010
0000
0100
0000
,  // measure 43
1000
0000
0001
0000
0100
0000
0010
0000
1000
0100
1000
0100
0010
0001
0010
0001
,  // measure 44
0100
0010
0100
0010
1000
0001
1000
0001
0100
0000
0010
0000
1001
0000
0000
0000
,  // measure 45
0100
0000
1000
0000
0001
0000
0100
0000
0010
1000
0010
1000
0001
0010
0001
0010
,  // measure 46
0100
1000
0100
1000
0001
0100
0001
0100
0010
0000
1000
0000
0100
0000
0010
0000
,  // measure 47
0001
0000
1000
0000
0010
0000
0100
0000
0001
0010
0001
0010
0100
1000
0100
1000
,  // measure 48
0010
0100
0010
0100
0001
1000
0001
1000
0010
0100
0010
0100
0010
0100
0010
0100
,  // measure 49
0001
0100
0010
1000
0100
0010
0001
1000
0010
0100
0001
0010
0100
0010
0001
1000
,  // measure 50
0010
1000
0100
0010
0001
1000
0010
0100
0001
0010
0100
0010
0100
1000
0010
0100
,  // measure 51
0001
0010
0100
0010
0001
1000
0100
0010
0100
1000
0100
1000
0001
1000
0010
0100
,  // measure 52
0001
0010
0100
1000
0001
0100
0010
1000
0001
0010
0100
1000
0001
0100
0010
1000
,  // measure 53
0100
0010
0001
1000
0010
0100
0001
1000
0001
0010
0001
1000
0010
0100
0001
1000
,  // measure 54
0010
1000
0001
0100
0010
1000
0100
0010
0001
1000
0010
0100
0001
0010
0100
0010
,  // measure 55
0001
1000
0010
0100
0001
0010
0100
0010
0001
1000
0010
0100
0001
0010
0100
1000
,  // measure 56
0001
1000
0010
1000
0100
0010
0001
1000
0010
0000
0010
0000
0100
0000
0001
0000
,  // measure 57
1000
0010
0100
0001
0010
0100
1000
0001
0100
0010
1000
0100
0010
0100
1000
0001
,  // measure 58
0100
0001
0010
0100
1000
0001
0100
0010
1000
0100
0010
0100
0010
0001
0100
0010
,  // measure 59
1000
0100
0010
0100
1000
0001
0010
0100
0010
0001
0010
0001
1000
0001
0100
0010
,  // measure 60
1000
0100
0010
0001
1000
0010
0100
0001
1000
0100
0010
0001
1000
0010
0100
0001
,  // measure 61
0010
0100
1000
0001
0100
0010
1000
0001
0010
0100
1000
0001
0100
0010
1000
0001
,  // measure 62
0100
0001
1000
0010
0100
0001
0010
0100
1000
0001
0100
0010
1000
0100
0010
0001
,  // measure 63
1000
0000
0000
0000
,  // measure 64
0000
0000
0000
0000
,  // measure 65
0000
0000
0000
0000
,  // measure 66
0000
0000
0000
0000
,  // measure 67
0000
0000
0000
0000
,  // measure 68
0000
0000
0000
0000
,  // measure 69
0000
0000
0000
0000
,  // measure 70
0000
0000
0000
0000
,  // measure 71
0000
0000
0000
0000
,  // measure 72
0000
0000
0000
0000
,  // measure 73
0000
0000
0000
0000
,  // measure 74
0000
0000
0000
0000
,  // measure 75
1100
0000
0000
0000
;
