#TITLE:Army;
#SUBTITLE:;
#ARTIST:Ellie Goulding;
#TITLETRANSLIT:;
#SUBTITLETRANSLIT:;
#ARTISTTRANSLIT:;
#GENRE:BFF Pop;
#CREDIT:;
#BANNER:Army.png;
#BACKGROUND:Army-bg.png;
#LYRICSPATH:;
#CDTITLE:;
#MUSIC:Army.ogg;
#OFFSET:-0.250000;
#SAMPLESTART:71.904060;
#SAMPLELENGTH:13.714000;
#SELECTABLE:YES;
#BPMS:0.000000=87.000000
;
#STOPS:
;
#BGCHANGES:3.750=Army.avi=1.000=0=0=1=====,
99999=-nosongbg-=1.000=0=0=0 // don't automatically add -songbackground-
;
#KEYSOUNDS:;
#ATTACKS:;

//---------------dance-single - ----------------
#NOTES:
     dance-single:
     :
     Hard:
     7:
     0.344553,0.362817,0.020732,0.234967,0.114028,312.000000,3.000000,34.000000,0.000000,0.000000,0.000000,0.344553,0.362817,0.020732,0.234967,0.114028,312.000000,3.000000,34.000000,0.000000,0.000000,0.000000:
0000
0000
0000
0000
,
0000
0000
0000
0000
,
0010
0020
0000
0000
1030
0100
1000
0000
,
0001
0010
0100
1000
0010
0100
0010
1000
,
0001
0002
0000
0000
0103
0010
0100
0000
,
0001
0010
0100
0010
0001
1000
0010
0000
,
0200
0000
0301
0000
0100
0001
1000
0000
,
0020
0000
1030
0000
0010
1000
0001
0000
,
2000
0000
0100
0000
0010
0010
3010
0000
,
0002
0000
0100
0000
0010
0010
0013
0000
,
0001
0000
0000
0001
1000
0000
0000
0000
0010
0000
0100
0000
0010
0000
0000
0000
,
1000
0100
0010
0001
0100
0010
1000
0001
,
1000
0000
0000
1000
0100
0000
0000
0000
1000
0000
0001
0000
0100
0000
0000
0000
,
0010
1000
0100
0010
0001
0100
0010
0000
,
0102
0000
1003
0000
0010
1000
0001
0000
,
2100
0000
3001
0000
1000
0001
0100
0000
,
0010
0010
1000
0100
0010
0001
1000
0000
,
0010
0010
0100
0001
1000
0100
0010
0000
,
0100
1000
0100
0000
2000
0000
0000
0000
0100
0000
0000
0000
3100
0000
0000
0000
,
0001
0100
0001
0000
0200
0000
0000
0000
0001
0000
0000
0000
0301
0000
0000
0000
,
1000
0001
0200
0000
0320
0000
1030
0000
,
0001
0010
0200
0000
2300
0000
3010
0000
,
1000
0001
1000
0000
0020
0000
0000
0000
0100
0000
0000
0000
0130
0000
0000
0000
,
0001
1000
0001
0000
0020
0000
0000
0000
0100
0000
0000
0000
0130
0000
0000
0000
,
1000
0100
1000
0000
0200
0000
0000
0000
0320
0000
0000
0000
0031
0000
0000
0000
,
2002
0000
0000
0000
3003
0000
0010
0010
,
1000
0100
1000
0000
0010
0000
0100
0000
0100
0000
0001
0000
1000
0000
0100
0000
,
0010
0001
0010
0000
0100
0000
0010
0000
0001
0000
0001
0000
1000
0000
0010
0000
,
0100
0001
0100
0001
2000
0000
0000
0000
0200
0000
0000
0000
3300
0000
0000
0000
,
1000
0100
1000
0100
0020
0000
0000
0000
0002
0000
0000
0000
0033
0000
0000
0000
,
0001
1000
0001
0000
0100
0000
0010
0000
0100
0000
0100
0000
0001
0000
1000
0000
,
0100
0010
0100
0000
1000
0000
0010
0000
0100
0000
0100
0000
0001
0000
1000
0000
,
0010
0100
0010
0100
0002
0000
0000
0000
2000
0000
0000
0000
3003
0000
0000
0000
,
0010
1000
0001
0000
0010
0001
1000
0000
,
0100
0000
0100
0000
1000
0100
0010
0001
,
0100
0000
0100
0000
0001
0010
0100
1000
,
0010
0100
0000
0000
0010
0100
0000
0000
0001
0000
1000
0000
0001
0000
0000
0000
,
0010
0100
0000
0000
0010
0100
0000
0000
1000
0000
0001
0000
1000
0000
0000
0000
,
0010
1000
0000
0000
0010
1000
0000
0000
0001
0000
0100
0000
0010
0000
1000
0000
,
0001
0010
0000
0000
0001
0010
0000
0000
0001
0000
1000
0000
0010
0000
0100
0000
,
0001
1000
0100
1000
0010
0100
0001
0000
,
1000
1000
0001
0001
0100
0010
1000
0000
,
0001
0100
0001
0000
1000
0000
0100
0000
0020
0000
0000
0000
0032
0000
0000
0000
,
1003
0100
1000
0000
0010
0000
0100
0000
0020
0000
0000
0000
2030
0000
0000
0000
,
3001
0100
0001
0000
1000
0000
0100
0000
0020
0000
0000
0000
0032
0000
0000
0000
,
1003
0010
1000
0000
0001
0000
0010
0000
0100
0000
0100
0000
1000
0000
0000
0000
,
0002
0000
0000
0000
0103
0000
0000
0000
0001
0010
0100
0000
1000
0000
0000
0000
,
0020
0000
0000
0000
0130
0000
0000
0000
0010
1000
0100
0000
0010
0000
0000
0000
,
0001
1000
0100
0010
0001
0100
0010
0000
,
1000
0100
0000
0000
0010
0001
0000
0000
1000
0000
0010
0000
0100
0000
0001
0000
,
1000
0000
0000
0000
;

//---------------dance-single - ----------------
#NOTES:
     dance-single:
     :
     Challenge:
     9:
     0.539043,0.604695,0.165859,0.228056,0.594329,489.000000,24.000000,33.000000,0.000000,0.000000,0.000000,0.539043,0.604695,0.165859,0.228056,0.594329,489.000000,24.000000,33.000000,0.000000,0.000000,0.000000:
// measure 0
0000
0000
0000
0000
,  // measure 1
0000
0000
0000
0000
,  // measure 2
0010
0000
0202
0000
0000
0303
0000
0000
1000
0100
1000
0100
1000
0000
0001
0000
,  // measure 3
0100
0000
0010
1000
0010
0000
0100
0001
0100
0000
0001
1000
0001
0000
0100
0000
,  // measure 4
0001
0000
2020
0000
0000
3030
0000
0000
0001
0010
0001
0010
0001
0000
1000
0000
,  // measure 5
0010
0000
0100
0001
0100
0000
0010
1000
0010
0000
1000
0001
1000
0000
0100
0000
,  // measure 6
1000
0000
0000
0000
0010
0000
0000
0000
0100
0000
0000
0000
0001
0000
0000
0000
0000
0000
1000
0000
0000
0000
0000
0000
0100
0000
0000
0000
0000
0000
1000
0000
0000
0001
0000
0000
1000
0000
0000
0000
0000
0000
0000
0000
0000
0000
0000
0000
,  // measure 7
0001
0000
0000
0000
0100
0000
0000
0000
0010
0000
0000
0000
1000
0000
0000
0000
0000
0000
0001
0000
0000
0000
0000
0000
0010
0000
0000
0000
0000
0000
0001
0000
0000
1000
0000
0000
0001
0000
0000
0000
0000
0000
0000
0000
0000
0000
0000
0000
,  // measure 8
1100
0000
0100
0000
0010
0000
0001
1000
0000
0001
0000
0100
0010
0000
0000
0000
,  // measure 9
0101
0000
0100
0000
0010
0000
1000
0001
0000
1000
0000
0010
0100
0000
0000
0000
,  // measure 10
0001
0100
0001
0100
0000
0000
0010
1000
0010
1000
0001
1000
0001
0000
0100
0000
,  // measure 11
0010
0000
1000
0100
1000
0000
0001
0010
0001
0000
1000
0001
1000
0000
0010
0000
,  // measure 12
1000
0010
1000
0010
0000
0000
0100
0001
0100
0001
1000
0001
1000
0000
0010
0000
,  // measure 13
0100
0000
0001
0010
0001
0000
1000
0100
1000
0000
0001
1000
0001
0000
0100
0000
,  // measure 14
0001
0000
0000
0000
0101
0000
0000
0000
0100
0000
0000
0000
0010
0000
0000
0000
0000
0000
1000
0000
0000
0000
0000
0000
0100
0000
0000
0000
0000
0000
0010
0000
0000
0001
0000
0000
0010
0000
0000
0000
0000
0000
0001
0000
0000
0000
0000
0000
,  // measure 15
1000
0000
0000
0000
1010
0000
0000
0000
0010
0000
0000
0000
0100
0000
0000
0000
0000
0000
0001
0000
0000
0000
0000
0000
0010
0000
0000
0000
0000
0000
0100
0000
0000
1000
0000
0000
0100
0000
0000
0000
0000
0000
1000
0000
0000
0000
0000
0000
,  // measure 16
0010
0100
0010
1000
0001
0000
0010
0100
0000
0100
1000
0000
1001
0000
0000
0000
,  // measure 17
0010
1000
1100
0000
0010
0100
0101
0000
,  // measure 18
0001
1000
0001
0000
0200
0000
0000
0000
1000
0000
0000
0000
0301
0000
0000
0000
,  // measure 19
1000
0001
1000
0000
0200
0000
0000
0000
0001
0000
0000
0000
1300
0000
0000
0000
,  // measure 20
0010
1000
0010
1000
0002
0000
0000
0000
2003
0000
0000
0000
3010
0000
0000
0000
,  // measure 21
0100
0001
0100
0001
2000
0000
0000
0000
3002
0000
0000
0000
0103
0000
0000
0000
,  // measure 22
0001
0010
0100
0000
2100
0000
0000
0000
0001
0000
0000
0000
3010
0000
0000
0000
,  // measure 23
1000
0010
0100
0000
0102
0000
0000
0000
1000
0000
0000
0000
0013
0000
0000
0000
,  // measure 24
0001
1000
0001
1000
0200
0000
0000
0000
0320
0000
0000
0000
0031
0000
0000
0000
,  // measure 25
1000
1000
0000
0000
0001
0001
0000
0000
0100
0000
0000
0000
0110
0000
1001
0000
,  // measure 26
0101
0100
0010
0000
1000
0000
0100
1000
0100
1000
0001
0000
0100
0000
0010
0000
,  // measure 27
1010
1000
0001
0000
0010
0000
0001
0100
0001
0100
0010
0000
1000
0000
0001
0010
,  // measure 28
0100
1000
0010
0100
0002
0000
0000
0000
2003
0000
0010
0000
3010
0000
1000
0100
,  // measure 29
0010
0001
0100
0010
2000
0000
0000
0000
3002
0000
0100
0000
0103
0000
0000
0000
,  // measure 30
1010
0010
0100
0000
0001
0000
0010
0001
0010
0001
1000
0000
0010
0000
0100
0000
,  // measure 31
0101
0001
1000
0000
0100
0000
1000
0010
1000
0010
0100
0000
0001
0000
1000
0100
,  // measure 32
0010
0001
0100
0010
2000
0000
0000
0000
3002
0000
0100
0000
0103
0000
0001
0000
,  // measure 33
1000
0100
0010
0001
0200
0000
0000
0000
0310
1000
0010
0000
1010
0000
1001
0000
,  // measure 34
0001
0010
0100
0010
0001
1000
0010
0100
0002
0000
1000
0000
0203
0000
0000
0000
,  // measure 35
0310
1000
0100
0010
0001
0100
0010
1000
0020
0000
0100
0000
2030
0000
0000
0000
,  // measure 36
3001
0010
0100
0010
0001
1000
0010
0100
0002
0000
0100
0000
2003
0000
0000
0000
,  // measure 37
3010
0100
0001
0010
0100
1000
0010
0100
0001
1000
0001
0100
0010
1000
0001
0000
,  // measure 38
1000
0100
0000
0000
0010
0001
0000
0000
1100
0000
0011
0000
0001
1000
0001
0000
,  // measure 39
0100
0010
0000
0010
1000
0100
0000
0100
0010
0001
1000
0000
1010
0000
0001
0000
,  // measure 40
2000
0010
3020
0100
0230
0001
0302
0000
,  // measure 41
1003
0100
1000
0000
0010
0000
0100
0001
0010
0100
1000
0000
1010
0000
1001
0000
,  // measure 42
0001
0100
0000
0100
0010
1000
0000
1000
0100
0010
0001
1000
0010
0100
0001
0000
,  // measure 43
1000
0100
0000
0100
0010
0001
0000
0001
0100
0010
1000
0001
0100
0010
0100
0000
,  // measure 44
0001
0100
0001
0000
0000
0000
0000
0000
1000
0100
1000
0000
0000
0000
0000
0000
0001
0000
0010
0000
0100
0000
1000
0000
0010
0000
0100
0000
0001
0000
0000
0000
,  // measure 45
1000
0100
1000
0000
0000
0000
0000
0000
0001
0100
0001
0000
0000
0000
0000
0000
1000
0000
0010
0000
0100
0000
0001
0000
0010
0000
0100
0000
1000
0000
0000
0000
,  // measure 46
0001
0100
0001
0000
0100
0000
0010
0000
1000
0100
1000
0000
0010
0000
0100
0000
0001
0000
0010
0000
0100
0000
1000
0000
0010
0000
0100
0000
0001
0000
0000
0000
,  // measure 47
1000
0100
1000
0000
0010
0000
0100
0000
0001
1000
0001
0000
0010
0000
0100
0000
0010
0000
0001
0000
1000
0000
0010
0000
0100
0000
0001
0000
1000
0000
0000
0000
,  // measure 48
0010
1000
0010
0000
0100
0000
0001
0000
0010
0000
0100
0000
1000
0000
0010
0000
0100
0000
0001
0000
0010
0000
0100
0000
0010
0000
0001
0000
1000
0000
0000
0000
,  // measure 49
0010
0010
0100
0001
1000
1000
0100
0010
0002
0000
0100
0000
2003
0000
0000
0000
,  // measure 50
3100
0000
0000
0000
;

//---------------dance-double - ----------------
#NOTES:
     dance-double:
     :
     Challenge:
     8:
     0.528183,0.552864,0.110573,0.276432,0.528676,479.000000,16.000000,40.000000,0.000000,0.000000,0.000000,0.528183,0.552864,0.110573,0.276432,0.528676,479.000000,16.000000,40.000000,0.000000,0.000000,0.000000:
00000000
00000000
00000000
00000000
,
00000000
00000000
00000000
00000000
,
10000000
00000000
02020000
00000000
00000000
00000000
03030000
00000000
10000000
01000000
10000000
01000000
10000000
00000000
00010000
00000000
,
01000000
00000000
00100000
10000000
00100000
00000000
01000000
00010000
01000000
00000000
00010000
00000000
00100000
00000000
00001000
00000000
,
00010000
00000000
00020200
00000000
00000000
00000000
00030300
00000000
00001000
00010000
00001000
00010000
00001000
00000000
00010000
00000000
,
00000100
00000000
00001000
00000010
00001000
00000000
00000001
00000100
00000001
00000000
00001000
00000000
00000100
00000000
00000010
00000000
,
00000001
00000000
00000000
00000000
00000100
00000000
00000000
00000000
00000010
00000000
00000000
00000000
00001000
00000000
00000000
00000000
00000000
00000000
00000010
00000000
00000000
00000000
00000000
00000000
00000100
00000000
00000000
00000000
00000000
00000000
00000010
00000000
00000000
00000100
00000000
00000000
00000001
00000000
00000000
00000000
00000000
00000000
00000000
00000000
00000000
00000000
00000000
00000000
,
00001000
00000000
00000000
00000000
00000100
00000000
00000000
00000000
00000010
00000000
00000000
00000000
00000001
00000000
00000000
00000000
00000000
00000000
00000100
00000000
00000000
00000000
00000000
00000000
00000010
00000000
00000000
00000000
00000000
00000000
00000100
00000000
00000000
00000010
00000000
00000000
00001000
00000000
00000000
00000000
00000000
00000000
00000000
00000000
00000000
00000000
00000000
00000000
,
00001100
00000000
00000100
00000000
00010000
00000000
00001000
00010000
00000000
00000100
00000000
00001000
00000100
00000000
00000000
00000000
,
00000011
00000000
00000010
00000000
00000001
00000000
00001000
00000010
00000000
00000100
00000000
00000010
00001000
00000000
00000000
00000000
,
00000001
00000100
00000001
00000100
00000000
00000000
00000010
00001000
00000010
00001000
00000001
00001000
00000001
00000000
00000010
00000000
,
00000100
00000000
00001000
00000100
00001000
00000000
00000100
00010000
00001000
00000000
00100000
00000000
00010000
01000000
00010000
00000000
,
10000000
00100000
10000000
00100000
00000000
00000000
01000000
00010000
01000000
00010000
10000000
00010000
10000000
00000000
01000000
00000000
,
00100000
00000000
00010000
00100000
00010000
00000000
00100000
00001000
00010000
00000000
00000100
00000000
00001000
00000010
00001000
00000000
,
00000100
00000000
00000000
00000000
00010000
00000000
00000000
00000000
00001000
00000000
00000000
00000000
00100000
00000000
00000000
00000000
00000000
00000000
00010000
00000000
00000000
10000000
00000000
00000000
00010000
00000000
00000000
00000000
00000000
00000000
00100000
00000000
00000000
00001000
00000000
00000000
00010000
00000000
00000000
00000000
00000000
00000000
00001000
00000000
00000000
00000000
00000000
00000000
,
00100000
00000000
00000000
00000000
00001000
00000000
00000000
00000000
00010000
00000000
00000000
00000000
00000100
00000000
00000000
00000000
00000000
00000000
00001000
00000000
00000000
00000001
00000000
00000000
00001000
00000000
00000000
00000000
00000000
00000000
00000100
00000000
00000000
00010000
00000000
00000000
00001000
00000000
00000000
00000000
00000000
00000000
00010000
00000000
00000000
00000000
00000000
00000000
,
00000100
00001000
00000100
00001000
00000100
00000000
00010000
00001000
00000000
00001000
00010000
00000000
00001000
00000000
00100000
00000000
,
00010000
01000000
00010000
01000000
00100000
00000000
00000000
00000000
10000000
01000000
10000000
01000000
00100000
00000000
00000000
00000000
,
00010000
10000000
00010000
00000000
02000000
00000000
00000000
00000000
10000000
00000000
00000000
00000000
03010000
00000000
00000000
00000000
,
10000000
00010000
10000000
00000000
02000000
00000000
00000000
00000000
00010000
00000000
00000000
00000000
13000000
00000000
00000000
00000000
,
00010000
01000000
00100000
10000000
02000000
00000000
00000000
00000000
03200000
00000000
00000000
00000000
00310000
00000000
00000000
00000000
,
10000000
01000000
00010000
00001000
00000200
00000000
00000000
00000000
00000301
00000000
00001000
00000000
00000001
00000000
00000000
00000000
,
00001000
00000001
00001000
00000000
00000020
00000000
00000000
00000000
00000001
00000000
00000000
00000000
00001030
00000000
00000000
00000000
,
00000001
00001000
00000001
00000000
00000020
00000000
00000000
00000000
00001000
00000000
00000000
00000000
00000031
00000000
00000000
00000000
,
00001000
00000010
00000100
00000001
00000020
00000000
00000000
00000000
00000230
00000000
00000000
00000000
00001300
00000000
00000000
00000000
,
00000001
00000001
00000000
00000000
00001000
00001000
00000000
00000000
00000010
00000000
00000000
00000000
00000110
00000000
00001010
00000000
,
00000101
00000100
00000010
00000000
00001000
00000000
00000100
00010000
00000000
00010000
00001000
00000000
00010000
00000000
00000100
00000000
,
00001100
00000100
00010000
00000000
00001000
00000000
00100000
00010000
00000000
00010000
01000000
00000000
00100000
00000000
10000000
01000000
,
00100000
00010000
01000000
00100000
20000000
00000000
00000000
00000000
30010000
00000000
01000000
00000000
00100000
00000000
10000000
01000000
,
00100000
00010000
01000000
00100000
20000000
00000000
00000000
00000000
30010000
00000000
01000000
00000000
01010000
00000000
00000000
00000000
,
10100000
00100000
01000000
00000000
00010000
00000000
00100000
00001000
00000000
00001000
00010000
00000000
00001000
00000000
00100000
00000000
,
00110000
00100000
00001000
00000000
00010000
00000000
00000100
00001000
00000000
00001000
00000010
00000000
00000100
00000000
00000001
00000010
,
00000100
00001000
00000010
00000100
00000002
00000000
00000000
00000000
00001003
00000000
00000010
00000000
00000100
00000000
00000001
00000000
,
00001000
00000100
00010000
00001000
00200000
00000000
00000000
00000000
00310000
00000000
01000000
00000000
01001000
00000000
00000000
00000000
,
10000000
01000000
00010000
00000000
00001000
00010000
01000000
00000000
10000000
01000000
00010000
00001000
00000100
00000001
00001000
00000000
,
00000001
00000010
00001000
00000000
00010000
00001000
00000010
00000000
00000001
00000010
00001000
00010000
00100000
10000000
00010000
00000000
,
10000000
01000000
10000000
00100000
01000000
00010000
01000000
00000000
00200000
00000000
20300000
00000000
30020000
00000000
00230000
00000000
,
01300000
10000000
01000000
00100000
00010000
01000000
00010000
00100000
02000000
00000000
23000000
00000000
30200000
00000000
02300000
00000000
,
03010000
00100000
00001000
00000000
00100000
00001000
00010000
00000000
00001000
00010000
00000100
00001000
00000010
00000100
00000001
00000000
,
00000100
00000010
00001000
00000000
00000010
00001000
00000100
00000000
00001000
00000100
00010000
00001000
00100000
00010000
01000000
00000000
,
00200000
10000000
20300000
01000000
32000000
00000000
03100000
00010000
,
10000000
01000000
10000000
00000000
00100000
00000000
01000000
00010000
01000000
00100000
10000000
00000000
00010000
00100000
00010000
00000000
,
11000000
10000000
01000000
00100000
00010000
10000000
00100000
01000000
00020000
00000000
00230000
00000000
00302000
00000000
00023000
00000000
,
00030100
00001000
00000010
00000000
00000100
00000001
00000010
00000000
00000100
00001000
00000010
00000100
00000001
00001000
00000001
00000000
,
00000011
00000001
00000010
00000100
00001000
00000001
00000100
00000010
00002000
00000000
00003200
00000000
00020300
00000000
00032000
00000000
,
00103000
00010000
01000000
00000000
00100000
10000000
01000000
00000000
00100000
00010000
01000000
00100000
10000000
00000000
00010000
00000000
,
10000000
01000000
00000000
01000000
00010000
00001000
00000000
00001000
00010000
01000000
10000000
01000000
00010000
00001000
00000100
00000000
,
00000001
00000100
00000000
00000100
00001000
00010000
00000000
00010000
00001000
00000100
00000001
00000100
00001000
00010000
01000000
00000000
,
10000000
00100000
10100000
10000000
01000000
00100000
00110000
10000000
,
00010000
00010000
00100000
00001000
00010000
00010000
00001000
00010000
00000200
00000000
00002300
00000000
00003020
00000000
00000230
00000000
,
00000301
00000000
00000000
00000000
;

//---------------dance-single - ----------------
#NOTES:
     dance-single:
     :
     Medium:
     4:
     0.281368,0.293709,0.131305,0.345540,0.000000,216.000000,19.000000,50.000000,0.000000,0.000000,0.000000,0.281368,0.293709,0.131305,0.345540,0.000000,216.000000,19.000000,50.000000,0.000000,0.000000,0.000000:
0000
0000
0000
0000
,
0000
0000
0000
0000
,
0010
0020
0000
0000
1030
0000
0001
0000
,
0010
0000
0001
0000
1000
0100
0010
0001
,
0100
0200
0000
0000
0310
0000
0100
0000
,
0001
0000
1000
0000
0001
0010
0100
1000
,
0020
0000
0030
0000
1000
0100
1000
0000
,
0020
0000
0030
0000
0100
0001
0100
0000
,
2001
3100
0010
0000
,
1002
0103
0010
0000
,
0001
1000
0002
0000
0103
0010
0200
0000
,
0310
1000
0100
0000
,
1000
0001
2000
0000
3010
0100
0020
0000
,
1030
0100
0010
0000
,
0022
0000
0033
0000
0001
1000
0010
0000
,
2020
0000
3030
0000
1000
0001
0100
0000
,
1001
0000
1000
0000
0100
0010
0001
0000
,
0100
0100
0010
0010
,
1000
0001
0200
0000
0000
0000
0300
0000
,
0001
1000
0200
0000
0000
0000
0300
0000
,
1000
0010
2000
0000
3002
0000
0103
0000
,
0001
1000
0002
0000
0023
0000
0230
0000
,
1300
0001
0020
0000
0000
0000
0030
0000
,
0001
1000
0020
0000
0000
0000
0030
0000
,
1000
0100
2000
0000
3002
0000
0103
0000
,
2002
0000
0000
0000
3003
0000
0010
0010
,
1010
0000
0001
0100
0001
1000
0001
0000
,
0101
0000
1000
0100
1000
0001
1000
0000
,
1020
0230
0302
0003
,
0021
0230
2300
3000
,
0001
0100
0001
1000
0001
0000
0101
0000
,
1000
0100
1000
0001
1000
0000
1100
0000
,
0001
0010
0002
0000
2003
0000
3010
0000
,
0100
0110
0010
1001
,
1000
0000
0001
0000
0010
0010
0001
0000
,
1000
0000
0001
0000
0100
0100
0000
0000
,
0001
0010
0001
0010
0200
0000
2300
0000
,
3020
0000
0030
0000
1000
0001
1000
0000
,
0100
0100
0120
0031
,
0100
0100
0120
1030
,
0001
0100
0001
0000
1000
0100
1000
0000
,
0010
0000
0010
0000
1000
0001
0100
0000
,
1000
0001
1000
0001
0100
0010
1000
0000
,
0001
1000
0001
1000
0100
0010
0001
0000
,
2000
0100
3100
1100
,
0002
0100
0103
0101
,
0020
2030
3002
0103
,
0002
2003
3200
0310
,
0002
0103
0000
1001
,
1000
0100
0010
0001
0200
0000
0010
0000
,
0310
0000
0000
0000
;

//---------------dance-single - ----------------
#NOTES:
     dance-single:
     :
     Easy:
     2:
     0.150063,0.206287,0.041465,0.186592,0.000000,119.000000,6.000000,27.000000,0.000000,0.000000,0.000000,0.150063,0.206287,0.041465,0.186592,0.000000,119.000000,6.000000,27.000000,0.000000,0.000000,0.000000:
0000
0000
0000
0000
,
0000
0000
0000
0000
,
0010
0000
1000
0000
,
0001
0010
0100
1000
,
0001
0000
0100
0000
,
0010
1000
0100
0010
,
0002
0000
0003
0000
,
2000
0000
3000
0000
,
0010
0010
0100
0000
,
0100
0100
0010
0000
,
2002
3003
1000
1000
,
0000
0010
1000
0000
,
2002
3003
0001
0001
,
0000
0010
0001
0000
,
0200
0300
0100
0000
,
0020
0030
0010
0000
,
1000
0100
1000
0000
,
0001
0100
0001
0000
,
2000
0000
3000
0000
,
0002
0000
0003
0000
,
0100
0020
0000
0030
,
0100
0020
0000
0030
,
2000
0000
3000
0000
,
0002
0000
0003
0000
,
0010
0200
0000
0300
,
2002
0000
0000
3003
,
0110
0000
0100
0001
,
1000
0000
0100
1000
,
0010
0010
0020
0030
,
0100
0100
0200
0300
,
1001
0000
1000
0001
,
0100
0000
0001
1000
,
0100
0100
0100
0000
,
0010
0010
0010
0000
,
0002
0003
2000
3000
,
0010
0010
0100
0000
,
0020
0030
2000
3000
,
0100
0100
0010
0000
,
0001
1000
0001
0001
,
1000
0001
1000
1000
,
0020
0000
0000
0030
,
0100
0100
0001
0000
,
1001
0000
0010
0100
,
0001
0000
1000
0100
,
0010
0000
0001
1000
,
0010
0000
0100
0000
,
0002
0003
0001
0001
,
2000
3000
1000
1000
,
0200
0000
0300
0000
,
1000
0001
0100
0100
;

//---------------dance-single - ----------------
#NOTES:
     dance-single:
     :
     Beginner:
     1:
     0.094777,0.120334,0.020732,0.000000,0.000000,93.000000,3.000000,0.000000,0.000000,0.000000,0.000000,0.094777,0.120334,0.020732,0.000000,0.000000,93.000000,3.000000,0.000000,0.000000,0.000000,0.000000:
0000
0000
0000
0000
,
0000
0000
0000
0000
,
1000
0000
0000
0000
,
0001
0000
1000
0000
,
0010
0000
0000
0000
,
0100
0000
0001
0000
,
1000
1000
0000
0000
,
0001
0001
0000
0000
,
0100
0000
0000
0000
,
0010
0000
0000
0000
,
1000
1000
0000
0001
,
0000
0100
0000
0000
,
0001
0001
0000
1000
,
0000
0100
0000
0000
,
0010
0010
0000
0000
,
0010
0010
0000
0000
,
0001
0000
1000
0000
,
0000
0010
0000
0010
,
0010
0000
0000
0000
,
1000
0000
0000
0000
,
0001
0001
0001
0000
,
1000
1000
1000
0000
,
0010
0000
0000
0000
,
0010
0000
0000
0000
,
1000
1000
1000
0000
,
0001
0000
0000
0000
,
1001
0000
0100
0000
,
0010
0000
1000
0000
,
0100
0100
0000
0000
,
0100
0100
0000
0000
,
0010
0000
0001
0000
,
1000
0000
0001
0000
,
0010
0010
0000
0000
,
0010
0010
0000
0000
,
1001
0000
0100
0100
,
0000
0000
0001
0001
,
0000
0000
1000
1000
,
0000
0000
0010
0010
,
0000
0000
1000
1000
,
0000
0000
0001
0001
,
0000
0000
0000
0000
,
0100
0000
0010
0000
,
0110
0000
1000
0000
,
0001
0001
0001
0000
,
0010
0000
0001
0000
,
0100
0100
0100
0000
,
0010
0010
0000
0010
,
0000
1000
0000
0100
,
0100
0000
0000
0000
,
0010
0010
0010
0010
;
