#VERSION:0.82;
#TITLE:Animals;
#SUBTITLE:;
#ARTIST:Maroon 5;
#TITLETRANSLIT:;
#SUBTITLETRANSLIT:;
#ARTISTTRANSLIT:;
#GENRE:Killer Instincts;
#ORIGIN:;
#CREDIT:;
#BANNER:Animals.png;
#BACKGROUND:Animals-bg.png;
#PREVIEWVID:;
#JACKET:jacket.png;
#CDIMAGE:;
#DISCIMAGE:;
#LYRICSPATH:;
#CDTITLE:;
#MUSIC:Animals.ogg;
#OFFSET:-0.948000;
#SAMPLESTART:60.906487;
#SAMPLELENGTH:13.714000;
#SELECTABLE:YES;
#BPMS:0.000=95.000;
#STOPS:;
#DELAYS:;
#WARPS:;
#TIMESIGNATURES:0.000=4=4;
#TICKCOUNTS:0.000=4;
#COMBOS:0.000=1;
#SPEEDS:0.000=1.000=0.000=0;
#SCROLLS:0.000=1.000;
#FAKES:;
#LABELS:0.000=Song Start;
#BGCHANGES:4.000=Animals.avi=1.000=0=0=1=====,
99999=-nosongbg-=1.000=0=0=0 // don't automatically add -songbackground-
;
#KEYSOUNDS:;
#ATTACKS:
;

//---------------dance-single - ----------------
#NOTEDATA:;
#CHARTNAME:;
#STEPSTYPE:dance-single;
#DESCRIPTION:;
#CHARTSTYLE:;
#DIFFICULTY:Hard;
#METER:7;
#RADARVALUES:0.418957,0.426566,0.127201,0.219069,0.229669,366.000000,18.000000,31.000000,0.000000,0.000000,0.000000,0.000000,0.000000,0.418957,0.426566,0.127201,0.219069,0.229669,366.000000,18.000000,31.000000,0.000000,0.000000,0.000000,0.000000,0.000000;
#CREDIT:Ben Speirs;
#NOTES:
0000
0000
0000
0000
,
0000
0000
0000
0000
,
0000
0000
0000
0000
,
0000
0000
0000
0000
0000
0000
0000
0000
0000
0000
0000
0000
0001
0100
0001
0000
,
1000
0010
1000
0001
0200
0000
0301
1000
,
0001
0010
0001
1000
0200
0000
1300
0001
,
2000
0000
0000
3100
0000
0000
0000
0000
0002
0000
0000
0103
0000
0000
0000
0000
,
0002
0000
0000
1003
0000
0000
0020
0000
0000
0000
0000
0000
1030
0001
1000
0000
,
0100
0000
1000
0001
0000
0100
0010
0000
,
1010
0000
0001
0010
0000
0100
1000
0000
,
0001
0000
1000
0010
0000
0100
0001
0000
,
1000
0100
0010
0001
0100
0010
2010
0000
,
3001
0000
0000
0001
0100
0000
0001
0000
0000
0001
0100
0000
0001
1000
0000
0000
,
1000
0000
0000
1000
0100
0000
1000
0000
0000
1000
0100
0000
1000
0000
0000
0000
,
1010
0000
0000
0010
0100
0000
0010
0000
1000
0000
0100
0000
0010
0000
0001
0000
,
1000
0000
0001
0000
0100
0000
0010
0000
1000
0000
0001
0000
0010
0100
0010
0000
,
0001
0000
0001
0000
0010
0000
0001
0000
2000
0000
0000
0000
3010
0100
0010
0000
,
1000
0000
1000
0000
0100
0000
1000
0000
0002
0000
0000
0000
0103
0010
0100
0000
,
0001
0000
0000
0001
1000
0000
0000
1000
0020
0000
0000
0030
0100
0000
0010
0000
,
1000
0000
0000
1000
0001
0000
0000
0001
0020
0000
0000
0000
0031
0000
0000
0000
,
1100
0001
1000
0010
0100
0000
0010
1000
,
0101
0010
1000
0001
0010
0000
0001
1000
,
1100
0000
0000
0100
0010
0000
0000
0010
0002
0000
0000
0000
1003
0000
1000
0000
,
0010
0100
0010
1000
0001
0100
1001
0000
,
1100
0000
0100
0000
1000
0000
0001
0200
0000
0000
0000
0000
0310
0000
1000
0000
,
0001
0000
1000
0000
0100
0000
0010
0002
0000
0000
0000
0000
1003
0000
1000
0000
,
0001
0100
0001
0100
0000
0000
0000
0000
0010
1000
0010
1000
0000
0000
0001
0000
,
1000
0100
1000
0100
0000
0000
2000
0000
0000
0000
0001
0000
3001
0000
0000
0000
,
0011
0000
0010
0000
0001
0000
1000
0020
0000
0000
0000
0000
0130
0000
0001
0000
,
1000
0000
0001
0000
0010
0000
0100
2000
0000
0000
0000
0000
3001
0000
0001
0000
,
1000
0010
1000
0010
0000
0000
0000
0000
0100
0001
0100
0001
0000
0000
1000
0000
,
0001
0010
0001
0010
0000
0000
0002
0000
0000
0000
1000
0000
1003
0000
0000
0000
,
2100
0100
0010
0010
3002
0000
0103
0000
,
0102
0000
0100
0000
1000
0000
1000
0000
0020
0003
0000
0000
0130
0000
0000
0000
,
0010
0000
0001
0000
1000
0000
0010
0000
0100
0000
0001
0000
1000
0100
1000
0000
,
0010
1000
0100
0010
0001
1000
0001
0000
,
1001
0000
0000
1000
0000
0000
0010
0000
0000
0100
0000
0000
0000
0001
0000
0000
,
1001
0000
0000
1000
0000
0000
0100
0000
0000
0010
0001
0000
0000
0000
0000
0000
,
0001
0010
0200
0000
1300
0010
0200
0000
,
0301
1000
0001
1000
0020
0000
0130
0000
,
0001
1000
0100
0100
0010
0001
0100
0100
,
0010
1000
0001
1000
0001
0100
0010
1000
,
0000
0000
0000
0000
,
0101
0000
0100
0000
0010
0000
1000
0100
2000
0000
0000
0000
3001
0000
1000
0000
,
1010
0000
1000
0000
0001
0000
0010
0001
0020
0000
0000
0000
0031
0000
1000
0000
,
0001
0100
0001
0100
0000
0000
0010
0000
1000
0100
1000
0100
0000
0000
0010
0000
,
0001
1000
0001
1000
0000
0000
0020
0000
0000
0000
0100
0000
0130
0000
0000
0000
,
1010
0000
0010
0000
0100
0000
0001
0010
0002
0000
0000
0000
1003
0000
0001
0000
,
0101
0000
0001
0000
1000
0000
0100
1000
0200
0000
0000
0000
1300
0000
0001
0000
,
1000
0010
1000
0010
0000
0000
0100
0000
0001
0010
0001
0010
0000
0000
0100
0000
,
1000
0001
1000
0001
0000
0000
0200
0000
0000
0000
0010
0000
0310
0000
0000
0000
,
0101
0000
0001
0000
1000
0000
1000
0000
0100
0000
0010
0000
0001
1000
0000
0001
,
1000
0000
0010
0000
0100
0000
0001
0000
1000
0000
1000
0000
0100
0010
0000
0100
,
0010
0000
0001
0000
1000
0000
0010
0000
0010
0000
1000
0000
0001
0100
0000
0001
,
0100
0000
0010
0000
1000
0000
0100
0000
0010
0000
0001
0000
1000
0100
1000
0000
;

//---------------dance-single - ----------------
#NOTEDATA:;
#CHARTNAME:;
#STEPSTYPE:dance-single;
#DESCRIPTION:;
#CHARTSTYLE:;
#DIFFICULTY:Challenge;
#METER:9;
#RADARVALUES:0.577453,0.641307,0.303870,0.155468,0.494672,507.000000,43.000000,22.000000,0.000000,0.000000,0.000000,0.000000,0.000000,0.577453,0.641307,0.303870,0.155468,0.494672,507.000000,43.000000,22.000000,0.000000,0.000000,0.000000,0.000000,0.000000;
#CREDIT:Ben Speirs;
#NOTES:
// measure 0
0000
0000
0000
0000
,  // measure 1
0000
0000
0000
0000
,  // measure 2
0000
0000
0000
0000
,  // measure 3
0000
0000
0000
0000
0000
0000
0000
0000
0000
0000
0000
0000
1000
0100
1000
0000
,  // measure 4
0001
0000
0100
0000
0010
0000
1000
0200
0000
0000
0000
0000
0310
0000
0001
0000
,  // measure 5
1000
0000
0010
0000
0100
0000
0001
2000
0000
0000
0000
0000
3100
0000
0010
0000
,  // measure 6
0001
0010
0100
1000
0000
0000
0000
0000
0001
0010
0100
1000
0000
0000
0010
0000
,  // measure 7
1000
0100
0010
0002
0000
0000
2003
0000
0000
0000
0000
0000
3010
0100
0010
0000
,  // measure 8
1000
0000
0000
1000
0100
0000
1000
0001
1000
0000
0010
0000
1000
0100
0010
0000
,  // measure 9
0001
0000
0000
0001
0010
0000
0001
1000
0001
0000
0100
0000
0001
0010
0100
0000
,  // measure 10
1000
0000
0010
0100
0010
0100
0001
1000
0010
0000
1000
0100
0010
0001
1000
0000
,  // measure 11
0001
0000
0000
0100
0010
0000
1000
0000
0000
0100
0010
0000
1001
0000
0000
0000
,  // measure 12
0001
0000
0000
0001
0010
0000
0001
1000
0001
0000
0100
0000
0001
0010
0100
0000
,  // measure 13
1000
0000
0000
1000
0100
0000
1000
0001
1000
0000
0010
0000
1000
0100
0010
0000
,  // measure 14
0001
0000
0100
0010
0100
0010
1000
0001
0100
0000
0001
0010
0100
1000
0001
0000
,  // measure 15
1000
0000
0000
0010
0100
0000
0001
0000
0000
0010
0100
0000
1000
0001
1000
0000
,  // measure 16
0010
0000
0110
0000
0100
0001
1000
0000
1100
0000
0000
0000
0100
1000
0001
0000
,  // measure 17
0100
0000
0101
0000
0001
1000
0010
0000
1010
0000
0000
0000
0001
1000
0010
0000
,  // measure 18
0100
0000
0100
0001
1000
0000
1000
0100
0020
0000
0000
0000
0031
1000
0001
0000
,  // measure 19
0100
0000
0100
0010
1000
0000
1000
0001
0020
0000
0000
0000
0031
1000
0001
0000
,  // measure 20
0100
0000
0110
0000
0010
1000
0001
0000
0011
0000
0000
0000
0010
0001
1000
0000
,  // measure 21
0010
0000
1010
0000
1000
0001
0100
0000
0101
0000
0000
0000
1000
0001
0100
0000
,  // measure 22
0010
0000
0010
1000
0001
0000
0001
0010
0200
0000
0000
0000
1300
0001
1000
0000
,  // measure 23
0010
0000
0100
0000
0001
0000
1000
0000
0100
0000
0010
0000
0001
1000
0001
0000
,  // measure 24
1100
0100
0010
0000
1001
0000
0001
1000
0010
0000
0100
0000
0001
1000
0001
0000
,  // measure 25
0101
0100
0010
0000
1001
0000
1000
0100
0010
0000
0001
0000
1000
0000
1000
0000
,  // measure 26
0001
1000
0010
0100
0001
0000
1000
0000
0001
0010
0100
1000
0001
0000
1000
0000
,  // measure 27
0010
0100
0010
0100
0001
0000
1000
0000
0100
0000
0010
0000
0001
1000
0001
0000
,  // measure 28
0011
0010
0100
0000
1001
0000
1000
0001
0100
0000
0010
0000
1000
0001
1000
0000
,  // measure 29
1010
0010
0100
0000
1001
0000
0001
0010
0100
0000
1000
0000
0001
0000
0001
0000
,  // measure 30
1000
0001
0100
0010
1000
0000
0001
0000
1000
0100
0010
0001
1000
0000
0001
0000
,  // measure 31
0100
0010
0100
0010
1000
0000
0001
0000
0010
0000
0100
0000
1000
0001
1000
0000
,  // measure 32
0001
0000
0101
0000
1001
0000
1100
0000
1002
0000
0103
0000
0010
1000
0001
0000
,  // measure 33
1000
0000
1100
0000
1001
0000
1010
0000
1002
0000
0103
0000
0001
1000
0010
0000
,  // measure 34
1000
0100
1000
0100
0010
0001
0010
0001
2000
0000
0000
0000
3010
1000
0010
0000
,  // measure 35
0100
0000
0001
1000
0001
0000
0200
0000
0310
0000
2000
0000
3100
0000
1002
0000
,  // measure 36
0013
0000
0000
0001
1000
0000
0010
0000
0000
1000
0001
0000
0000
0100
0000
0000
,  // measure 37
0001
0000
0000
1000
0100
0000
1000
0000
0000
0001
0100
0000
0001
0000
1000
0000
,  // measure 38
0010
1000
0010
1000
0001
0000
1000
0000
0010
0100
0010
0100
0001
0000
1000
0000
,  // measure 39
0010
1000
0010
1000
0001
0000
0020
0000
0000
0000
0031
0000
1000
0000
0001
0000
,  // measure 40
0100
0001
0100
0001
1000
0000
0001
0000
0100
0010
0100
0010
1000
0000
0001
0000
,  // measure 41
0100
0001
0100
0001
1000
0000
0200
0000
0000
0000
1300
0000
0001
0000
1000
0000
,  // measure 42
0000
0000
0000
0000
,  // measure 43
0011
0010
0100
0000
1001
0000
1000
0001
0100
0000
0010
0000
1000
0001
1000
0001
,  // measure 44
1010
0010
0100
0000
1001
0000
0001
0010
0100
0000
1000
0000
0001
0000
0001
0000
,  // measure 45
1000
0001
0100
0010
1000
0000
0001
0000
1000
0100
0010
0001
1000
0000
0001
0000
,  // measure 46
0100
0010
0100
0010
1000
0000
0001
0000
0010
0000
0100
0000
1000
0001
1000
0000
,  // measure 47
1100
0100
0010
0000
1001
0000
0001
1000
0010
0000
0100
0000
0001
1000
0001
1000
,  // measure 48
0101
0100
0010
0000
1001
0000
1000
0100
0010
0000
0001
0000
1000
0000
1000
0000
,  // measure 49
0001
1000
0010
0100
0001
0000
1000
0000
0001
0010
0100
1000
0001
0000
1000
0000
,  // measure 50
0010
0100
0010
0100
0001
0000
1000
0000
0100
0000
0010
0000
0001
1000
0001
0000
,  // measure 51
1000
0000
1010
0000
1001
0000
0011
0000
2001
0000
3010
0000
0001
0010
0100
1000
,  // measure 52
0001
0000
0011
0000
1001
0000
0101
0000
2001
0000
3010
0000
0001
0100
0010
1000
,  // measure 53
0001
0010
0001
0010
0100
1000
0100
1000
0002
0000
1000
0000
0103
0001
0100
0000
,  // measure 54
0010
0000
1000
0001
1000
0000
0020
0000
0130
0000
0002
0000
0013
0000
2200
0000
,  // measure 55
3300
0000
0000
0000
;

//---------------dance-double - ----------------
#NOTEDATA:;
#CHARTNAME:;
#STEPSTYPE:dance-double;
#DESCRIPTION:;
#CHARTSTYLE:;
#DIFFICULTY:Challenge;
#METER:9;
#RADARVALUES:0.569377,0.562292,0.409871,0.268536,0.420471,468.000000,58.000000,38.000000,0.000000,0.000000,0.000000,0.000000,0.000000,0.569377,0.562292,0.409871,0.268536,0.420471,468.000000,58.000000,38.000000,0.000000,0.000000,0.000000,0.000000,0.000000;
#CREDIT:Ben Speirs;
#NOTES:
00000000
00000000
00000000
00000000
,
00000000
00000000
00000000
00000000
,
00000000
00000000
00000000
00000000
,
00000000
00000000
00000000
00000000
,
00010000
00000000
00001000
00000000
00100000
00000000
00100000
00002000
00000000
00000000
00000000
00000000
00013000
00001000
00010000
00000000
,
00001000
00000000
00010000
00000000
00000010
00000000
00000010
00020000
00000000
00000000
00000000
00000000
00031000
00010000
00001000
00000000
,
00010000
00100000
00010000
00100000
00000000
00000000
00010000
00000000
00001000
00000010
00001000
00000010
00000000
00000000
00001000
00000000
,
00010000
00100000
00010000
00200000
00000000
00000000
20000000
00000000
00300000
00000000
00000000
00000000
30010000
01000000
00010000
00000000
,
10010000
00000000
00000000
10000000
00000000
00000000
00100000
01000000
00100000
00000000
10000000
00000000
01000000
00100000
00010000
00000000
,
00110000
00000000
00000000
00010000
00000000
00000000
10000000
00100000
10000000
00000000
00010000
00000000
01000000
00100000
10000000
00000000
,
00010000
00000000
01000000
00000000
00010000
00000000
00100000
00001000
00010000
00000000
00001000
00000100
00001000
00000100
00000001
00000000
,
00001000
00000000
00000000
00001000
00000100
00000000
00000010
00000000
00000000
00000001
00000100
00000000
00001010
00000000
00000000
00000000
,
00001001
00000000
00000000
00000001
00000000
00000000
00000100
00000010
00000100
00000000
00000001
00000000
00000010
00000100
00001000
00000000
,
00001100
00000000
00000000
00001000
00000000
00000000
00000001
00000100
00000001
00000000
00001000
00000000
00000010
00000100
00000001
00000000
,
00001000
00000000
00000010
00000000
00001000
00000000
00000100
00010000
00001000
00000000
00010000
00100000
00010000
00100000
10000000
00000000
,
00010000
00000000
00000000
00010000
00100000
00000000
01000000
00000000
00000000
10000000
00100000
00000000
01000000
00100000
10000000
00000000
,
00010000
00000000
01010000
00000000
01000000
00100000
10000000
00000000
12000000
00000000
00000000
00000000
13000000
00010000
10000000
00000000
,
00010000
00000000
00110000
00000000
00100000
00001000
00010000
00000000
00021000
00000000
00000000
00000000
00030100
00001000
00000100
00000000
,
00010000
00000000
00010000
00000010
00001000
00000000
00001000
00000001
00000020
00000000
00000000
00000000
00000031
00000100
00000010
00001000
,
00000100
00000000
00000100
00000010
00000001
00000000
00000001
00001000
00000010
00000000
00000100
00000000
00000001
00001000
00000010
00000000
,
00001000
00000000
00001010
00000000
00000010
00000100
00000001
00000000
00000021
00000000
00000000
00000000
00000031
00001000
00000001
00000000
,
00001000
00000000
00001100
00000000
00000100
00010000
00001000
00000000
00012000
00000000
00000000
00000000
00103000
00010000
00100000
00000000
,
00001000
00000000
00001000
01000000
00010000
00000000
00010000
10000000
02000000
00000000
00000000
00000000
13000000
00100000
01000000
00010000
,
00100000
00100000
01000000
10000000
00100000
00100000
10010000
00000000
,
01010000
01000000
00100000
00000000
10100000
00000000
10000000
00010000
20000000
00000000
31000000
00000000
00100000
00010000
10000000
00000000
,
00110000
00010000
10000000
00000000
10100000
00000000
00100000
01000000
00020000
00000000
00130000
00000000
00001000
00000000
00001000
00000000
,
00100000
00001000
00010000
00001000
00100000
00000000
00001000
00000000
00010000
00000010
00001000
00000010
00010000
00000000
00001000
00000000
,
00100000
00001000
00010000
00001000
00100000
00000000
00001200
00000000
00000000
00000000
00010300
00000000
00000100
00001000
00000001
00000000
,
00001010
00000010
00000100
00000000
00000101
00000000
00000001
00001000
00000002
00000000
00000013
00000000
00000100
00001000
00000001
00000000
,
00001100
00001000
00000001
00000000
00000101
00000000
00000100
00000010
00002000
00000000
00003100
00000000
00010000
00000000
00010000
00000000
,
00000100
00010000
00001000
00010000
00000100
00000000
00010000
00000000
00001000
01000000
00010000
01000000
00001000
00000000
00010000
00000000
,
00000100
00010000
00001000
00010000
00000100
00000000
00210000
00000000
00000000
00000000
00301000
00000000
00100000
00010000
10000000
00000000
,
00100000
00000000
20100000
00000000
30010000
00000000
01020000
00000000
10030000
00000000
01000000
00000000
10000000
00100000
10000000
00000000
,
00010000
00000000
00120000
00000000
10030000
00000000
21000000
00000000
30010000
00000000
01000000
00000000
00010000
10000000
00010000
00000000
,
00100000
00000000
00102000
00000000
00013000
00000000
00010020
00000000
00001030
00000000
00000001
00000000
00001000
00000100
00000010
00000001
,
00000100
00000000
00000100
00000010
00001000
00000000
00001010
00000000
00000001
00000000
00000101
00000000
00001000
00000000
00001001
00000000
,
00000200
00000000
00000000
00000300
,
02000000
00000000
00000000
03000000
,
00011000
00000000
00001000
00100000
00010000
00000000
00100000
00000000
00101000
00000000
00001000
00010000
00000010
00000000
00010000
00000000
,
00010010
00000000
00000010
00000100
00001000
00010000
00000200
00000000
00000000
00000000
00000000
00000000
00010000
00000000
00010300
00000000
,
00011000
00000000
00010000
00000100
00001000
00000000
00000100
00000000
00010100
00000000
00010000
00001000
01000000
00000000
00001000
00000000
,
01001000
00000000
01000000
00100000
00010000
00001000
00200000
00000000
00000000
00000000
00000000
00000000
00001000
00000000
00301000
00000000
,
00000000
00000000
00000000
00000000
,
00001010
00000010
00000100
00000000
00000101
00000000
00000001
00001000
00000002
00000000
00000013
00000000
00000100
00001000
00000001
00000000
,
00001100
00001000
00000001
00000000
00000101
00000000
00000100
00000010
00002000
00000000
00003100
00000000
00010000
00000000
00010000
00000000
,
00000100
00010000
00001000
00010000
00000100
00000000
00010000
00000000
00001000
01000000
00010000
01000000
00001000
00000000
00010000
00000000
,
00000100
00010000
00001000
00010000
00000100
00000000
00210000
00000000
00000000
00000000
00301000
00000000
00100000
00010000
10000000
00000000
,
01010000
01000000
00100000
00000000
10100000
00000000
10000000
00010000
20000000
00000000
31000000
00000000
00100000
00010000
10000000
00000000
,
00110000
00010000
10000000
00000000
10100000
00000000
00100000
01000000
00020000
00000000
00130000
00000000
00001000
00000000
00001000
00000000
,
00100000
00001000
00010000
00001000
00100000
00000000
00001000
00000000
00010000
00000010
00001000
00000010
00010000
00000000
00001000
00000000
,
00100000
00001000
00010000
00001000
00100000
00000000
00001200
00000000
00000000
00000000
00010300
00000000
00000100
00001000
00000001
00000000
,
00000100
00000000
00000102
00000000
00001003
00000000
00002010
00000000
00003001
00000000
00000010
00000000
00000001
00000100
00000001
00000000
,
00001000
00000000
00002100
00000000
00003001
00000000
00000012
00000000
00001003
00000000
00000010
00000000
00001000
00000001
00001000
00000000
,
00000100
00000000
00020100
00000000
00031000
00000000
02001000
00000000
03010000
00000000
10000000
00000000
00010000
00100000
01000000
10000000
,
00100000
00000000
00100000
01000000
00010000
00000000
01010000
00000000
10000000
00000000
10100000
00000000
00010000
00000000
00011000
00000000
;

//---------------dance-single - ----------------
#NOTEDATA:;
#CHARTNAME:;
#STEPSTYPE:dance-single;
#DESCRIPTION:;
#CHARTSTYLE:;
#DIFFICULTY:Medium;
#METER:5;
#RADARVALUES:0.285698,0.329619,0.077734,0.310936,0.000000,228.000000,11.000000,44.000000,0.000000,0.000000,0.000000,0.000000,0.000000,0.285698,0.329619,0.077734,0.310936,0.000000,228.000000,11.000000,44.000000,0.000000,0.000000,0.000000,0.000000,0.000000;
#CREDIT:Ben Speirs;
#NOTES:
0000
0000
0000
0000
,
0000
0000
0000
0000
,
0000
0000
0000
0000
,
0000
0000
0000
0000
,
1000
0010
1000
0000
0002
0000
1003
0000
,
0001
0010
0001
0000
2000
0000
3001
0000
,
1000
0100
0000
0000
0001
0100
0000
0000
,
1000
0010
1000
0002
0000
0000
0103
0000
,
1001
0000
0000
0000
1000
0100
0010
0000
,
1100
0000
0000
0000
0100
1000
0001
0000
,
0011
0000
0000
0000
0001
1000
0010
0000
,
0100
0000
0001
0000
1000
0100
0010
0000
,
2100
0000
3001
0000
1000
0100
0010
0000
,
0012
0000
1003
0000
0001
1000
0010
0000
,
0102
0000
1003
0000
0001
1000
0100
0000
,
0020
0031
2000
3010
,
1000
1000
0100
1000
0001
0000
0100
0000
,
0001
0001
0100
0001
1000
0000
0001
0000
,
2000
3020
0230
0300
,
0002
0023
0230
0300
,
1000
1000
0100
1000
0010
0000
0100
0000
,
0001
0001
0100
0001
0010
0000
0001
0000
,
0200
0320
2030
3000
,
0200
0000
0000
0310
,
1001
0000
0100
1000
0001
0000
0100
0000
,
0010
0000
1000
0001
0100
0000
0001
0000
,
2000
3100
0000
0000
0002
0013
0000
0000
,
1000
0010
0100
0002
0000
0000
1003
0000
,
0101
0000
0100
0001
1000
0000
0001
0000
,
0010
0000
0100
1000
0010
0000
0100
0000
,
0002
0013
0000
0000
0200
1300
0000
0000
,
0001
0100
0010
2000
0000
0000
3001
0000
,
1100
0000
0100
0010
0002
0000
1003
0000
,
1010
0000
1000
0001
0200
0000
0310
0000
,
2000
0000
3100
0010
0002
0000
0103
0001
,
2000
0100
0010
3001
,
2002
0000
0000
3003
,
0020
0000
0000
0030
,
1000
1000
0000
0000
0001
0001
0000
0000
,
0100
0010
0100
0010
0000
0000
0000
0000
,
1000
1000
0000
0000
0001
0001
0000
0000
,
0010
0100
0010
0100
0000
0000
0000
0000
,
0000
0000
0000
0000
,
1000
0100
0010
0001
2000
0000
3010
0000
,
0100
0000
0001
1000
0100
0000
0010
0000
,
0002
0103
0000
0000
0002
0013
0000
0000
,
0001
0100
0010
2000
0000
0000
3001
0000
,
0001
0010
0100
1000
0002
0000
0103
0000
,
0010
0000
1000
0001
0010
0000
0100
0000
,
2000
3010
0000
0000
2000
3100
0000
0000
,
1000
0010
0100
0002
0000
0000
1003
0000
,
0100
0000
1000
1000
0020
0000
0130
0000
,
0001
0000
0010
0010
0200
0000
1300
0000
,
0001
0000
0100
0100
0002
0000
1003
0000
,
0020
0000
1030
0001
1000
0100
1000
0001
;

//---------------dance-single - ----------------
#NOTEDATA:;
#CHARTNAME:;
#STEPSTYPE:dance-single;
#DESCRIPTION:;
#CHARTSTYLE:;
#DIFFICULTY:Easy;
#METER:3;
#RADARVALUES:0.162535,0.193452,0.021200,0.098934,0.000000,144.000000,3.000000,14.000000,0.000000,0.000000,0.000000,0.000000,0.000000,0.162535,0.193452,0.021200,0.098934,0.000000,144.000000,3.000000,14.000000,0.000000,0.000000,0.000000,0.000000,0.000000;
#CREDIT:Ben Speirs;
#NOTES:
0000
0000
0000
0000
,
0000
0000
0000
0000
,
0000
0000
0000
0000
,
0000
0000
0000
0000
,
0100
0010
2000
3000
,
0100
1000
0002
0003
,
0020
0030
0002
0003
,
2000
0000
3000
0000
,
0010
0000
0100
0001
,
1000
0000
0100
1000
,
0010
0000
1000
0001
,
1000
0000
0001
0000
,
1001
0000
0100
0001
,
1000
0000
0100
0010
,
0001
0000
1000
0100
,
1000
0000
0001
0000
,
0100
0100
0010
0000
,
0010
1000
0001
0000
,
0100
0100
0100
0001
,
1000
1000
1000
0000
,
0010
0010
0100
0000
,
0001
0001
1000
0000
,
0100
0100
0100
0010
,
0001
1000
0001
0000
,
0100
0001
1000
0010
,
0100
0000
0001
0000
,
1000
1000
0000
0000
0001
0001
0000
0000
,
0100
0100
0100
0000
,
0001
0100
0010
1000
,
0001
0000
1000
0000
,
0100
0100
0000
0000
0100
0100
0000
0000
,
0100
0010
0001
0000
,
0000
1000
0100
0010
,
0000
0001
1000
0010
,
0000
0100
0001
1000
,
0100
0000
0010
0000
,
2002
0000
0000
3003
,
0200
0000
0000
0300
,
2000
3000
0002
0003
,
0100
0100
0200
0300
,
0002
0003
2000
3000
,
0100
0100
0200
0300
,
0000
0000
0000
0000
,
0010
1000
0001
0100
,
0010
0000
1000
0000
,
0001
0001
0000
0000
1000
1000
0000
0000
,
0010
0010
0010
0000
,
1000
0010
0100
0001
,
1000
0000
0001
0000
,
0010
0010
0000
0000
0010
0010
0000
0000
,
0010
0100
1000
0000
,
0000
0001
0010
0100
,
0000
1000
0001
0100
,
0000
0010
1000
0001
,
0010
0000
0100
1001
;

//---------------dance-single - ----------------
#NOTEDATA:;
#CHARTNAME:;
#STEPSTYPE:dance-single;
#DESCRIPTION:;
#CHARTSTYLE:;
#DIFFICULTY:Beginner;
#METER:2;
#RADARVALUES:0.110039,0.154762,0.035334,0.000000,0.000000,104.000000,5.000000,0.000000,0.000000,0.000000,0.000000,0.000000,0.000000,0.110039,0.154762,0.035334,0.000000,0.000000,104.000000,5.000000,0.000000,0.000000,0.000000,0.000000,0.000000,0.000000;
#CREDIT:Ben Speirs;
#NOTES:
0000
0000
0000
0000
,
0000
0000
0000
0000
,
0000
0000
0000
0000
,
0000
0000
0000
0000
,
1000
0000
0000
0000
,
0001
0000
0000
0000
,
0100
0000
0100
0000
,
0100
0000
0000
0000
,
0001
0000
0000
1000
,
1000
0000
0000
0010
,
0010
0000
0000
0000
,
0100
0000
0001
0000
,
1000
0000
0000
0100
,
0100
0000
0000
0010
,
0010
0000
0000
0000
,
0001
0000
1000
0000
,
0010
0010
0010
0000
,
1000
0000
0001
0000
,
0100
0100
0100
0000
,
0100
0100
0100
0000
,
0001
0001
0001
0000
,
1000
0000
0001
0000
,
0010
0010
0010
0000
,
0001
0000
1000
0000
,
1001
0000
0100
0000
,
0001
0000
1000
0000
,
0100
0100
0100
0100
,
0100
0000
0010
0000
,
1001
0000
1000
0000
,
0001
0000
0100
0000
,
0010
0010
0010
0010
,
0010
0000
1000
0000
,
0000
0001
0001
0000
,
0000
1000
1000
0000
,
0000
0100
0100
0000
,
0010
0000
0001
0000
,
1001
0000
0000
0000
,
0000
0000
0000
0000
,
1000
0000
0001
0000
,
0100
0000
0000
0000
,
0001
0000
1000
0000
,
0100
0000
0000
0000
,
0000
0000
0000
0000
,
1001
0000
0010
0000
,
1000
0000
0001
0000
,
0010
0010
0010
0010
,
0010
0000
0100
0000
,
1001
0000
0001
0000
,
1000
0000
0010
0000
,
0100
0100
0100
0100
,
0100
0000
0001
0000
,
0000
1000
1000
0000
,
0000
0001
0001
0000
,
0000
0010
0010
0000
,
0100
0000
1000
1000
;
