#VERSION:0.82;
#TITLE:All Of Me;
#SUBTITLE:(Tiesto's Birthday Treatment [Radio Edit]);
#ARTIST:John Legend;
#TITLETRANSLIT:;
#SUBTITLETRANSLIT:;
#ARTISTTRANSLIT:;
#GENRE:EDM;
#ORIGIN:;
#CREDIT:;
#BANNER:All Of Me (Tiesto's Birthday Treatment [Radio Edit]).png;
#BACKGROUND:All Of Me (Tiesto's Birthday Treatment [Radio Edit])-bg.png;
#PREVIEWVID:;
#JACKET:jacket.png;
#CDIMAGE:;
#DISCIMAGE:;
#LYRICSPATH:;
#CDTITLE:cdtitle.png;
#MUSIC:All Of Me (Tiesto's Birthday Treatment [Radio Edit]).ogg;
#OFFSET:0.005000;
#SAMPLESTART:67.498322;
#SAMPLELENGTH:14.339993;
#SELECTABLE:YES;
#BPMS:0.000=128.000;
#STOPS:;
#DELAYS:;
#WARPS:;
#TIMESIGNATURES:0.000=4=4;
#TICKCOUNTS:0.000=4;
#COMBOS:0.000=1;
#SPEEDS:0.000=1.000=0.000=0;
#SCROLLS:0.000=1.000;
#FAKES:;
#LABELS:0.000=Song Start;
#BGCHANGES:0.000=All Of Me (Tiesto's Birthday Treatment [Radio Edit]).avi=1.000=0=0=1=====,
99999=-nosongbg-=1.000=0=0=0 // don't automatically add -songbackground-
;
#KEYSOUNDS:;
#ATTACKS:
;

//---------------dance-single - ----------------
#NOTEDATA:;
#CHARTNAME:;
#STEPSTYPE:dance-single;
#DESCRIPTION:;
#CHARTSTYLE:;
#DIFFICULTY:Hard;
#METER:7;
#RADARVALUES:0.423889,0.472093,0.227043,0.250530,0.000000,318.000000,29.000000,32.000000,0.000000,0.000000,0.000000,0.000000,0.000000,0.423889,0.472093,0.227043,0.250530,0.000000,318.000000,29.000000,32.000000,0.000000,0.000000,0.000000,0.000000,0.000000;
#CREDIT:Ben Speirs;
#NOTES:
0000
0000
0000
0000
,
0000
0000
0000
0000
,
0000
0000
0000
0000
,
0000
0000
0000
0000
,
0001
0000
0101
0100
0010
0000
1000
0000
,
0100
0000
1100
0100
0010
0000
0001
0000
,
1000
0000
0010
1000
0001
0000
0010
0001
,
0200
0300
0001
0101
,
2000
0000
3010
0000
0010
1000
0100
0000
,
0100
1000
0001
0000
0001
1000
0010
0000
,
0102
0000
1003
0000
0001
1000
0010
0000
,
0010
0100
0001
0000
0001
0010
0100
0000
,
2100
0000
3001
0000
1000
0001
0100
0000
,
0001
1000
0010
0000
1000
0001
0010
0000
,
0001
0010
0100
1000
0010
0010
0010
0000
,
1000
0100
0010
0001
0100
0100
0100
0000
,
0001
1001
1000
1001
,
0002
0000
1003
0010
0100
0001
0010
0100
,
1000
1100
0001
0101
,
2001
0000
3020
0000
0130
0010
1000
0100
,
0200
0000
0310
0000
0001
0010
0200
0000
,
2300
0000
3001
1000
0010
0100
0001
0000
,
0100
0010
0100
0000
0001
1000
0001
0000
,
1000
0100
0001
0010
1000
0100
0001
0010
,
1000
0000
0000
0000
,
0001
0000
0010
0010
,
0001
0000
1000
1000
,
0010
0000
0000
0000
0100
0001
1000
0010
,
0100
0000
0000
0000
0000
0000
0000
0001
,
0001
0000
0000
1000
1000
0000
0000
0000
,
0010
0000
0010
0000
1000
0100
0010
0001
,
0100
0000
0001
0000
,
1100
0001
0100
1001
,
1010
0001
0100
1100
,
0101
0000
0010
0000
0001
1000
0010
0000
,
1000
0100
0001
0010
1000
0100
0001
0000
,
2100
0000
0001
0000
0010
0000
0001
0001
,
3002
0000
0103
0000
1000
0010
0100
0000
,
1002
0000
0100
0000
0010
0000
1000
1000
,
2003
0000
3100
0000
1000
0001
0010
0000
,
2100
0000
3002
0000
0203
0000
0310
1000
,
0001
0000
0100
0000
0010
1000
0100
0000
,
1001
0000
1001
0000
0110
0000
1001
0001
,
0200
0000
0310
0000
1000
0010
0100
0001
,
1000
0000
1000
0000
1000
0000
0100
0100
,
1000
0000
0010
0000
1000
0100
0010
0000
,
0001
0000
0001
0000
0001
0000
0100
0100
,
0001
0000
1000
0000
0001
0010
0100
0000
,
2100
0000
3002
0000
0203
0000
0310
1000
,
0001
0000
0100
0000
0001
1000
0001
0000
,
1100
0000
0101
0000
1001
0000
0010
0010
,
0020
0000
0030
0000
1000
0010
0100
0001
,
2000
0000
3100
0010
0002
0000
0103
0010
,
2000
0000
3001
1000
0020
0000
0100
0100
,
0130
0000
0000
0000
0001
0100
0010
0000
,
1000
0000
1100
0000
0001
1000
0010
0000
,
1002
0100
2003
0100
,
3002
0000
0010
0000
2003
0000
3010
0100
,
0001
0000
0100
0000
0010
1000
0100
0000
,
1000
0000
0010
1000
0100
0010
0001
0000
,
0100
0001
0100
0010
0000
1000
0010
1000
,
0000
0001
0010
0001
0000
0000
1000
1000
,
2000
0000
3100
0000
0010
0000
0001
0010
,
0200
0000
1300
0000
0010
1000
0001
0000
,
0100
0100
0010
1000
0001
0000
0010
0001
,
1000
0000
0100
1000
0010
0100
0001
1000
,
1100
0000
0000
0001
,
0100
0000
0000
0000
;

//---------------dance-single - ----------------
#NOTEDATA:;
#CHARTNAME:;
#STEPSTYPE:dance-single;
#DESCRIPTION:;
#CHARTSTYLE:;
#DIFFICULTY:Challenge;
#METER:9;
#RADARVALUES:0.590536,0.655685,0.219214,0.015658,0.207471,498.000000,28.000000,2.000000,0.000000,0.000000,0.000000,0.000000,0.000000,0.590536,0.655685,0.219214,0.015658,0.207471,498.000000,28.000000,2.000000,0.000000,0.000000,0.000000,0.000000,0.000000;
#CREDIT:Ben Speirs;
#NOTES:
// measure 0
0000
0000
0000
0000
,  // measure 1
0000
0000
0000
0000
,  // measure 2
0000
0000
0000
0000
,  // measure 3
0000
0000
0000
0000
,  // measure 4
1000
0010
0100
0010
1000
0100
0010
0000
,  // measure 5
0001
0010
0100
0010
0001
0100
0010
0000
,  // measure 6
0100
0001
0101
0000
1000
0100
1100
0000
,  // measure 7
0002
0013
2000
3010
,  // measure 8
1001
0001
0100
0000
0010
0100
0001
0000
,  // measure 9
0100
0010
1000
0000
0001
0010
0100
1000
,  // measure 10
0010
1000
0001
0000
0010
0001
1000
0000
,  // measure 11
0100
1000
0010
0100
0001
1000
0001
1000
,  // measure 12
0010
0100
0001
0000
0100
0010
1000
0000
,  // measure 13
0010
1000
0100
0000
1000
0100
0010
0000
,  // measure 14
0100
0010
0001
0100
0010
1000
0001
0010
,  // measure 15
0100
0010
0001
0100
0010
1000
0001
0000
,  // measure 16
1000
0100
1100
0000
0001
1000
0010
0100
,  // measure 17
0001
1000
0100
0010
0001
1000
0010
0000
,  // measure 18
0100
0001
0101
0000
0010
0100
0001
0010
,  // measure 19
0100
1000
0001
0100
0010
0010
1000
0000
,  // measure 20
0001
1000
1001
0000
1000
0100
1100
0000
,  // measure 21
0001
1000
1001
0000
0001
0100
0101
0000
,  // measure 22
0010
1000
0010
1000
0001
0010
0100
1000
,  // measure 23
0001
0100
0001
0100
0010
0100
0010
0100
0010
1000
0010
1000
0100
1000
0100
1000
,  // measure 24
0001
0010
0100
1000
0000
0010
1000
0001
,  // measure 25
0100
0100
0010
1000
0000
0001
0010
0001
,  // measure 26
1000
1000
0100
1000
0000
0010
0100
0001
,  // measure 27
0100
0100
0010
1000
0000
0010
1000
0001
,  // measure 28
0010
0010
0001
1000
1000
0100
0010
0001
,  // measure 29
0100
0100
0010
1000
0000
0010
1000
0001
,  // measure 30
1000
1000
0100
0010
0000
0010
0001
0100
,  // measure 31
0010
0010
0100
0000
1001
0000
0000
0000
,  // measure 32
1100
0000
0100
0000
1000
0000
0010
0100
0010
0000
1000
0000
0100
0000
0010
0000
,  // measure 33
0001
1000
0010
0100
0001
1000
0100
0010
,  // measure 34
0001
0001
1000
1000
0010
0010
0100
0100
,  // measure 35
0001
1000
0001
1000
0001
1000
0001
1000
0010
0100
0010
0100
0001
0000
0000
0000
,  // measure 36
1001
0000
1000
0000
0010
0000
0100
0000
0001
0000
1000
0000
0100
0010
0001
0000
,  // measure 37
1000
0000
0010
0000
0100
0000
0001
0000
1000
0100
1000
0000
0010
0000
0100
0000
,  // measure 38
0001
0000
1000
0000
0010
0000
0100
0000
0001
0000
1000
0000
0100
0010
0001
0000
,  // measure 39
1000
0000
0010
0000
0100
0000
0001
0000
1000
0100
1000
0000
0001
0000
0000
0000
,  // measure 40
1100
0000
0100
1000
0100
0000
1000
0100
1000
0000
0100
1000
0100
0000
1000
0001
,  // measure 41
1000
0000
1100
0000
0100
1000
0010
0100
,  // measure 42
0101
0000
0001
0100
0001
0000
0100
0001
0100
0000
0001
0100
0001
0000
0100
0001
,  // measure 43
1000
0000
1001
0000
0001
0010
0100
1000
,  // measure 44
0001
0000
0001
0000
0100
0000
0010
0000
1000
0000
0001
0000
0010
0100
1000
0000
,  // measure 45
0001
0000
0100
0000
0010
0000
1000
0000
0001
0010
0001
0000
0100
0000
0010
0000
,  // measure 46
1000
0000
0001
0000
0100
0000
0010
0000
1000
0000
0001
0000
0010
0100
1000
0000
,  // measure 47
0001
0000
0100
0000
0010
0000
1000
0000
0001
0010
0001
0000
1000
0000
0000
0000
,  // measure 48
0011
0000
0010
0001
0010
0000
0001
0010
0001
0000
0010
0001
0010
0000
0001
1000
,  // measure 49
0001
0000
0011
0000
0010
0001
0100
0010
,  // measure 50
1010
0000
1000
0010
1000
0000
0010
1000
0010
0000
1000
0010
1000
0000
0010
1000
,  // measure 51
0001
0000
1001
0000
1000
0100
0010
0001
,  // measure 52
1000
0100
0010
0000
0001
0000
1000
0010
0100
0000
0001
0000
1000
0000
0100
0010
,  // measure 53
0001
0000
1000
0000
0010
0000
0100
0001
1000
0000
0010
0000
0100
0010
0100
0000
,  // measure 54
0001
0100
0010
1000
0100
0010
0001
1000
,  // measure 55
0010
1000
0100
0010
0001
0100
0100
0000
,  // measure 56
0001
0010
0100
0000
1000
0000
0001
0100
0010
0000
1000
0000
0001
0000
0010
0100
,  // measure 57
1000
0000
0001
0000
0100
0000
0010
1000
0001
0000
0100
0000
0010
0100
0010
0000
,  // measure 58
1000
0010
0100
0001
0010
0100
1000
0001
,  // measure 59
0100
0001
0010
0100
1000
0010
0010
0000
,  // measure 60
1001
1000
0010
0110
0100
0001
1000
1100
,  // measure 61
0100
0000
0010
0000
0001
0000
1001
0000
1000
0000
0000
0000
0010
1000
0010
1000
,  // measure 62
0001
0000
0010
0001
1000
0010
0100
0001
,  // measure 63
1000
0000
0001
0010
0100
1000
0001
0000
,  // measure 64
1001
0001
0100
0110
0010
1000
0001
0011
,  // measure 65
0010
0000
0100
0000
1000
0000
1001
0000
0001
0000
0000
0000
0100
0001
0100
0001
,  // measure 66
1000
0000
0000
0001
,  // measure 67
0100
0000
0000
0000
;

//---------------dance-double - ----------------
#NOTEDATA:;
#CHARTNAME:;
#STEPSTYPE:dance-double;
#DESCRIPTION:;
#CHARTSTYLE:;
#DIFFICULTY:Challenge;
#METER:7;
#RADARVALUES:0.465271,0.472093,0.203556,0.125265,0.234872,374.000000,26.000000,16.000000,0.000000,0.000000,0.000000,0.000000,0.000000,0.465271,0.472093,0.203556,0.125265,0.234872,374.000000,26.000000,16.000000,0.000000,0.000000,0.000000,0.000000,0.000000;
#CREDIT:Ben Speirs;
#NOTES:
00000000
00000000
00000000
00000000
,
00000000
00000000
00000000
00000000
,
00000000
00000000
00000000
00000000
,
00000000
00000000
00000000
00000000
,
00010000
00011000
00001000
00011000
,
00100000
00101000
00001000
00101000
,
00010000
00010100
00000100
00010100
,
00020000
00031000
00002000
00013000
,
00000100
00000000
00010100
00000000
00000100
00001000
00000001
00000000
,
00000001
00000100
00000010
00000000
00000010
00001000
00000100
00000000
,
00010000
00000000
00010100
00000000
00001000
00100000
00010000
00000000
,
00010000
10000000
00100000
00000000
10000000
00010000
01000000
00000000
,
00001000
00000000
01001000
00000000
00010000
00000100
00001000
00000000
,
00000100
00010000
00001000
00000000
00100000
00001000
00010000
00000000
,
00000100
00010000
00000100
00010000
00000100
00001000
00000010
00000000
,
00000100
00000010
00001000
00000100
00010000
00001000
00100000
00000000
,
00010000
00000000
00120000
00000000
10030000
00100000
10000000
00000000
,
00010000
01000000
00010000
00000000
10000000
01000000
00100000
00000000
,
20010000
00000000
31000000
00000000
00010000
10000000
01000000
00000000
,
10000000
00010000
01000000
00000000
00010000
00100000
00001000
00010000
,
00000200
00000000
00000310
00000000
00000010
00000001
00000100
00000000
,
00000020
00000000
00000130
00000000
00000100
00000010
00001000
00000000
,
00000010
00001000
00000100
00010000
00001000
00100000
00010000
10000000
,
00100000
00010000
00100000
10000000
01000000
00010000
01000000
10000000
,
00200000
00300000
01000000
01000000
,
00010000
00000000
00000000
00000000
10000000
01000000
00100000
00000000
,
00010000
00000000
00100000
00001000
,
00010000
00000000
00000000
00000000
00000100
00010000
00000100
00001000
,
00000010
00000000
00000000
00000000
00000100
00000100
00000100
00000000
,
00000010
00001000
00000001
00000010
,
00000001
00000000
00000000
00000000
00001000
00000100
00001000
00000000
,
00000100
00000000
00010100
00000000
,
00021000
00032000
00023000
00032000
,
00023000
00000000
00000000
00000000
00032000
00000000
00000000
00000000
00023000
00000000
00000000
00030000
00002000
00000000
00000000
00000000
,
00013000
00000100
00000010
00000001
00000100
00000010
00001000
00000100
,
00010000
00001000
00100000
00010000
10000000
00100000
01000000
00000000
,
00010000
00000000
00000000
00010000
10000000
00000000
00000000
10000000
00100000
00000000
00000000
00100000
01000000
00000000
00000000
01000000
,
00010000
00000000
00000000
00010000
00100000
00000000
00000000
00100000
00001000
00000000
00000000
00001000
00010000
00000000
00000000
00010000
,
00000100
00000000
00000000
00000100
00001000
00000000
00000000
00001000
00000010
00000000
00000000
00000010
00000100
00000000
00000000
00000100
,
00000001
00000000
00000000
00000001
00001000
00000000
00000000
00001000
00000100
00000000
00000000
00000100
00000010
00000000
00000000
00000010
,
00000001
00000000
00000000
00000001
00001000
00000000
00000000
00001000
00000010
00000000
00000000
00000010
00000100
00000000
00000000
00000100
,
00001000
00000000
00000000
00001000
00010000
00000000
00000000
00010000
00100000
00000000
00000000
00100000
10000000
00000000
00000000
10000000
,
01000000
00000000
00000000
01000000
00100000
00000000
00000000
00100000
00010000
00000000
00000000
00010000
10000000
00000000
00000000
10000000
,
00100000
00000000
00000000
00100000
01000000
00000000
00000000
01000000
00010000
00000000
00100000
00000000
00010000
00000000
00000000
00000000
,
10000000
00000000
00000000
10000000
01000000
00000000
00000000
01000000
00010000
00000000
00000000
00010000
00001000
00000000
00000000
00001000
,
00000100
00000000
00000000
00000100
00000001
00000000
00000000
00000001
00000010
00000000
00000000
00000010
00000100
00000000
00000000
00000100
,
00001000
00000000
00000000
00001000
00000010
00000000
00000000
00000010
00000100
00000000
00000000
00000100
00000001
00000000
00000000
00000001
,
00001000
00000000
00000000
00001000
00000100
00000000
00000000
00000100
00010000
00000000
00000000
00010000
00001000
00000000
00000000
00001000
,
00100000
00000000
00000000
00100000
00010000
00000000
00000000
00010000
10000000
00000000
00000000
10000000
00100000
00000000
00000000
00100000
,
01000000
00000000
00000000
01000000
00010000
00000000
00000000
00010000
00100000
00000000
00000000
00100000
10000000
00000000
00000000
10000000
,
00100000
00000000
00000000
00100000
00010000
00000000
00000000
00010000
00100000
00000000
00000000
00100000
00001000
00000000
00000000
00001000
,
00010000
00000000
00000000
00010000
00000100
00000000
00000000
00000100
00001000
00000000
00000010
00000000
00000100
00000000
00000000
00000000
,
00000001
00000100
00000010
00001000
00000100
00000010
00000001
00000100
,
00000010
00001000
00000100
00000010
00000001
00000000
00001000
00001000
,
00000100
00000000
00010100
00000000
00001000
00000000
00100000
00010000
,
01000000
00000000
00100000
10000000
00010000
00000000
01000000
00000000
,
00010000
00100000
01000000
10000000
00100000
01000000
00010000
10000000
,
01000000
00100000
00010000
10000000
00100000
00000000
01000000
01000000
,
00010000
10010000
10000000
11000000
,
01000000
00100000
00010000
00000000
00100000
00001000
00010000
00000000
,
00010100
00011000
00101000
00110000
,
20010000
00000000
30100000
00000000
10000000
01000000
00100000
00010000
,
01000000
00000000
00010000
00000000
00100000
00001000
00010000
00000000
,
00000100
00000000
00001000
00000000
00000010
00000100
00000001
00000000
,
00000101
00000110
00001010
00001100
,
00000110
00000000
00000001
00000010
00000100
00001000
00000010
00000100
,
00001000
00000000
00000000
00010000
,
00001000
00000000
00000000
00000000
;

//---------------dance-single - ----------------
#NOTEDATA:;
#CHARTNAME:;
#STEPSTYPE:dance-single;
#DESCRIPTION:;
#CHARTSTYLE:;
#DIFFICULTY:Medium;
#METER:5;
#RADARVALUES:0.312045,0.445866,0.125265,0.195727,0.000000,238.000000,16.000000,25.000000,0.000000,0.000000,0.000000,0.000000,0.000000,0.312045,0.445866,0.125265,0.195727,0.000000,238.000000,16.000000,25.000000,0.000000,0.000000,0.000000,0.000000,0.000000;
#CREDIT:Ben Speirs;
#NOTES:
0000
0000
0000
0000
,
0000
0000
0000
0000
,
0000
0000
0000
0000
,
0000
0000
0000
0000
,
1000
0010
0000
0010
,
0100
0001
0000
0001
,
1000
0100
0000
0100
,
0000
0010
0000
0010
,
1001
1000
0010
0010
,
0100
0000
0001
0000
1000
0100
1000
0000
,
0001
0000
0100
0100
,
0001
0000
1000
0000
0010
1000
0010
0000
,
0100
0100
0001
0010
,
0002
0000
0003
0000
1000
1000
0100
0000
,
2000
0000
3000
0000
0001
0001
0100
0000
,
0010
0000
0010
0000
1000
0010
0100
0000
,
2002
0000
3003
0000
0001
1000
0001
0000
,
0100
0000
0100
0000
0010
1000
0100
0000
,
1000
0000
0000
0000
0100
1000
0100
0000
,
1000
0001
1000
0000
0001
0100
0001
0000
,
0100
0010
0010
1000
,
0200
0000
0300
0000
0010
0001
1000
0000
,
0020
0000
0030
0000
0100
0001
1000
0000
,
0001
0100
1000
0010
,
1001
0000
0000
0000
,
1000
0000
0100
0100
,
0010
0000
0001
1000
,
0010
0000
0100
0100
,
0002
0003
0000
0000
,
1000
0000
0001
0001
,
1000
0010
0100
0100
,
0001
0000
1001
0000
,
2000
3002
2003
3002
,
2003
3002
2003
3002
,
1003
0100
1000
0000
0001
0100
0001
0000
,
1000
0010
1000
0000
0001
0010
0001
0000
,
2000
0000
0100
0000
3100
0000
1000
0001
,
1000
0000
1001
0000
,
0002
0000
0100
0000
0103
0000
0001
1000
,
0001
0000
0000
0000
1000
1000
0000
0000
,
0020
0130
0001
1000
,
0200
0000
0300
0000
1000
0001
1000
0000
,
0002
0013
0001
2000
,
3010
0000
0000
0000
1000
0100
1000
0000
,
0022
0000
0033
0000
0000
0000
0001
0001
,
0100
0000
0010
0000
1000
0001
1000
0000
,
2020
0000
3030
0000
0000
0000
1000
1000
,
0001
0000
1000
0000
0010
1000
0010
0000
,
0100
0000
0100
0000
0001
0000
1000
0100
,
1000
0000
0000
0000
0001
0001
1000
0000
,
0010
0000
0100
0000
0001
0000
1000
0001
,
1000
0000
0001
0010
,
0011
0000
0000
1000
0000
0000
0000
0010
,
0000
0000
0000
0100
0000
0000
0001
0001
,
0100
0010
1000
0001
,
0001
0000
0000
0000
1000
0100
1000
0000
,
0010
0000
0000
1000
0000
0000
0000
0001
,
0000
0000
0000
1000
0000
0000
0010
0010
,
0100
0000
0001
0000
1000
0000
0100
0010
,
0100
0000
0010
0000
0001
1000
0001
0000
,
1100
0000
0000
0101
0000
0000
0000
1001
,
0000
0000
0000
1001
0000
0000
1000
1000
,
0001
0000
0100
0000
0001
0000
1000
0100
,
0010
0000
0000
0000
0001
1000
0001
0000
,
1001
0000
0000
1100
0000
0000
0000
1001
,
0000
0000
0000
0011
0000
0000
1000
1000
,
0001
0000
0000
0100
,
0100
0000
0000
0000
;

//---------------dance-single - ----------------
#NOTEDATA:;
#CHARTNAME:;
#STEPSTYPE:dance-single;
#DESCRIPTION:;
#CHARTSTYLE:;
#DIFFICULTY:Easy;
#METER:3;
#RADARVALUES:0.182306,0.288501,0.046974,0.086120,0.000000,146.000000,6.000000,11.000000,0.000000,0.000000,0.000000,0.000000,0.000000,0.182306,0.288501,0.046974,0.086120,0.000000,146.000000,6.000000,11.000000,0.000000,0.000000,0.000000,0.000000,0.000000;
#CREDIT:Ben Speirs;
#NOTES:
0000
0000
0000
0000
,
0000
0000
0000
0000
,
0000
0000
0000
0000
,
0000
0000
0000
0000
,
0001
0000
1000
1000
,
0010
0000
0100
0100
,
0001
0000
1000
1000
,
0000
0001
0000
1000
,
0010
0000
0100
0100
,
0001
0000
1000
0001
,
1000
0000
0010
0000
,
1000
0000
0100
0000
,
1000
1000
0100
0100
,
0010
0000
0010
0000
,
0001
0000
0001
0000
,
0100
0100
0001
0000
,
1001
0000
1000
0000
,
0010
0010
1000
1000
,
0100
0000
1000
0000
,
0001
0001
0100
0100
,
0010
0000
1000
0000
,
0001
0001
1000
0000
,
1000
1000
0001
0000
,
1000
0000
0010
0000
,
2002
0000
3003
0000
,
2000
0000
3000
0000
,
0002
0000
0003
0000
,
0100
0000
0100
0000
,
0020
0000
0030
0000
,
1000
0000
0000
0000
,
0001
0000
1000
0000
,
0100
0000
0100
0000
,
1001
1000
1000
0000
,
1001
0001
0001
0000
,
1000
1000
0001
0001
,
1000
0001
1000
0000
,
2002
3003
0000
0001
,
0100
0000
0010
0000
,
2002
3003
0000
1000
,
0100
0000
0010
0000
,
0001
0001
1000
1000
,
0001
0000
0000
0000
,
1000
1000
0001
0001
,
1000
0000
0000
0000
,
0020
0030
0000
0010
,
0010
0000
1000
0000
,
0200
0300
0000
0100
,
0100
0000
0010
0000
,
0001
0000
1000
0000
,
0010
0000
0100
0100
,
0100
0000
0001
0000
,
1000
0000
0000
0000
,
0010
1000
0010
0000
,
1000
0000
0001
0000
,
0100
0000
0000
0000
,
0001
0000
1000
0000
,
0001
0100
0001
0000
,
1000
0000
0001
0000
,
1000
0000
0000
0000
,
0010
0000
0000
0000
,
1000
0000
0100
0100
,
0010
0000
0010
0010
,
0001
0000
1000
0000
,
0010
0000
0010
0000
,
1000
0000
1000
1000
,
0100
0000
0100
0100
,
0010
0000
0000
0001
,
1000
0000
0000
0000
;

//---------------dance-single - ----------------
#NOTEDATA:;
#CHARTNAME:;
#STEPSTYPE:dance-single;
#DESCRIPTION:;
#CHARTSTYLE:;
#DIFFICULTY:Beginner;
#METER:1;
#RADARVALUES:0.106252,0.155016,0.039145,0.000000,0.000000,90.000000,5.000000,0.000000,0.000000,0.000000,0.000000,0.000000,0.000000,0.106252,0.155016,0.039145,0.000000,0.000000,90.000000,5.000000,0.000000,0.000000,0.000000,0.000000,0.000000,0.000000;
#CREDIT:Ben Speirs;
#NOTES:
0000
0000
0000
0000
,
0000
0000
0000
0000
,
0000
0000
0000
0000
,
0000
0000
0000
0000
,
0100
0000
0000
0000
,
0010
0000
0000
0000
,
1000
0000
0000
0000
,
0000
0001
0000
0001
,
0001
0000
0000
0000
,
1000
0000
1000
0000
,
0010
0000
0000
0000
,
0100
0100
0000
0000
,
0001
0000
0000
0000
,
1000
0000
0000
0000
,
0010
0000
0000
0000
,
0010
0000
0010
0000
,
1001
0000
0000
0000
,
1000
0000
1000
1000
,
0000
0000
0000
0000
,
0001
0000
0001
0001
,
0000
0000
0000
0000
,
0100
0000
0100
0000
,
0100
0000
0000
0000
,
0010
0000
0010
0000
,
0010
0000
0000
0000
,
1000
0000
0000
0000
,
0001
0000
0000
0000
,
0100
0000
0100
0000
,
0100
0000
0000
0000
,
0001
0000
0000
0000
,
1000
0000
0000
0000
,
0000
0000
0010
0000
,
1001
0000
1000
0000
,
1000
0000
1000
0000
,
0001
0000
0001
0000
,
0001
0000
0001
0000
,
1001
0000
0000
0000
,
0100
0000
0100
0000
,
0001
0000
0000
0000
,
1000
0000
0000
0000
,
0010
0010
0000
0000
,
0010
0000
0000
0000
,
0100
0100
0000
0000
,
0100
0000
0000
0000
,
1001
0000
0000
0000
,
0001
0000
0001
0000
,
0100
0000
0000
0000
,
0010
0000
0000
0000
,
1000
1000
0000
0000
,
1000
0000
0000
0000
,
0001
0001
0000
0000
,
0001
0000
0000
0000
,
1000
0000
1000
0000
,
1000
0000
1000
0000
,
1000
0000
0000
0000
,
0001
0000
0000
0000
,
0100
0000
0100
0000
,
0100
0000
0100
0000
,
0100
0000
0000
0000
,
0010
0000
0000
0000
,
1001
0000
0001
0000
,
0001
0000
0001
0000
,
0001
0000
0000
0000
,
1000
0000
0000
0000
,
0010
0000
0010
0000
,
0010
0000
0010
0000
,
0010
0000
0000
0000
;
