#VERSION:0.82;
#TITLE:All About That Bass;
#SUBTITLE:;
#ARTIST:Meghan Trainor;
#TITLETRANSLIT:;
#SUBTITLETRANSLIT:;
#ARTISTTRANSLIT:;
#GENRE:Pop;
#ORIGIN:;
#CREDIT:;
#BANNER:All About That Bass.png;
#BACKGROUND:All About That Bass-bg.png;
#PREVIEWVID:;
#JACKET:jacket.png;
#CDIMAGE:;
#DISCIMAGE:;
#LYRICSPATH:;
#CDTITLE:cdtitle.png;
#MUSIC:All About That Bass.ogg;
#OFFSET:-1.132000;
#SAMPLESTART:43.661179;
#SAMPLELENGTH:15.919991;
#SELECTABLE:YES;
#BPMS:0.000=134.000;
#STOPS:78.500=0.448;
#DELAYS:;
#WARPS:;
#TIMESIGNATURES:0.000=4=4;
#TICKCOUNTS:0.000=4;
#COMBOS:0.000=1;
#SPEEDS:0.000=1.000=0.000=0;
#SCROLLS:0.000=1.000;
#FAKES:;
#LABELS:0.000=Song Start;
#BGCHANGES:0.000=All About That Bass.avi=1.000=0=0=1=====,
99999=-nosongbg-=1.000=0=0=0 // don't automatically add -songbackground-
;
#KEYSOUNDS:;
#ATTACKS:
;

//---------------dance-single - ----------------
#NOTEDATA:;
#CHARTNAME:;
#STEPSTYPE:dance-single;
#DESCRIPTION:;
#CHARTSTYLE:;
#DIFFICULTY:Hard;
#METER:7;
#RADARVALUES:0.471220,0.460245,0.168371,0.038266,0.088012,404.000000,22.000000,5.000000,0.000000,0.000000,0.000000,0.000000,0.000000,0.471220,0.460245,0.168371,0.038266,0.088012,404.000000,22.000000,5.000000,0.000000,0.000000,0.000000,0.000000,0.000000;
#CREDIT:Ben Speirs;
#NOTES:
// measure 0
0000
0000
0000
0000
,  // measure 1
0000
0000
0000
0000
,  // measure 2
0001
0000
0000
0100
0001
1000
0000
0010
,  // measure 3
0010
0000
0000
0000
,  // measure 4
1000
0000
0000
0100
1000
0001
0000
0010
,  // measure 5
0010
0000
0000
0000
,  // measure 6
0001
1000
0001
1000
0010
0000
1000
0001
,  // measure 7
0020
0000
0030
0000
,  // measure 8
1001
0000
1000
0100
0010
0010
0001
0000
,  // measure 9
1000
0000
0001
0100
0010
0010
1000
0000
,  // measure 10
0101
0000
1000
0100
1000
1000
0001
0001
,  // measure 11
0100
0000
0010
0100
0001
1000
0100
0000
,  // measure 12
1000
0000
0010
0000
1000
0000
0010
0000
0100
0000
0000
0100
0000
0000
0001
0000
,  // measure 13
1000
0100
0010
0001
0100
0000
0001
0100
,  // measure 14
0000
0100
0010
1000
0001
0000
1000
0100
,  // measure 15
0000
0100
0010
0001
0100
0000
0101
0000
,  // measure 16
0001
1000
0010
1000
0100
0100
0010
0000
,  // measure 17
0100
1000
0010
0100
0001
0001
1000
0000
,  // measure 18
0001
0000
0100
0000
0010
0000
1000
0000
0100
0000
0000
1000
0000
0000
0010
0000
,  // measure 19
0000
1000
0010
0100
0001
1000
0001
0100
,  // measure 20
0010
1000
0100
0100
0010
0010
0001
0010
,  // measure 21
0100
0000
1000
0000
0001
0000
0000
0100
0010
0000
0100
0000
0001
0000
0001
0000
,  // measure 22
1000
1000
0010
1000
0001
0001
1000
1000
,  // measure 23
0100
0000
0010
0000
0001
0000
0000
0000
1000
0000
0100
0000
1000
0000
0000
1000
,  // measure 24
0000
0000
0001
0000
0100
0000
0000
0100
0000
0000
0010
0000
1000
0000
0000
1000
,  // measure 25
0000
0001
0010
0000
0001
1000
0020
0000
,  // measure 26
0000
0100
0000
0100
0000
0130
0020
0000
,  // measure 27
0000
0000
0100
0000
0000
0000
0130
0000
0010
0000
1000
0000
0001
0000
0000
0001
,  // measure 28
0000
0000
0100
0000
0010
0000
0000
0010
0000
0000
0100
0000
0001
0000
0000
0001
,  // measure 29
0000
1000
0100
0000
1000
0010
0100
0000
,  // measure 30
0001
0100
1000
0100
1000
0100
0001
0000
,  // measure 31
1000
0000
0100
0000
0001
0000
0100
0000
0010
0000
0001
0000
0100
0000
0000
0100
,  // measure 32
0000
0000
0010
0000
1000
0000
0000
1000
0000
0000
0001
0000
0010
0000
0000
0010
,  // measure 33
0000
0001
1000
0000
0001
1000
0200
0000
,  // measure 34
0000
0010
0000
0010
0000
0310
0200
0000
,  // measure 35
0000
0000
0010
0000
0000
0000
0310
0000
0001
0000
0100
0000
0010
0000
0000
0100
,  // measure 36
0000
0000
0001
0000
1000
0000
0000
0100
0000
0000
0010
0000
0001
0000
0000
0100
,  // measure 37
0000
0010
1000
0000
0001
0100
0001
0000
,  // measure 38
1000
0100
0010
0010
0001
1000
0010
0000
,  // measure 39
0000
0000
0000
0000
0000
0000
0001
0100
,  // measure 40
1000
0100
0100
0000
0010
0100
0001
0000
,  // measure 41
0101
0000
1010
0000
0001
0000
1000
0100
,  // measure 42
0001
0100
0100
0000
0010
0100
1000
0000
,  // measure 43
1100
0000
0011
0000
1000
0000
0001
0010
,  // measure 44
0100
1000
1000
0100
1000
0010
0010
0000
,  // measure 45
1010
0000
1001
0001
0100
0000
0001
0100
,  // measure 46
0010
0100
0100
0001
1000
0100
0100
0000
,  // measure 47
0000
1000
0100
0010
0001
1000
0010
0010
,  // measure 48
0100
0001
0001
0000
0100
0001
1000
0000
,  // measure 49
1001
0000
1100
0100
0010
0000
0100
0100
,  // measure 50
1000
0010
0010
0000
1000
0100
0010
0000
,  // measure 51
1100
0000
0011
0001
1000
0000
0001
0001
,  // measure 52
1000
0010
0010
0000
1000
0001
0100
0000
,  // measure 53
0101
0000
1001
0001
1000
0000
0010
1000
,  // measure 54
0100
0010
0001
0100
0010
1000
0001
0000
,  // measure 55
0100
0000
0010
0000
0100
0000
0001
0000
1000
0000
0000
0000
0001
0000
0000
0001
,  // measure 56
0000
0000
0100
0000
0010
0000
0000
0010
0000
0000
1000
0000
0100
0000
0000
0100
,  // measure 57
0000
0000
0010
0000
0001
0000
0000
0001
0000
0000
1000
0000
1000
0000
0001
0000
,  // measure 58
1000
0001
0100
0000
0001
1000
0100
0000
,  // measure 59
1100
0000
0000
0000
1001
0000
1000
0000
0010
0000
0000
0000
1000
0000
0000
1000
,  // measure 60
0000
0000
0001
0000
0100
0000
0000
0100
0000
0000
0010
0000
1000
0000
0000
1000
,  // measure 61
0000
0000
0100
0000
0010
0000
0000
0010
0000
0000
0001
0000
0001
0000
1000
0000
,  // measure 62
0001
1000
0010
0000
1000
0001
0010
0000
,  // measure 63
0001
0100
0100
0000
0010
1000
1000
0000
,  // measure 64
0101
0000
1000
0100
1000
0001
0100
0000
,  // measure 65
0001
0100
0001
1000
0100
0000
1100
0000
,  // measure 66
0011
0000
1000
0001
0100
0000
0101
0000
,  // measure 67
1010
0000
0001
1000
0010
0100
0001
0000
,  // measure 68
1000
0100
1000
0000
0100
0001
0100
0000
,  // measure 69
0001
0010
0001
0000
0010
1000
0010
0000
,  // measure 70
0000
1000
0100
0010
0000
0001
1000
0000
;

//---------------dance-double - ----------------
#NOTEDATA:;
#CHARTNAME:;
#STEPSTYPE:dance-double;
#DESCRIPTION:;
#CHARTSTYLE:;
#DIFFICULTY:Challenge;
#METER:7;
#RADARVALUES:0.488713,0.487319,0.153064,0.183677,0.045919,403.000000,20.000000,24.000000,0.000000,0.000000,0.000000,0.000000,0.000000,0.488713,0.487319,0.153064,0.183677,0.045919,403.000000,20.000000,24.000000,0.000000,0.000000,0.000000,0.000000,0.000000;
#CREDIT:Ben Speirs;
#NOTES:
00000000
00000000
00000000
00000000
,
00000000
00000000
00000000
00000000
,
00000000
00000000
00000000
00000000
,
00000000
00000000
00000000
00000000
,
10000000
00000000
00000000
00100000
10000000
00010000
00000000
00100000
,
00100000
00000000
00010000
00000000
00100000
00001000
00010000
00000000
,
00000100
00000000
00000000
00001000
00000001
00000100
00000000
00000010
,
00000020
00000000
00000030
00000000
,
00000100
00000000
00000101
00000000
00000010
00001000
00000100
00000000
,
00001000
00000000
00001100
00000000
00000010
00000001
00000100
00000000
,
00000001
00000000
00001000
00000000
00000100
00010000
00000100
00010000
,
00001000
00000000
00100000
00001000
00010000
00001000
00100000
00000000
,
00010000
01000000
00010000
01000000
00100000
10000000
01000000
00000000
,
10000000
01000000
10000000
01000000
00100000
00000000
00010000
10000000
,
00000000
10000000
00100000
00000000
01000000
00000000
00010000
00100000
,
00000000
00100000
00001000
00000000
00101000
00000000
00011000
00000000
,
00010100
00000000
00001000
00000100
00001000
00000100
00000010
00000001
,
00000100
00000010
00001000
00000010
00001000
00000010
00000100
00000000
,
00000001
00001000
00000100
00000000
00001000
00000100
00010000
00000000
,
00001000
00010000
00001000
00100000
00010000
10000000
00100000
00000000
,
01000000
01000000
00100000
10000000
01000000
00000000
00100000
00000000
,
00010000
00010000
00100000
00001000
00010000
00000000
00000100
00000100
,
00010000
00010000
00001000
00010000
00000100
00000100
00000010
00000010
,
00000001
00000000
00000100
00000000
00000010
00000000
00000000
00000000
00000100
00000000
00000001
00000000
00001000
00000000
00000000
00001000
,
00000000
00000000
00000100
00000000
00010000
00000000
00000000
00010000
00000000
00000000
00001000
00000000
00100000
00000000
00000000
00100000
,
00000000
00010000
10000000
00000000
00100000
10000000
00010000
00000000
,
10000000
01000000
10000000
01000000
00100000
00010000
01000000
00000000
,
00010000
00000000
01000000
00000000
00010000
00000000
01000000
00000000
00100000
00000000
10000000
00000000
00010000
00000000
00000000
00010000
,
00000000
00000000
00100000
00000000
00001000
00000000
00000000
00001000
00000000
00000000
00010000
00000000
00000100
00000000
00000000
00000100
,
00000000
00001000
00000001
00000000
00000100
00000001
00001000
00000000
,
00000001
00000010
00000001
00000010
00000100
00001000
00000010
00000000
,
00001000
00000000
00000010
00000000
00001000
00000000
00000010
00000000
00000100
00000000
00000000
00000000
00000001
00000000
00000000
00000100
,
00000000
00000000
00000010
00000000
00001000
00000000
00000000
00000100
00000000
00000000
00000010
00000000
00000001
00000000
00000000
00000100
,
00000000
00000010
00001000
00000000
00000100
00010000
00001000
00000000
,
00010000
00001000
00100000
00001000
00100000
00010000
01000000
00000000
,
00010000
00000000
01000000
00000000
00100000
00000000
10000000
00000000
00010000
00000000
00000000
00000000
10000000
00000000
00000000
01000000
,
00000000
00000000
00100000
00000000
00010000
00000000
00000000
01000000
00000000
00000000
00100000
00000000
10000000
00000000
00000000
00010000
,
00000000
00100000
00010000
00000000
10000000
01000000
00100000
00000000
,
00010000
00100000
00001000
00010000
00000100
00001000
00000001
00000000
,
00000000
00000000
00000000
00000000
00000000
00000000
00001000
00001000
,
00000100
00010000
00010000
00000000
00001000
00010000
00000100
00000000
,
00010100
00000000
00011000
00000000
00101000
00000000
00100000
00100000
,
00001000
00010000
00010000
00000000
00001000
00100000
00010000
00000000
,
00110000
00000000
00101000
00000000
00010100
00000000
00001000
00001000
,
00000100
00010000
00010000
00000000
00001000
00010000
00000100
00000000
,
00010100
00000000
00011000
00000000
00101000
00000000
00100000
00100000
,
00001000
00010000
00010000
00000000
00001000
00100000
00020000
00000000
,
10030000
01000000
00100000
00010000
01000000
00000000
00010000
10000000
,
00100000
01000000
00020000
00000000
01030000
00100000
20000000
00000000
,
30020000
00000000
00130000
00001000
00010000
00000000
00000100
00010000
,
00001000
00100000
00002000
00000000
00013000
00000100
00002000
00000000
,
00003020
00000000
00000130
00000010
00001000
00000000
00000001
00000100
,
00000010
00001000
00000002
00000000
00000013
00000001
00002000
00000000
,
00003002
00000000
00000103
00000010
00002000
00000000
00003100
00010000
,
00000100
00010000
00001000
00100000
00010000
01000000
00200000
00000000
,
10300000
00100000
01000000
00010000
10000000
00000000
00100000
00100000
,
01000000
00010000
00010000
00100000
00001000
00010000
00010000
00001000
,
00020000
00000000
00030100
00000010
00000002
00000000
00000103
00000100
,
00000010
00001000
00001000
00000100
00010000
00001000
00001000
00010000
,
00000200
00000000
00001300
00000100
00010000
00001000
00100000
00100000
,
00010000
00100000
00110000
00000000
00101000
00001000
00010000
00000000
,
00010100
00000000
00001001
00000001
00000100
00000000
00000010
00001000
,
00000100
00000010
00000002
00000000
00000103
00000010
00002000
00000000
,
00003100
00010000
00001000
00100000
00010000
01000000
00100000
00000000
,
01010000
00000000
00100000
10000000
01000000
00000000
00100000
00000000
,
11000000
00000000
00100000
10000000
00010000
00000000
02000000
00000000
,
03000000
00100000
00100000
01000000
00010000
00100000
00002000
00000000
,
00003000
00010000
00010000
00001000
00010000
00000100
00000020
00000000
,
00000031
00000100
00000020
00000000
00001030
00000100
00020000
00000000
,
00031000
00010000
00000100
00000010
00000001
00000100
00000020
00000000
,
00000030
00001000
00000100
00010000
00001000
00100000
00010000
00000000
;

//---------------dance-single - ----------------
#NOTEDATA:;
#CHARTNAME:;
#STEPSTYPE:dance-single;
#DESCRIPTION:;
#CHARTSTYLE:;
#DIFFICULTY:Medium;
#METER:5;
#RADARVALUES:0.318155,0.379026,0.122451,0.099492,0.000000,262.000000,16.000000,13.000000,0.000000,0.000000,0.000000,0.000000,0.000000,0.318155,0.379026,0.122451,0.099492,0.000000,262.000000,16.000000,13.000000,0.000000,0.000000,0.000000,0.000000,0.000000;
#CREDIT:Ben Speirs;
#NOTES:
0000
0000
0000
0000
,
0000
0000
0000
0000
,
1000
0100
1000
0100
,
0010
0010
0001
0000
,
0001
0100
0001
0100
,
0010
0010
1000
0000
,
1000
0001
1000
0001
,
2002
0000
3003
0000
,
1000
0001
0100
0100
,
0010
0000
0000
0000
1000
0010
1000
0000
,
0001
1000
0100
0100
,
0010
0000
0000
0000
0001
0010
0001
0000
,
1000
0000
0000
0000
0001
0100
0001
0000
,
1000
0000
0000
0000
1000
0100
1000
0000
,
0010
0010
0100
0001
,
1000
1000
0001
0000
,
1000
1100
0001
1000
,
0001
0000
0101
0000
1000
0001
1000
0000
,
0000
1001
0010
1001
,
0100
1000
0010
0100
,
0001
0000
0100
0100
0010
0000
1000
0000
,
0001
0000
0010
0010
0001
0000
1000
0100
,
1000
0100
0010
0000
0001
0100
0001
0000
,
1000
0100
1000
0000
0000
0000
0002
0000
,
0103
0020
1030
0002
,
0013
0000
0001
0000
1000
0100
0020
0000
,
0030
0000
0001
1000
0001
0000
0200
0000
,
0300
0101
1000
0010
,
0010
1000
0100
0000
0100
0010
0001
0000
,
0000
0000
1000
0001
1000
0000
0020
0000
,
0030
0100
0100
0000
,
0010
0100
0100
0001
,
0010
0001
0001
1000
,
0100
1000
1000
0002
,
0003
0000
1000
0100
1000
0000
0001
0000
,
0001
0100
0001
0000
0000
0000
1001
0000
,
1001
0010
0010
1000
,
0001
0000
0100
0000
0100
0010
0200
0000
,
0300
0000
0001
0100
0010
1000
0001
0000
,
0000
0000
0000
1000
,
0000
0100
0000
0100
0000
1000
0001
0000
,
0000
0000
0000
0001
,
0000
0100
0000
0100
0000
0001
1000
0000
,
0000
0000
0000
1000
,
0000
0010
0000
0010
0000
1000
0001
0000
,
0000
0000
0000
0001
,
0000
0010
0000
0010
0000
0001
1000
0000
,
0000
0000
0001
0010
0100
1000
0001
0000
,
0100
1000
0100
0001
,
0100
0000
0010
0010
0000
0000
1000
0000
,
0010
0001
0010
1000
,
0010
0000
0100
0100
0000
0000
0001
0000
,
0100
0010
1000
0001
,
0100
0000
0100
0100
0000
0000
0001
0000
,
1000
0100
0010
0001
,
0000
0000
1000
0001
1000
0000
0020
0000
,
0130
0000
0100
0000
,
0100
0001
0010
0100
1000
0000
0000
0000
,
0001
0000
1000
0000
,
0001
0010
0100
1000
0010
0000
0000
0000
,
1000
0000
0001
0000
,
1000
0100
0010
0001
0100
0000
0000
0000
,
1001
1010
1001
0011
,
0000
0000
0001
1000
0001
0000
1000
0000
,
1100
0000
0001
1000
,
0010
0000
0100
0100
0100
0000
0020
0000
,
0030
1000
0001
0020
,
0030
0000
0001
1000
0001
0000
1000
0000
,
1100
0001
0101
1000
,
0000
0000
0001
0010
0100
1000
0001
0000
,
0000
0100
0100
1001
;

//---------------dance-single - ----------------
#NOTEDATA:;
#CHARTNAME:;
#STEPSTYPE:dance-single;
#DESCRIPTION:;
#CHARTSTYLE:;
#DIFFICULTY:Easy;
#METER:3;
#RADARVALUES:0.174931,0.216586,0.030613,0.030613,0.000000,152.000000,4.000000,4.000000,0.000000,0.000000,0.000000,0.000000,0.000000,0.174931,0.216586,0.030613,0.030613,0.000000,152.000000,4.000000,4.000000,0.000000,0.000000,0.000000,0.000000,0.000000;
#CREDIT:Ben Speirs;
#NOTES:
0000
0000
0000
0000
,
0000
0000
0000
0000
,
1000
0000
0001
0000
,
0100
0000
0000
0000
,
0001
0000
1000
0000
,
0100
0000
0000
0000
,
1000
1000
0001
0001
,
1000
0000
0000
0000
,
0001
0000
0100
0100
,
0010
0000
1000
0001
,
1000
0000
0100
0100
,
0010
0000
0001
0000
,
1000
0000
0010
0010
,
0100
0000
0001
0000
,
1000
0100
1000
0000
,
0001
0100
0001
0000
,
1001
0000
1000
0000
,
0010
0000
0100
0100
,
0001
0000
1000
0000
,
0001
0100
0010
0000
,
0000
1000
1000
0100
,
0000
1000
0000
0001
,
0001
1000
0000
1000
,
1000
0001
0000
1000
,
0000
0010
0000
0100
,
0000
0001
0000
2000
,
0000
3000
0000
1000
,
0001
1000
0000
0001
,
0000
0010
0000
0100
,
0000
1000
0000
0002
,
0000
0003
0000
0001
,
1000
0001
0000
0100
,
0100
0000
0000
0001
,
0001
0000
0000
2000
,
0000
3000
0000
1000
,
0001
1000
0000
0100
,
0100
0000
0000
0010
,
0010
0000
0000
0002
,
0000
0003
0000
1001
,
0000
0000
0000
0001
,
0000
0001
0000
0100
,
0000
0000
0000
0010
,
0000
0010
0000
1000
,
0000
0000
0000
1000
,
0000
1000
0000
0100
,
0000
0000
0000
0100
,
0000
0100
0000
1001
,
0000
0000
0000
0001
,
0010
0001
0010
0001
,
0000
0000
0000
1000
,
0010
1000
0010
1000
,
0000
0000
0000
0001
,
0100
0001
0100
0001
,
0000
0000
0000
1000
,
0100
1000
0100
1000
,
0000
0001
0000
0100
,
0100
0100
0000
0010
,
0000
0010
0000
1000
,
1000
1000
0000
0001
,
0000
0000
0000
1000
,
0100
1000
0100
0010
,
0000
0000
0000
0001
,
0100
0001
0100
0010
,
0000
1000
0000
0001
,
1001
0000
0000
1000
,
0000
0001
0000
0100
,
0100
0000
0000
0100
,
0100
0000
0000
0001
,
0000
1000
0000
0010
,
0000
1000
0000
0001
,
0000
0100
0100
0100
;

//---------------dance-single - ----------------
#NOTEDATA:;
#CHARTNAME:;
#STEPSTYPE:dance-single;
#DESCRIPTION:;
#CHARTSTYLE:;
#DIFFICULTY:Beginner;
#METER:2;
#RADARVALUES:0.121358,0.189513,0.030613,0.000000,0.000000,107.000000,4.000000,0.000000,0.000000,0.000000,0.000000,0.000000,0.000000,0.121358,0.189513,0.030613,0.000000,0.000000,107.000000,4.000000,0.000000,0.000000,0.000000,0.000000,0.000000,0.000000;
#CREDIT:;
#NOTES:
0000
0000
0000
0000
,
0000
0000
0000
0000
,
0001
0000
0001
0000
,
0001
0000
0000
0000
,
1000
0000
1000
0000
,
1000
0000
0000
0000
,
0010
0000
0010
0000
,
0010
0000
0000
0000
,
1001
0000
0000
0000
,
1000
0000
0100
0100
,
0000
0000
0000
0000
,
0010
0000
0001
0001
,
0000
0000
0000
0000
,
0001
0000
0000
0000
,
1000
1000
0000
0000
,
1000
1000
0000
0000
,
0010
0000
0010
0000
,
0010
0000
0000
0000
,
1000
0000
1000
0000
,
1000
0000
0000
0000
,
0000
0000
0000
0001
,
0000
0000
0000
0100
,
0100
0100
0000
0100
,
0100
0100
0000
0001
,
0000
0001
0000
0001
,
0000
0001
0000
0001
,
0000
0000
0000
0001
,
0000
0000
0000
1000
,
0000
1000
0000
1000
,
0000
1000
0000
1000
,
0000
0000
0000
1000
,
0000
0000
0000
0010
,
0000
0010
0000
0010
,
0000
0010
0000
0010
,
0000
0000
0000
0010
,
0000
0000
0000
0100
,
0000
0100
0000
0100
,
0000
0100
0000
0100
,
0000
0000
0000
0100
,
0000
0000
0000
0001
,
0001
0000
0000
0001
,
0000
0000
0000
1000
,
1000
0000
0000
1000
,
0000
0000
0000
0001
,
0001
0000
0000
0001
,
0000
0000
0000
1000
,
1000
0000
0000
1000
,
0000
0000
0000
1001
,
0000
0001
0000
1000
,
0000
0000
0000
0010
,
0000
0010
0000
0010
,
0000
0000
0000
1000
,
0000
1000
0000
0001
,
0000
0000
0000
0100
,
0000
0100
0000
0100
,
0000
0000
0000
0001
,
0001
0000
0001
0001
,
0000
0000
0000
1000
,
1000
0000
1000
1000
,
0000
0000
0000
0010
,
0010
0000
0010
0010
,
0000
0000
0000
1000
,
0000
1000
0000
1000
,
0000
0000
0000
0000
,
1001
0000
1001
0000
,
0000
0000
0000
0001
,
0000
0000
0000
1000
,
0000
0000
0000
0010
,
0000
0010
0000
0010
,
0000
0010
0000
0100
,
0000
0000
0000
0001
;
