#TITLE:Adventure Of A Lifetime;
#SUBTITLE:;
#ARTIST:Coldplay;
#TITLETRANSLIT:;
#SUBTITLETRANSLIT:;
#ARTISTTRANSLIT:;
#GENRE:Monkey Punks;
#CREDIT:;
#BANNER:Adventure Of A Lifetime.png;
#BACKGROUND:Adventure Of A Lifetime-bg.png;
#LYRICSPATH:;
#CDTITLE:;
#MUSIC:Adventure Of A Lifetime.ogg;
#OFFSET:-0.260000;
#SAMPLESTART:8.514048;
#SAMPLELENGTH:13.714000;
#SELECTABLE:YES;
#BPMS:0.000000=112.000000
;
#STOPS:
;
#BGCHANGES:4.000=Adventure Of A Lifetime.avi=1.000=0=0=1=====,
99999=-nosongbg-=1.000=0=0=0 // don't automatically add -songbackground-
;
#KEYSOUNDS:;
#ATTACKS:;

//---------------dance-single - ----------------
#NOTES:
     dance-single:
     :
     Hard:
     8:
     0.450005,0.480157,0.186138,0.178979,0.232673,389.000000,26.000000,25.000000,0.000000,0.000000,0.000000,0.450005,0.480157,0.186138,0.178979,0.232673,389.000000,26.000000,25.000000,0.000000,0.000000,0.000000:
0000
0000
0000
0000
,
0000
0000
0000
0000
,
0000
0000
0000
0000
,
0000
0000
1001
1001
,
0001
0000
0100
0000
0010
0000
1000
0000
0001
0000
0000
0001
1000
0000
0010
0000
,
0100
0000
0010
0000
1000
0000
0100
0000
0010
0000
0000
0010
0001
0000
1000
0000
,
0010
0000
1000
0000
0001
0000
0010
0000
0100
0000
0000
0100
1000
0000
0010
0000
,
0100
0000
0001
0000
1000
0000
0010
0000
0100
0000
0000
0100
0000
0000
0001
0100
,
0001
0000
1000
0000
0100
0000
0010
0000
0001
0000
0000
1000
0000
0000
0010
0100
,
0010
0000
1000
0000
0100
0000
0010
0000
0001
0000
0000
1000
0000
0000
0001
0100
,
0001
0000
1000
0000
0001
0000
0010
0000
0001
0000
0000
1000
0000
0000
0100
1000
,
0100
0010
0100
1000
1100
0000
0011
0000
,
1000
0000
0000
0001
0000
0000
1000
0000
0010
0000
0000
0000
0101
0000
0000
0000
,
1000
0000
0000
0001
0000
0000
1000
0000
0100
0000
0000
0000
1100
0000
0000
0000
,
0001
0000
1000
0000
0100
0000
0000
0000
1000
0000
0001
0000
0100
0000
0010
1000
,
0010
0100
0001
1000
0100
0100
0100
0000
,
0012
0000
0000
0000
1000
0000
0000
0000
0103
0000
0000
0000
0001
1000
0000
0000
,
2100
0000
0001
0000
3010
0000
1000
0001
,
0100
0000
0001
1000
0010
0000
1000
0001
,
1000
0000
0010
0000
0100
0000
0000
0000
0001
1000
0000
0001
1000
0000
0010
0000
,
0100
0000
0100
0001
0000
0001
1000
0000
0100
0000
0000
0000
1100
0000
0000
0000
,
0001
0000
0001
1000
0000
1000
0010
0000
0100
0000
0000
0000
0110
0000
0000
0000
,
0002
0000
0000
0000
0100
0000
0000
0000
1003
0000
0000
0000
1001
0000
1000
0100
,
1000
0000
0001
0010
0000
0000
0001
0000
1000
0000
0010
0000
0200
0000
0000
0000
,
0302
0000
0000
0000
1000
0000
0000
0000
0013
0000
0000
0000
1000
0100
0000
1000
,
0002
0000
0100
0000
1003
0010
0100
0001
,
2000
0000
0000
0000
0100
0000
0000
0000
3010
0000
0000
0000
1000
0100
0000
0000
,
1001
0000
0100
1000
0010
0100
0001
0000
,
2100
0000
3010
0100
0001
1000
0010
0000
,
1000
0000
0001
0000
0100
0001
0000
0000
1000
0000
0100
0000
0010
0000
0001
0000
,
1000
0000
0000
0000
0000
0000
0010
0000
0010
0000
0100
0010
0000
0000
1000
0000
,
0001
0000
0010
0001
1000
0100
0010
0000
,
2100
0001
0010
3100
,
0002
0000
1000
0000
0013
0001
1000
0010
,
0200
0000
0000
0000
,
0000
0300
0110
1001
,
1000
0000
0010
0000
0100
0000
0001
0000
1000
0000
0000
1000
0001
0000
0100
0000
,
0010
0000
0100
0000
0001
0000
0010
0000
0100
0000
0000
0100
1000
0000
0001
0000
,
0100
0000
0001
0000
1000
0000
0100
0000
0010
0000
0000
0010
0001
0000
0100
0000
,
0010
0000
1000
0000
0001
0000
0100
0000
0010
0000
0000
0010
0000
0000
1000
0010
,
1000
0000
0001
0000
0010
0000
0100
0000
1000
0000
0000
0001
0000
0000
0100
0010
,
0100
0000
0001
0000
0010
0000
0100
0000
1000
0000
0000
0001
0000
0000
1000
0010
,
1000
0000
0001
0000
1000
0000
0100
0000
1000
0000
0000
0001
0000
0000
0010
0001
,
0010
0100
0010
0001
0011
0000
1100
0000
,
0001
0100
1000
0010
0001
0100
1000
0010
,
0002
0000
0000
0000
1003
0000
0000
0000
0001
1000
0000
0000
1001
0000
0000
0000
,
1000
0100
0001
0010
1000
0100
0001
0010
,
2000
0000
0000
0000
3001
0000
0000
0000
1000
0001
0000
0000
1001
0000
0000
0000
,
0020
0000
0130
0001
1000
0000
0200
0000
,
0320
0000
0031
1000
0010
0000
0101
0000
,
2100
0000
3001
1000
0010
0000
1000
0001
,
0010
0100
1000
0010
0100
0001
1000
0000
,
0010
0000
1000
0010
0000
0100
0010
0000
0001
0010
0000
0100
0010
0000
1000
0000
,
0100
0000
0010
0100
0000
0001
0100
0000
0010
0100
0000
1000
0100
0000
0010
0000
,
0001
0000
0000
1000
0000
0000
0001
0000
0000
1000
0100
0000
0010
0000
0001
0000
,
1000
0000
0000
0001
0000
0000
1000
0000
1010
0000
0000
0000
0101
0000
0000
0000
,
0100
0000
0001
0100
0000
0010
0100
0000
1000
0100
0000
0010
0100
0000
0001
0000
,
0010
0000
0100
0010
0000
1000
0010
0000
0100
0010
0000
0001
0010
0000
0100
0000
,
1000
0000
0000
0001
0000
0000
1000
0000
0000
0001
0010
0000
0100
0000
1000
0000
,
0001
0000
0000
1000
0000
0000
0001
0000
0101
0000
0000
0000
1010
0000
0000
0000
,
0000
0002
2003
3000
,
0000
0200
0320
0030
,
0000
0000
0000
0000
0002
0000
0000
0000
1003
0100
2000
0000
0000
0000
3000
0000
,
0000
0000
0000
0000
0020
0000
0000
0000
0130
0001
0200
0000
0000
0000
0300
0000
;

//---------------dance-single - ----------------
#NOTES:
     dance-single:
     :
     Challenge:
     11:
     0.734326,0.754532,0.114547,0.164661,0.966488,679.000000,16.000000,23.000000,0.000000,0.000000,0.000000,0.734326,0.754532,0.114547,0.164661,0.966488,679.000000,16.000000,23.000000,0.000000,0.000000,0.000000:
// measure 0
0000
0000
0000
0000
,  // measure 1
0000
0000
0000
0000
,  // measure 2
0000
0000
0000
0000
,  // measure 3
0000
0000
0000
0000
0000
0000
0000
0000
0110
0000
0000
0000
1001
0000
1000
0100
,  // measure 4
1000
0001
0100
0001
1000
0100
0010
0001
2000
0000
0000
3001
0000
0000
0001
0010
,  // measure 5
0001
1000
0010
1000
0001
0010
0100
1000
0002
0000
0000
1003
0000
0000
0001
0100
,  // measure 6
0001
0100
0010
1000
0010
1000
0100
0010
0002
0000
0000
1003
0000
0000
1000
0010
,  // measure 7
1000
0010
0100
0001
0100
0001
0010
0100
2000
0000
0000
3001
0000
0000
1000
0001
,  // measure 8
1000
0100
0010
0001
1000
0100
0010
0001
0100
0000
0100
0010
1000
0000
0001
1000
,  // measure 9
0001
0010
0100
1000
0001
0010
0100
1000
0010
0000
0010
0100
0001
0000
1000
0010
,  // measure 10
0100
0001
0100
0001
1000
0100
1000
0100
0010
0000
0010
0001
1000
0000
0001
0100
,  // measure 11
0010
1000
0010
1000
0001
0010
0001
0010
0100
0000
0000
0000
1001
0000
0000
0000
,  // measure 12
0100
0000
0001
1000
0000
0100
0010
0000
0001
0000
1000
0100
1000
0000
0100
1000
,  // measure 13
0010
0000
0100
0001
0000
1000
0001
0000
0010
0000
0001
0010
0100
1000
0010
0100
,  // measure 14
0001
0000
1000
0100
0000
1000
0001
0000
0100
0000
0100
0000
0010
0000
1000
0010
,  // measure 15
0100
0000
0001
1000
0000
0001
0010
0000
0001
0000
1000
0000
2100
0000
0000
0000
,  // measure 16
3001
0000
0100
0001
0000
1000
0010
0000
1000
0000
0001
0000
1000
0100
0010
0001
,  // measure 17
1000
0000
0010
0100
0000
0010
1000
0000
0001
0000
0010
0001
0010
0001
1000
0010
,  // measure 18
0100
0000
0001
1000
0000
0010
0100
0000
0001
0000
1000
0010
0100
0001
1000
0100
,  // measure 19
0010
0001
1000
0000
0010
0000
0100
0000
0001
1000
0000
1000
0001
0000
0100
0000
,  // measure 20
0010
1000
0010
0100
0001
0100
0010
0000
1000
0000
0100
0010
0001
0000
1000
0000
,  // measure 21
0100
1000
0100
0010
0001
0010
0100
0000
1000
0000
0001
0100
0010
1000
0100
0010
,  // measure 22
0002
0000
0000
0000
1003
0000
0010
0100
0010
0000
1000
0000
0001
0000
1000
0100
,  // measure 23
0010
0000
0001
1000
0000
0001
1000
0000
0010
0000
0100
0000
0101
0000
0000
0000
,  // measure 24
0100
0001
0100
0010
1000
0010
0100
0000
0001
0000
0010
0100
1000
0000
0001
0000
,  // measure 25
0010
0001
0010
0100
1000
0100
0010
0000
0001
0000
1000
0010
0100
0001
0010
0100
,  // measure 26
2000
0000
0000
0000
3001
0000
0100
0010
0100
0000
0001
0000
1000
0000
0001
0010
,  // measure 27
0100
0000
1000
0001
0000
1000
0001
0000
0100
0000
0010
0000
1010
0000
0000
0000
,  // measure 28
0001
0000
1000
0000
0100
0010
0000
0010
0001
0000
1000
0000
0010
0000
0100
0001
,  // measure 29
0100
0000
0010
0000
1000
0100
0000
0100
1000
0000
0010
0000
0100
0000
0001
1000
,  // measure 30
0002
0000
1003
0100
0010
0001
1000
0010
,  // measure 31
0100
0000
0010
1000
0010
0000
1000
0100
1000
0000
0001
1000
0001
0000
0100
0000
,  // measure 32
0020
0001
1000
0001
,  // measure 33
1000
0001
1000
0001
,  // measure 34
0200
0000
0000
0000
,  // measure 35
0000
0000
0000
0000
0330
0000
0000
0000
0110
0000
0000
0000
1001
0000
0001
0010
,  // measure 36
0001
1000
0010
1000
0001
0010
0100
1000
0002
0000
0000
1003
0000
0000
1000
0100
,  // measure 37
1000
0001
0100
0001
1000
0100
0010
0001
2000
0000
0000
3001
0000
0000
1000
0010
,  // measure 38
1000
0010
0100
0001
0100
0001
0010
0100
2000
0000
0000
3001
0000
0000
0001
0100
,  // measure 39
0001
0100
0010
1000
0010
1000
0100
0010
0002
0000
0000
1003
0000
0000
0001
1000
,  // measure 40
0001
0010
0100
1000
0001
0010
0100
1000
0010
0000
0010
0100
0001
0000
1000
0001
,  // measure 41
1000
0100
0010
0001
1000
0100
0010
0001
0100
0000
0100
0010
1000
0000
0001
0100
,  // measure 42
0010
1000
0010
1000
0001
0010
0001
0010
0100
0000
0100
1000
0001
0000
1000
0010
,  // measure 43
0100
0001
0100
0001
1000
0100
1000
0100
0010
0000
0000
0000
1001
0000
0000
0000
,  // measure 44
0001
0100
0010
1000
0100
0010
0001
1000
0010
0100
0001
0010
0100
0010
0001
1000
,  // measure 45
0010
0100
0001
0010
0100
1000
0001
0100
0010
0000
1000
0000
0001
0000
0010
0000
,  // measure 46
0100
1000
0010
1000
0100
0010
0001
1000
0010
0100
0001
0010
0100
0010
0001
1000
,  // measure 47
0010
0100
0001
0010
0100
1000
0010
0100
0001
0000
1000
0000
1020
0000
0000
0000
,  // measure 48
0130
0000
0001
0000
1000
0100
0010
0001
1000
0010
0100
0000
0102
0000
0000
0000
,  // measure 49
1003
0000
0001
0000
1000
0100
0010
0001
1000
0010
0100
0000
0210
0000
0000
0000
,  // measure 50
0301
0000
1000
0000
0001
0010
0100
1000
0010
0100
0001
1000
0010
0000
0100
0000
,  // measure 51
0001
1000
0100
0010
0100
1000
0010
0100
0001
0010
0100
1000
0010
0000
1000
0000
,  // measure 52
0001
0010
0010
1000
0010
0010
0001
0010
0010
1000
0010
0010
0001
0010
0100
1000
,  // measure 53
0001
0100
0100
1000
0100
0100
0001
0100
0100
1000
0100
0100
0001
1000
0100
0010
,  // measure 54
0001
0100
0001
1000
0100
1000
0001
0100
0001
1000
0100
0010
0001
0100
0010
1000
,  // measure 55
0001
0100
0001
1000
0100
1000
0001
0100
0001
1000
0100
0010
0001
0100
0010
1000
,  // measure 56
0001
0100
0100
1000
0100
0100
0001
0100
0100
1000
0100
0100
0001
0100
0010
1000
,  // measure 57
0001
0010
0010
1000
0010
0010
0001
0010
0010
1000
0010
0010
0001
1000
0010
0100
,  // measure 58
0001
0100
0001
1000
0100
1000
0001
0100
0001
1000
0100
0010
0001
0100
0010
1000
,  // measure 59
0001
0100
0001
1000
0100
1000
0001
0100
0001
1000
0100
0010
0001
0100
0010
1000
,  // measure 60
0001
1010
0101
2000
,  // measure 61
3001
1100
0011
2000
,  // measure 62
3010
0100
0001
0000
2000
0000
0000
0000
3001
0010
0100
0000
2000
0000
0000
0000
,  // measure 63
3010
0100
0001
0000
2000
0000
0000
0000
3100
0010
0002
0000
0000
0000
0003
0000
;

//---------------dance-double - ----------------
#NOTES:
     dance-double:
     :
     Challenge:
     11:
     0.728190,0.751579,0.171820,0.157502,0.980806,666.000000,24.000000,22.000000,0.000000,0.000000,0.000000,0.728190,0.751579,0.171820,0.157502,0.980806,666.000000,24.000000,22.000000,0.000000,0.000000,0.000000:
00000000
00000000
00000000
00000000
,
00000000
00000000
00000000
00000000
,
00000000
00000000
00000000
00000000
,
00000000
00000000
00000000
00000000
00000000
00000000
00000000
00000000
00011000
00000000
00000000
00000000
00011000
00000000
00010000
00001000
,
00010000
00000100
00001000
00000100
00010000
00001000
00010000
01000000
20000000
00000000
00000000
30010000
00000000
00000000
10000000
00100000
,
10000000
00100000
01000000
00010000
01000000
00010000
10000000
01000000
00020000
00000000
00000000
00031000
00000000
00000000
00001000
00010000
,
00001000
00100000
00010000
00100000
00001000
00010000
00001000
00000010
00000002
00000000
00000000
00001003
00000000
00000000
00000001
00000100
,
00000001
00000100
00000010
00001000
00000010
00001000
00000001
00000010
00002000
00000000
00000000
00013000
00000000
00000000
00001000
00010000
,
00000100
00001000
00000100
00001000
00000001
00000100
00000001
00000100
00000010
00000000
00000010
00001000
00000001
00000000
00001000
00000100
,
00010000
00001000
00010000
00001000
01000000
00010000
01000000
00010000
10000000
00000000
01000000
10000000
00010000
00000000
10000000
01000000
,
00010000
00001000
00010000
00001000
00100000
00010000
00100000
00010000
20000000
00000000
00000000
30010000
00000000
00000000
00100000
00001000
,
00010000
00000100
00010000
00000100
00001000
00000010
00001000
00000010
00000100
00000000
00000000
00000000
00001001
00000000
00000000
00000000
,
00001000
00000100
00001000
00000001
00000100
00000001
00001000
00000000
00000001
00000000
00000100
00000010
00001000
00000000
00000001
00000000
,
00001000
00000010
00001000
00000001
00000010
00000001
00001000
00000000
00000001
00000000
00001000
00000100
00000010
00000001
00000100
00000010
,
00002000
00000000
00000000
00000000
00010000
00000000
00000000
00000000
00003100
00000000
00000000
00000000
00001100
00000000
00001000
00000100
,
00010000
00000000
00001000
00010000
00000000
00001000
00000100
00000000
00002000
00000000
00023000
00000000
02030000
00000000
00000000
00000000
,
13000000
01000000
10000000
00010000
01000000
00010000
10000000
00000000
01000000
00000000
00100000
00010000
10000000
00000000
00010000
00000000
,
10000000
00100000
10000000
00010000
00100000
00010000
10000000
00000000
00100000
00000000
01000000
00010000
10000000
01000000
00100000
00010000
,
02000000
00000000
00000000
00000000
10000000
00000000
00000000
00000000
03010000
00000000
00010000
00100000
01000000
10000000
00100000
01000000
,
00010000
00000000
10000000
00000000
10010000
00000000
00000000
00000000
10000000
01000000
00000000
00100000
00010000
00000000
10000000
00000000
,
00010000
00100000
00010000
10000000
00100000
10000000
00010000
00000000
10000000
00000000
00100000
01000000
00010000
00000000
10000000
00000000
,
00010000
01000000
00010000
10000000
01000000
10000000
00010000
00000000
10000000
00000000
00010000
00100000
01000000
10000000
00100000
01000000
,
00020000
00000000
00000000
00000000
00001000
00000000
00000000
00000000
00130000
00000000
00000000
00000000
00110000
00000000
00010000
00100000
,
00001000
00000000
00010000
00001000
00000000
00010000
00100000
00000000
00020000
00000000
00032000
00000000
00003020
00000000
00000000
00000000
,
00000031
00000010
00000001
00001000
00000010
00001000
00000001
00000000
00000010
00000000
00000100
00001000
00000001
00000000
00001000
00000000
,
00000001
00000100
00000001
00001000
00000100
00001000
00000001
00000000
00000100
00000000
00000010
00001000
00000001
00000010
00000100
00001000
,
00000020
00000000
00000000
00000000
00000001
00000000
00000000
00000000
00001030
00000000
00001000
00000100
00000010
00000001
00000100
00000010
,
00001000
00000001
00001001
00000000
00000001
00000100
00001000
00010000
,
01000000
00000000
00000000
01000000
00000000
00000000
01000000
10000000
00100000
00000000
00000000
00000000
10100000
00000000
00100000
10000000
,
00010000
00000000
01000000
00000000
00100000
00000000
10000000
00000000
01000000
00000000
00100000
00000000
00010000
00000000
10000000
00100000
,
01000000
00000000
01010000
00000000
00000000
10000000
00000000
00010000
01000000
00000000
00000000
00000000
10010000
00000000
01000000
00100000
,
10000000
00010000
10000000
00100000
00010000
00001000
00000010
00000001
,
00002000
00000100
00010000
00000100
,
00010000
00000100
00010000
00000100
,
00020000
00000000
00000000
00000000
,
00000000
00000000
00000000
00000000
00033000
00000000
00000000
00000000
00011000
00000000
00000000
00000000
00011000
00000000
00001000
00010000
,
00001000
00100000
00010000
00100000
00001000
00010000
00001000
00000010
00000002
00000000
00000000
00001003
00000000
00000000
00000001
00000100
,
00000001
00000100
00000010
00001000
00000010
00001000
00000001
00000010
00002000
00000000
00000000
00013000
00000000
00000000
00010000
00001000
,
00010000
00000100
00001000
00000100
00010000
00001000
00010000
01000000
20000000
00000000
00000000
30010000
00000000
00000000
10000000
00100000
,
10000000
00100000
01000000
00010000
01000000
00010000
10000000
01000000
00020000
00000000
00000000
00031000
00000000
00000000
00010000
00001000
,
00100000
00010000
00100000
00010000
10000000
00100000
10000000
00100000
01000000
00000000
01000000
00010000
10000000
00000000
00010000
00100000
,
00001000
00010000
00001000
00010000
00000010
00001000
00000010
00001000
00000001
00000000
00000010
00000001
00001000
00000000
00000001
00000010
,
00001000
00010000
00001000
00010000
00000100
00001000
00000100
00001000
00000002
00000000
00000000
00001003
00000000
00000000
00000100
00010000
,
00001000
00100000
00001000
00100000
00010000
01000000
00010000
01000000
00100000
00000000
00000000
00000000
10010000
00000000
00000000
00000000
,
10000000
01000000
00100000
00010000
10000000
01000000
00100000
00010000
10000000
01000000
00100000
00010000
10000000
00100000
01000000
00010000
,
10000000
01000000
00100000
00010000
10000000
01000000
00100000
00010000
10000000
01000000
00100000
00010000
10000000
00100000
01000000
00010000
,
00100000
00001000
00100000
00001000
00010000
00000100
00010000
00000100
00001000
00000001
00001000
00000001
00000100
00000010
00000100
00000010
,
00001000
00000100
00000010
00000001
00001000
00000100
00000010
00000001
00001000
00000100
00000010
00000001
00001000
00000010
00000100
00000001
,
00001000
00000100
00001000
00000100
00001000
00000100
00001000
00000100
00001000
00000100
00001000
00000100
00010000
00000100
00010000
00000100
,
00010000
00001000
00010000
00001000
00010000
00001000
00010000
00001000
00010000
00001000
00010000
00001000
00100000
00001000
00100000
00001000
,
00100000
00010000
00100000
00010000
00100000
00010000
00100000
00010000
00100000
00010000
00100000
00010000
10000000
00010000
10000000
00010000
,
10000000
00100000
01000000
00010000
00100000
01000000
10000000
00010000
10000000
01000000
00100000
00010000
10000000
00100000
01000000
00010000
,
10000000
00100000
00100000
00010000
00100000
00100000
10000000
00100000
00100000
00010000
00100000
00100000
10000000
01000000
00100000
00010000
,
10000000
01000000
01000000
00010000
01000000
01000000
10000000
01000000
01000000
00010000
01000000
01000000
10000000
00100000
01000000
00010000
,
10000000
00000000
00000000
11000000
00000000
00000000
10000000
01000000
00100000
00010000
01000000
00100000
00010000
00001000
00100000
00000000
,
00001000
00000000
00000000
00011000
00000000
00000000
00001000
00010000
00000100
00001000
00000010
00000100
00000001
00001000
00000010
00001000
,
00000001
00000100
00000100
00001000
00000100
00000100
00000001
00000100
00000100
00001000
00000100
00000100
00000001
00000010
00000100
00001000
,
00000001
00000010
00000010
00001000
00000010
00000010
00000001
00000010
00000010
00001000
00000010
00000010
00000001
00000100
00000010
00001000
,
00000001
00000000
00000000
00000011
00000000
00000000
00000001
00000010
00000100
00001000
00000010
00000100
00001000
00010000
00000100
00000000
,
00010000
00000000
00000000
00011000
00000000
00000000
00010000
00001000
00100000
00010000
01000000
00100000
10000000
00010000
00100000
00010000
,
01000000
01010000
01010000
00001000
,
00010000
00011000
00011000
00000100
,
00001000
00001100
00001100
00000001
,
00000100
00000000
00000000
00000000
00000101
00000000
00000000
00000000
00000001
00000100
00001000
00000000
00000000
00000000
00000000
00000000
;

//---------------dance-single - ----------------
#NOTES:
     dance-single:
     :
     Medium:
     5:
     0.325231,0.409952,0.178979,0.164661,0.000000,270.000000,25.000000,23.000000,0.000000,0.000000,0.000000,0.325231,0.409952,0.178979,0.164661,0.000000,270.000000,25.000000,23.000000,0.000000,0.000000,0.000000:
0000
0000
0000
0000
,
0000
0000
0000
0000
,
0000
0000
0000
0000
,
0000
0000
1001
1001
,
0000
0001
1000
0010
0000
0000
1001
0000
,
0000
1000
0001
0010
0000
0000
1001
0000
,
0000
0001
1000
0100
0000
0000
1001
0000
,
0000
1000
0001
0100
0010
1000
0010
1000
,
0000
0001
1000
0010
0000
0000
0101
0000
,
0000
1000
0001
0010
0000
0000
1100
0000
,
0000
0001
1000
0010
0000
0000
0101
0000
,
0000
1000
0100
0010
0001
1000
0001
1000
,
0010
0000
0100
0000
0001
1000
0100
0000
,
0010
0000
0001
0000
1000
0010
0100
0000
,
0002
0003
1000
0001
,
0010
0100
0010
0001
1000
1000
1000
0000
,
0010
0100
0001
0000
,
1000
0000
0001
0000
0010
0000
0100
1000
,
0010
0000
0000
0000
0100
0000
0010
1000
,
0001
0100
0001
1000
,
0100
0010
0100
0010
0001
0000
0000
0000
,
0100
0010
0100
0010
1000
0000
0000
0000
,
0202
0303
1000
0001
,
1000
0100
0010
0000
0001
1000
0010
0000
,
0100
0100
0010
0000
,
1000
0010
0100
0000
0001
0010
0100
1000
,
0001
0000
0000
0000
0100
0000
0001
1000
,
0001
0000
1000
0001
,
0110
2002
3003
0010
,
0100
0000
0001
0000
1000
0100
0010
0000
,
0110
1001
0100
1000
,
0020
0000
0030
0000
1000
0100
0010
0000
,
0002
0000
0000
0003
,
2000
0000
0000
3000
,
0020
0000
0000
0000
,
0000
0030
0110
1001
,
0000
1000
0100
0010
0001
0000
1000
0000
,
0000
0001
0010
0100
1000
0000
0001
0000
,
0000
1000
0010
0100
0001
0000
1000
0000
,
0000
0001
0010
0100
1000
0001
1000
0001
,
0000
1000
0010
0100
0001
0000
1100
0000
,
0000
0001
0010
0100
1000
0000
0101
0000
,
0000
1000
0100
0010
0001
0000
1100
0000
,
0000
0001
0100
0010
1000
0001
1000
0001
,
0200
0010
0010
0310
,
0100
0000
0001
0000
1000
0100
0010
0000
,
0002
1000
1000
1003
,
0001
0000
1000
0000
0010
0100
0001
0000
,
0202
0000
0303
0000
0001
1000
0100
0000
,
2200
0000
3300
0000
0100
1000
0010
0000
,
2020
3030
0001
1000
,
0010
0100
0001
0000
1100
0000
0101
0000
,
1000
0100
0010
0100
1000
0100
0010
0100
,
1000
0100
0010
0100
1000
0100
0010
0100
,
1000
0001
0100
0001
,
1000
0001
0100
0001
,
1000
0010
0100
0010
1000
0010
0100
0010
,
1000
0010
0100
0010
1000
0010
0100
0010
,
1000
0000
0001
0000
0010
0000
0001
1000
,
0010
0100
0101
1100
,
0000
0020
0230
0300
,
0000
0002
2003
3000
,
0000
0000
0200
0000
0310
0010
0000
0000
,
0000
0000
0002
0000
1003
1000
0000
0000
;

//---------------dance-single - ----------------
#NOTES:
     dance-single:
     :
     Easy:
     3:
     0.185116,0.204573,0.071592,0.050114,0.000000,164.000000,10.000000,7.000000,0.000000,0.000000,0.000000,0.185116,0.204573,0.071592,0.050114,0.000000,164.000000,10.000000,7.000000,0.000000,0.000000,0.000000:
0000
0000
0000
0000
,
0000
0000
0000
0000
,
0000
0000
0000
0000
,
0000
0000
1001
1001
,
0100
0000
0010
1000
,
0100
0000
0010
0001
,
1000
0000
0010
0100
,
0001
0000
1000
0001
,
1000
0000
0010
0100
,
0001
0000
1000
0100
,
0010
0000
0001
1000
,
0010
0000
1001
1001
,
0100
0000
0010
0000
,
1000
0000
0100
0010
,
0001
0000
1000
0000
,
0010
0100
0010
0100
,
0001
0000
1000
0000
,
0100
0000
0010
0001
,
1000
0000
0001
0000
,
0100
0100
0010
0010
,
1000
0000
0001
1000
,
0010
0000
1000
0001
,
0010
0000
0001
0000
,
1000
0100
1000
0100
,
0010
0000
0001
0000
,
1000
0000
0010
1000
,
0100
0000
0010
0000
,
0001
0000
1000
0001
,
0100
0000
0010
0000
,
1000
0000
0100
0010
,
0001
0000
0100
0010
,
1000
0000
0001
1000
,
0010
0000
0010
0000
,
0010
0000
0010
0000
,
2002
0000
0000
0000
,
0000
3003
1001
1001
,
0100
0000
0001
1000
,
0010
0000
1000
0100
,
0010
0000
0001
1000
,
0010
0000
0100
0001
,
1000
0000
0100
0010
,
0001
0000
0100
0001
,
1000
0000
0010
1000
,
0100
0000
1000
0100
,
0020
0030
0001
0000
,
1000
0000
0010
0100
,
0002
0003
1000
0000
,
0001
0000
0010
0010
,
0200
0300
0000
1000
,
0020
0030
0000
0100
,
0002
0003
0000
1000
,
0001
0010
0100
0000
,
1000
1000
0100
0100
,
1000
1000
0100
0100
,
1000
0000
0001
0000
,
0100
0000
0010
0000
,
1000
1000
0001
0001
,
1000
1000
0001
0001
,
1000
0000
0010
0000
,
0100
0000
1001
1001
,
0100
0000
0000
0010
,
0010
0000
0000
1000
,
0100
0000
0000
0010
,
0001
0000
1001
0000
;

//---------------dance-single - ----------------
#NOTES:
     dance-single:
     :
     Beginner:
     2:
     0.115569,0.159113,0.021478,0.000000,0.000000,110.000000,3.000000,0.000000,0.000000,0.000000,0.000000,0.115569,0.159113,0.021478,0.000000,0.000000,110.000000,3.000000,0.000000,0.000000,0.000000,0.000000:
0000
0000
0000
0000
,
0000
0000
0000
0000
,
0000
0000
0000
0000
,
0000
0000
0100
0100
,
0100
0000
0000
0010
,
0010
0000
0000
1000
,
1000
0000
0000
0001
,
0001
0000
1000
0000
,
0100
0000
0000
0010
,
0010
0000
0000
0001
,
0001
0000
0000
1000
,
1000
0000
0001
0000
,
0100
0000
0000
0000
,
0010
0000
1000
0000
,
0001
0000
0000
0000
,
1000
0000
0100
0100
,
0100
0000
0000
0000
,
0010
0000
0001
0000
,
1000
0000
0000
0000
,
0010
0000
0000
0000
,
1001
0000
0000
0000
,
0100
0000
0100
0000
,
1000
0000
0000
0000
,
0001
0001
0001
0000
,
0100
0000
0000
0000
,
0010
0000
1000
0000
,
0001
0000
0000
0000
,
0010
0010
0000
0000
,
1001
0000
1000
0000
,
0100
0000
0000
0000
,
1001
0000
0001
0000
,
0100
0000
0000
0000
,
0010
0000
0000
0000
,
0010
0000
0000
0000
,
0100
0000
0000
0000
,
0000
0000
0001
0001
,
0001
0000
0000
0000
,
1000
0000
1000
0000
,
0100
0000
0000
0000
,
0010
0000
0001
0001
,
0001
0000
0000
0000
,
0100
0000
0010
0000
,
1000
0000
0000
0000
,
0001
0000
1000
1000
,
1000
0000
0100
0000
,
0010
0000
0001
0000
,
0100
0000
0010
0000
,
1000
0000
0000
0001
,
0001
0000
0000
1000
,
1000
0000
0000
0010
,
0010
0000
0000
0000
,
0100
0000
0000
0000
,
0001
0000
1000
0000
,
0001
0000
1000
0000
,
0100
0100
0000
0100
,
0000
0010
0010
0000
,
0001
0000
1000
0000
,
0001
0000
1000
0000
,
0010
0010
0000
0100
,
0100
0000
0010
0010
,
0010
0000
0000
1000
,
1000
0000
0000
0001
,
0001
0000
0000
0100
,
0100
0100
0100
0000
;
