#TITLE:(Hashtag)SELFIE;
#SUBTITLE:;
#ARTIST:The Chainsmokers;
#TITLETRANSLIT:;
#SUBTITLETRANSLIT:;
#ARTISTTRANSLIT:;
#GENRE:NOFILTER;
#CREDIT:;
#BANNER:SELFIE.png;
#BACKGROUND:SELFIE-bg.png;
#LYRICSPATH:;
#CDTITLE:;
#MUSIC:SELFIE.ogg;
#OFFSET:0.006000;
#SAMPLESTART:44.000042;
#SAMPLELENGTH:13.714000;
#SELECTABLE:YES;
#BPMS:0.000000=128.000000
,32.000000=64.000000
,48.000000=128.000000
,144.000000=64.000000
,176.000000=128.000000
;
#STOPS:
;
#BGCHANGES:15.750=Selfie.avi=1.000=0=0=1=====,
99999=-nosongbg-=1.000=0=0=0 // don't automatically add -songbackground-
;
#KEYSOUNDS:;
#ATTACKS:;

//---------------dance-single - ----------------
#NOTES:
     dance-single:
     :
     Hard:
     8:
     0.523352,0.686853,0.303438,0.118415,0.259033,438.000000,41.000000,16.000000,0.000000,0.000000,0.000000,0.523352,0.686853,0.303438,0.118415,0.259033,438.000000,41.000000,16.000000,0.000000,0.000000,0.000000:
0000
0000
0000
0000
,
0000
0000
0000
0000
,
0000
0000
0000
0000
,
0000
0000
0000
0000
,
1100
0000
0101
0000
1000
0001
1000
0000
,
0001
0010
0100
1000
0010
0100
0001
0000
,
0101
1010
0011
1100
,
0001
1000
0001
1000
0100
0010
0001
0000
,
2100
0000
0000
0000
0100
0000
0000
0000
0100
0000
0000
0000
3100
1000
0010
0100
,
0002
0000
0000
0000
0100
0000
0000
0000
0100
0000
0000
0000
0103
0001
0010
0100
,
2000
0000
3010
0000
0002
0000
0013
0000
2000
0000
3010
0000
1000
0100
0010
0001
,
2000
0000
3100
0000
0002
0000
0103
0000
2000
0000
3100
0000
1000
0100
0010
0001
,
0011
0000
1100
0000
0001
0100
0001
0000
,
1000
0100
1000
0000
0001
0010
0001
1000
,
1010
0000
0011
0000
1000
0100
1000
0000
,
0001
0100
0001
0000
1000
0100
0010
0001
,
1001
0100
1000
0010
0100
0001
1000
0010
,
0100
0001
0010
0100
1000
0010
0100
0001
,
1001
1000
0100
0010
0011
0010
0100
1000
,
1001
0000
0000
0110
,
2001
0000
0000
0000
3001
0000
1000
0000
0100
1000
0000
1000
0000
0000
0000
0000
,
1002
0000
0000
0000
1003
0000
0001
0000
0010
0001
0000
0001
1000
0000
0010
0000
,
0200
0000
0000
0000
0301
0000
1000
0000
0010
0100
0000
0100
0001
0000
0000
0000
,
1000
0100
0010
0001
1000
0010
0100
0000
,
1001
0000
0000
0000
1010
0000
0000
0000
0001
0010
0000
0100
1000
0000
0000
0000
,
0001
0000
1000
0000
0010
0000
0100
0000
0001
1000
0000
0100
0010
0000
0000
0000
,
0011
0000
0000
0000
1100
0000
0000
0000
0001
1000
0000
0100
0010
0000
0000
0000
,
0001
1000
0010
0100
0001
1000
0010
1000
,
0101
0000
0000
0000
1000
0000
0100
0000
1000
0001
0000
0001
1000
0000
0100
0000
,
0010
0000
0001
0000
0100
0000
0010
0000
1000
0001
0000
0001
0100
0000
0010
0000
,
2000
0000
0000
0000
3001
0000
0010
0000
0100
1000
0000
1000
0001
0000
1000
0000
,
0100
0000
0010
0000
0001
0000
1000
0000
0010
0100
0000
0100
0001
0000
1000
0100
,
2000
0000
0000
0000
3001
0000
1000
0000
0100
1000
0000
1000
0001
0000
0000
0000
,
0002
0000
0000
0000
0103
0000
0001
0000
1000
0001
0000
0001
0100
0000
0000
0000
,
0010
1000
0100
0010
0001
1000
0010
0100
,
0001
1000
0001
0000
1000
0100
1000
0000
0001
0100
0001
0000
1000
0010
1000
0010
,
0100
0000
0000
0000
,
0000
0000
0000
0000
,
0001
0000
1000
0000
0010
1000
0100
0000
1000
0001
1000
0010
1000
0100
1000
0000
,
0010
0000
0010
0000
0100
0010
1000
0000
0001
0100
0001
0010
0001
1000
0001
0000
,
1100
0000
1100
0000
0100
1000
0100
0000
1100
0000
1100
0000
1000
0100
1000
0000
,
0101
0000
0101
0000
0001
0100
0001
0000
0101
0000
0101
0000
0100
0001
0100
0000
,
1001
0000
1010
0000
1001
0000
0011
0000
0001
0010
0100
1000
0010
0100
0001
0000
,
0101
0000
1100
0000
1010
0000
0011
0000
0010
0001
0010
0001
1000
0100
1000
0000
,
0001
0100
0010
1000
0100
0010
0001
1000
,
0010
0100
0001
1000
0100
0010
0001
1000
,
0010
0010
0100
0100
0001
0001
1000
1000
,
0100
0010
0001
1000
0010
0100
0001
1000
,
0010
0100
0010
0000
0100
0000
0010
0000
0100
0010
0100
0000
0010
0000
0100
0000
,
0001
1000
0001
0000
1000
0000
0001
0000
1000
0001
1000
0000
0001
0000
1000
0000
,
0010
1000
0010
0000
1000
0100
1000
0000
0001
1000
0001
0000
0100
0001
0100
0000
,
0001
1000
0001
0000
1000
0010
1000
0000
0001
0010
0001
0010
0001
0000
0010
0000
,
2100
0000
3001
1000
0010
0010
0100
0000
,
0001
1000
0001
0001
1000
1000
0010
0100
,
0001
0000
1000
0000
0100
0000
0010
0000
0001
0000
0001
0000
1000
0000
0010
0100
,
0010
1000
0100
0100
0010
0010
0001
1000
,
0012
0000
1003
0001
0100
0100
0010
0000
,
1000
0001
1000
1000
0001
0001
0100
0010
,
1000
0000
0001
0000
0010
0000
0100
0000
1000
0000
1000
0000
0001
0000
0100
0010
,
0100
0001
1000
0100
0010
0001
1000
1000
;

//---------------dance-single - ----------------
#NOTES:
     dance-single:
     :
     Challenge:
     11:
     0.757010,0.819793,0.236830,0.029604,0.965823,680.000000,32.000000,4.000000,0.000000,0.000000,0.000000,0.757010,0.819793,0.236830,0.029604,0.965823,680.000000,32.000000,4.000000,0.000000,0.000000,0.000000:
// measure 0
0000
0000
0000
0000
,  // measure 1
0000
0000
0000
0000
,  // measure 2
0000
0000
0000
0000
,  // measure 3
0000
0000
0000
0000
,  // measure 4
1100
0100
0110
0010
0001
1000
0010
0000
,  // measure 5
0100
0001
0100
0010
1000
0001
0010
0000
,  // measure 6
0011
0000
0000
0000
0010
0000
0000
0000
0110
0000
0000
0000
0100
0000
0000
0000
1000
0000
0000
0000
0010
0000
0000
0000
0100
0000
0000
0000
0001
1000
0001
1000
,  // measure 7
0001
1000
0010
0100
0001
1000
1100
0000
,  // measure 8
0101
0000
0100
0000
0010
0100
0010
0000
1000
0010
1000
0000
0001
0010
0100
1000
,  // measure 9
0001
0100
0001
1000
0100
1000
0001
0000
1000
0100
1000
0000
0001
0010
0100
1000
,  // measure 10
0010
0000
1010
0000
0010
0010
0100
0000
0100
0100
0001
0000
0001
0100
0010
1000
,  // measure 11
0100
1000
0001
1000
0100
1000
0001
0000
0100
0100
0001
0000
1000
0100
1100
0101
,  // measure 12
1000
0000
0010
0000
1000
0000
0010
0000
0100
0000
0001
0000
0100
0000
0001
1000
,  // measure 13
0001
0000
0000
0000
1000
0000
0000
0000
0100
0000
0000
0000
1000
0100
0010
0001
1000
0000
0000
0000
0010
0000
0000
0000
0100
0000
0000
0000
0010
0000
0000
0000
,  // measure 14
1000
0000
0100
0000
0010
0000
0001
0000
1000
0000
0001
0000
0100
0000
0010
1000
,  // measure 15
0010
0000
0000
0000
1000
0000
0000
0000
0001
0000
0000
0000
1000
0010
0100
0001
1000
0000
0000
0000
0001
0000
0000
0000
1000
0000
0000
0000
0010
0000
0000
0000
,  // measure 16
0100
0001
0100
0001
1000
0100
1000
0100
0010
0001
0010
0001
1000
0010
1000
0010
,  // measure 17
0100
0000
0001
0000
0100
0000
0001
0000
1000
0000
0100
0000
1000
0000
0100
0000
0010
0000
0001
0000
0010
0000
0001
0000
0100
0000
0010
0000
1000
0100
0010
0001
,  // measure 18
1000
0001
0100
0010
1000
0100
0010
0001
1000
0010
0100
0001
0010
0100
0010
0001
,  // measure 19
1000
0000
0000
0000
0000
0000
1010
0100
,  // measure 20
0001
0000
1000
0000
0010
0000
0100
0000
0001
1000
0100
1000
0001
0000
0010
0000
,  // measure 21
0100
0000
1000
0000
0001
0000
0100
0000
0010
1000
0001
0000
0100
0010
0100
0010
,  // measure 22
1000
0000
0001
0000
0010
0000
0100
0000
1000
0100
0010
0100
1000
0000
0001
0000
,  // measure 23
1000
0000
0010
0000
0100
0000
0001
0000
1000
0000
0001
0000
0100
0000
0010
1000
,  // measure 24
1100
0000
1000
0000
0101
0000
0100
0000
0010
1000
0100
0010
0001
0000
1000
0000
,  // measure 25
1010
0000
0001
0000
0011
0000
1000
0000
0001
0010
0100
1000
0001
0000
0100
0000
,  // measure 26
0101
0000
0010
0000
1010
0000
1000
0000
0001
0010
0100
1000
0001
0000
1000
0000
,  // measure 27
0010
0100
0010
0100
0001
0100
0001
0100
0010
1000
0010
1000
0001
0100
0010
1000
,  // measure 28
0200
0000
0000
0000
1300
0001
1000
0100
0010
0001
1000
0010
0100
0001
1000
0000
,  // measure 29
0020
0000
0000
0000
1030
0001
1000
0100
0010
0001
1000
0010
0100
0001
1000
0000
,  // measure 30
0002
0000
0000
0000
0103
0001
0100
0010
1000
0100
0010
0001
0100
0001
1000
0000
,  // measure 31
2000
0000
0000
0000
3010
1000
0100
1000
0010
0100
0001
1000
0010
0100
0001
0000
,  // measure 32
1000
0100
1000
0100
0010
0001
0010
0001
1000
0010
1000
0010
0100
0001
0100
0001
,  // measure 33
1000
0100
1000
0100
0010
0001
0010
0001
1000
0010
1000
0010
0100
0001
0100
0001
,  // measure 34
1000
0001
1000
0001
0100
0010
0100
0010
1000
0001
1000
0001
0010
0100
0010
0100
,  // measure 35
1000
0010
0100
0001
0010
0100
1000
0010
0100
0001
1000
0100
0010
0001
1000
0010
,  // measure 36
0100
0000
0000
0000
,  // measure 37
0000
0000
0000
0000
,  // measure 38
0001
0100
0001
0010
0001
1000
0001
0000
0100
0100
0100
0000
0010
0010
0010
0000
,  // measure 39
1000
0100
1000
0010
1000
0001
1000
0000
0010
0010
0010
0000
0100
0100
0100
0000
,  // measure 40
0101
0000
0100
0001
0100
0001
1000
0000
1100
0000
1000
0100
1000
0100
0010
0000
,  // measure 41
0011
0000
0010
0001
0010
0001
1000
0000
1010
0000
0010
1000
0010
1000
0001
0000
,  // measure 42
0100
0100
0010
1000
0100
0100
0010
0000
0001
0010
0001
0010
0001
1000
0001
0000
,  // measure 43
1000
1000
0100
1000
0001
0001
0100
0000
0010
1000
0010
1000
0001
0100
0001
0000
,  // measure 44
1000
0000
0100
0000
1000
0000
0100
0000
1000
0000
0100
0000
1000
0000
0100
0000
1000
0000
0100
0000
1000
0000
0100
0000
1000
0000
0100
0000
1000
0010
1000
0001
,  // measure 45
0100
0000
0010
0000
0100
0000
0010
0000
0100
0000
0010
0000
0100
0000
0010
0000
0100
0000
0010
0000
0100
0000
0010
0000
0100
0000
0010
0000
0100
0001
1000
0100
,  // measure 46
0010
0000
0001
0000
0010
0000
0001
0000
0010
0000
0001
0000
0010
0000
0001
0000
0010
0000
0001
0000
0010
0000
0001
0000
0010
0000
0001
0000
0010
0001
1000
0010
,  // measure 47
0100
0000
0001
0000
0100
0000
0001
0000
0100
0000
0001
0000
0100
0000
0001
0000
0100
0000
0001
0000
0100
0000
0001
0000
0100
0000
0001
0000
0100
0010
1000
0001
,  // measure 48
0010
0000
0100
0000
0010
0000
0001
0000
1000
0000
0010
0000
0100
0000
0001
0000
1000
0000
0100
0000
0010
0000
0001
0000
1000
0000
0010
0000
1000
0100
0010
0001
,  // measure 49
0100
0000
0001
0000
0100
0000
0010
0000
1000
0000
0100
0000
0010
0000
0001
0000
1000
0000
0010
0000
0100
0000
0001
0000
1000
0000
0001
0000
0100
0010
1000
0001
,  // measure 50
0010
0000
0010
0000
0100
0000
1000
0000
0010
0000
0100
0000
0001
0000
1000
0000
0010
0000
0010
0000
0100
0000
0001
0000
1000
0000
0001
0000
1000
0010
0100
0001
,  // measure 51
1000
0010
0010
0010
0100
0001
0001
0001
1000
0100
0010
0001
1000
0000
0010
0000
,  // measure 52
1010
0000
1000
0000
1001
0000
0001
0000
0101
0000
0100
0010
1000
0000
0000
0000
,  // measure 53
0101
0000
0100
0001
1000
0000
0100
1000
0001
0000
0010
0001
1000
0000
0000
0000
,  // measure 54
1010
0000
0010
0000
0110
0000
0100
0000
0101
0000
1000
0100
0010
0000
0001
0100
,  // measure 55
0001
0000
1000
0000
0100
0000
0010
0000
0001
0000
1000
0000
0010
0000
0100
0001
,  // measure 56
0101
0000
0010
0000
1010
0000
1000
0000
0001
0010
0100
1000
0001
0000
1000
0000
,  // measure 57
1010
0000
0010
0100
0001
0000
0100
0010
1000
0000
0100
0010
0001
0000
1000
0000
,  // measure 58
1100
0000
0000
0000
0100
0000
0000
0000
0011
0000
0000
0000
0010
0000
0000
0000
0001
0000
0010
0000
0100
0000
1000
0000
0001
0000
0000
0000
1000
0001
1000
0001
,  // measure 59
0100
0010
0100
0010
1000
0001
0010
0100
1000
0100
1000
0100
0010
0001
1000
0000
;

//---------------dance-single - ----------------
#NOTES:
     dance-single:
     :
     Medium:
     6:
     0.348901,0.397985,0.273835,0.014802,0.000000,291.000000,37.000000,2.000000,0.000000,0.000000,0.000000,0.348901,0.397985,0.273835,0.014802,0.000000,291.000000,37.000000,2.000000,0.000000,0.000000,0.000000:
0000
0000
0000
0000
,
0000
0000
0000
0000
,
0000
0000
0000
0000
,
0000
0000
0000
0000
,
1000
0000
1000
0000
0001
0100
0001
0000
,
1000
0000
0100
0000
0010
0001
0010
0000
,
0001
0000
0001
0000
1000
0100
1000
0000
,
0001
0000
0100
0000
0010
1000
0001
0000
,
1100
0001
0100
0010
,
1000
0100
0010
0001
,
1000
1000
0100
0100
0010
0010
0001
0000
,
0100
0100
0010
0010
1000
1000
0001
0000
,
1100
0000
0001
0000
0100
0001
0100
0000
,
0010
0000
1000
0000
0100
0100
0100
0000
,
0011
0000
0010
0000
0001
1000
0001
0000
,
0100
0000
0001
0000
1000
1000
1000
0000
,
0010
0100
0010
0100
0010
0100
0010
0000
,
1000
0001
1000
0001
1000
0001
1000
0000
,
0100
1000
0100
0000
1000
0001
1000
0000
,
0001
0000
0000
0101
,
1100
0000
0001
0000
0100
0010
0100
0000
,
0001
0000
1000
0000
0010
1000
0001
0000
,
1010
0000
0001
0000
0010
0001
0010
0000
,
0001
1000
0100
0000
,
1100
0101
1010
0011
,
1100
0000
0101
0000
1000
0001
1000
0000
,
0011
1010
0101
1100
,
0001
1000
0001
1000
0001
1000
0001
1000
,
0010
0000
0100
0000
0010
1000
0100
0000
,
0010
0000
0000
0000
0001
0010
0001
0000
,
1000
0000
0001
0000
0100
0010
1000
0000
,
0001
0000
0000
0000
1000
0100
1000
0000
,
0101
0000
1100
0000
0101
1000
0001
0000
,
1100
0000
0101
0000
1100
0001
1000
0000
,
0010
1000
0010
0000
1000
0001
1000
0000
,
0001
0000
0100
0000
0010
1000
0001
0000
,
0100
0000
0000
0000
,
0000
0000
0000
0000
,
0010
0000
1000
0000
0100
1000
0100
1000
,
0001
0000
0100
0000
0001
1000
0001
1000
,
0010
0000
0010
0000
0100
0100
0100
0000
,
0001
0000
0001
0000
1000
1000
1000
0000
,
0100
1000
0100
1000
0010
0010
0100
0100
,
0001
1000
0001
1000
0010
0010
0100
0001
,
0101
0000
0101
0000
0101
0000
0100
0010
,
1010
0000
1010
0000
1010
0000
1000
0100
,
1100
0000
1100
0000
1100
0000
1000
0001
,
0011
0000
0011
0000
0011
0000
0010
0001
,
1000
0100
1000
0100
1000
0100
1000
0000
,
0001
0100
0001
0100
0001
0100
0001
0000
,
1000
0100
1000
0000
0001
0010
0001
0000
,
1000
0010
0100
0001
1000
0100
0010
0001
,
2000
0000
3000
0000
0100
1000
0100
0000
,
1000
0000
0001
0000
0100
0010
0100
0000
,
0001
0000
1000
0000
0010
1000
0010
0000
,
1000
0100
1000
0000
0001
0010
0100
1000
,
0002
0000
0003
0000
0100
0001
0100
0000
,
0010
1000
0010
0000
1000
0001
1000
0000
,
0010
0110
0101
1100
,
0001
0100
0010
1000
0100
0010
0001
0000
;

//---------------dance-single - ----------------
#NOTES:
     dance-single:
     :
     Easy:
     3:
     0.177623,0.243213,0.066608,0.014802,0.000000,157.000000,9.000000,2.000000,0.000000,0.000000,0.000000,0.177623,0.243213,0.066608,0.014802,0.000000,157.000000,9.000000,2.000000,0.000000,0.000000,0.000000:
0000
0000
0000
0000
,
0000
0000
0000
0000
,
0000
0000
0000
0000
,
0000
0000
0000
0000
,
0100
0000
0100
0000
,
0010
1000
0100
0000
,
0010
0000
0010
0000
,
0001
1000
0001
0000
,
0110
0000
0000
0000
,
0100
0100
0001
0000
,
1000
1000
0100
0000
,
0010
0010
0001
0000
,
1001
0000
0000
0000
,
1000
1000
0001
0001
,
0100
0000
0000
0000
,
0010
0010
1000
1000
,
0001
0000
0100
0001
,
0100
0000
0001
1000
,
0001
0000
1000
0100
,
1000
0000
0000
0000
,
1001
0000
1000
0000
,
0010
0010
0100
0100
,
0001
0000
1000
0000
,
0001
0000
1000
0100
,
0010
0000
0010
0000
,
0001
0001
1000
1000
,
0010
0000
0010
0000
,
0100
0100
0100
0000
,
0110
0000
1001
0000
,
1000
0100
0010
0000
,
0001
0000
1000
0000
,
0010
0010
0100
0000
,
0110
0000
1001
0000
,
0001
0010
0100
0000
,
0010
0000
0010
0000
,
0001
0001
1000
1000
,
0100
0000
0000
0000
,
0000
0000
0000
0000
,
2000
0000
3000
0000
,
0002
0000
0003
0000
,
0100
0000
0100
0000
0100
0000
0100
0100
,
0010
0000
0010
0000
0010
0000
0010
0010
,
1000
0000
1000
0000
1000
0000
1000
1000
,
0001
0000
0001
0000
0001
0000
0001
0001
,
0100
0000
0100
0100
,
0010
0000
0010
0010
,
1000
0000
1000
1000
,
0001
0000
0001
0001
,
0100
0010
0100
0010
,
1000
0001
1000
0001
,
0010
0100
0010
0100
,
1000
0001
1000
0000
,
1001
0000
0010
0000
,
1000
0001
1000
0000
,
1001
0000
0010
0000
,
0001
1000
0001
0000
,
1000
1000
0100
0000
,
0010
0010
0001
0000
,
0100
0100
0010
0010
,
1000
0001
1000
0001
;

//---------------dance-single - ----------------
#NOTES:
     dance-single:
     :
     Beginner:
     2:
     0.117358,0.176882,0.044406,0.000000,0.000000,105.000000,6.000000,0.000000,0.000000,0.000000,0.000000,0.117358,0.176882,0.044406,0.000000,0.000000,105.000000,6.000000,0.000000,0.000000,0.000000,0.000000:
0000
0000
0000
0000
,
0000
0000
0000
0000
,
0000
0000
0000
0000
,
0000
0000
0000
0000
,
1000
0000
0000
0000
,
0001
0000
0001
0000
,
0010
0000
0000
0000
,
0100
0000
0100
0000
,
1001
0000
0000
0000
,
1000
0000
0000
0000
,
0010
0000
0010
0000
,
0100
0000
0100
0000
,
1001
0000
0000
0000
,
1000
0000
1000
0000
,
0010
0000
0000
0000
,
0100
0000
0100
0000
,
0001
0000
0001
0001
,
0000
0000
1000
1000
,
1000
0000
0000
0010
,
0010
0000
0000
0000
,
1001
0000
0000
0000
,
1000
0000
0100
0100
,
0100
0000
0000
0000
,
1000
0000
0001
0000
,
0100
0000
0000
0000
,
0010
0000
1000
1000
,
1000
0000
0000
0000
,
0001
0000
1000
0000
,
0110
0000
0000
0000
,
0010
0000
0001
0001
,
0001
0000
0000
0000
,
1000
0000
0010
0000
,
0100
0000
0000
0000
,
0010
0000
1000
1000
,
1000
0000
0000
0000
,
0100
0000
1000
0000
,
0100
0000
0000
0000
,
0000
0000
0000
0000
,
1000
0000
0001
0000
,
0100
0000
0010
0000
,
1001
0000
1000
1000
,
0100
0000
0010
0010
,
0001
0000
0100
0100
,
0010
0000
1000
0000
,
0001
0000
0000
0100
,
0100
0000
0000
0010
,
0010
0000
1000
1000
,
1000
0000
0000
0001
,
0001
0000
1000
1000
,
1000
0000
0000
0010
,
0010
0000
0100
0100
,
0100
0100
0000
0000
,
1001
0000
0000
0000
,
0010
0000
0010
0010
,
0010
0000
0000
0000
,
1000
0000
0001
0000
,
0100
0100
0000
0000
,
0010
0010
0000
0000
,
1000
1000
0000
0000
,
0001
0000
1000
1000
;

//---------------dance-double - ----------------
#NOTES:
     dance-double:
     :
     Challenge:
     8:
     0.504321,0.686853,0.177623,0.140618,0.210927,434.000000,24.000000,19.000000,0.000000,0.000000,0.000000,0.504321,0.686853,0.177623,0.140618,0.210927,434.000000,24.000000,19.000000,0.000000,0.000000,0.000000:
00000000
00000000
00000000
00000000
,
00000000
00000000
00000000
00000000
,
00000000
00000000
00000000
00000000
,
00000000
00000000
00000000
00000000
,
00001000
00000001
00001000
00000000
00000001
00000100
00000001
00000000
,
00001000
00000100
00000010
00000001
00001000
00000100
00010000
00000000
,
00011000
00011000
00110000
00110000
,
00010000
00100000
01000000
10000000
00100000
01000000
00010000
00000000
,
20000000
00000000
31000000
00000000
00200000
00000000
00310000
00000000
20000000
00000000
30100000
00000000
10000000
01000000
00100000
00010000
,
02000000
00000000
03010000
00000000
00200000
00000000
00301000
00000000
00020000
00000000
00030100
00000000
00001000
00000010
00000100
00000001
,
00002000
00000000
00003010
00000000
00000002
00000000
00000013
00000000
00002000
00000000
00003100
00000000
00000001
00000100
00000010
00001000
,
00000200
00000000
00010300
00000000
00002000
00000000
00103000
00000000
00020000
00000000
01030000
00000000
00010000
01000000
00100000
10000000
,
01000000
00100000
01000000
00100000
00010000
00100000
00010000
00000000
,
10000000
01000000
10000000
01000000
00100000
00010000
00100000
00000000
,
00001000
00100000
00001000
00100000
00001000
00010000
00001000
00000000
,
00010000
00000100
00001000
00000100
00010000
00000100
00001000
00000000
,
00000001
00000100
00000010
00001000
00000100
00000010
00000001
00001000
,
00000010
00000010
00001000
00000100
00010000
00001000
00010000
00001000
,
00100000
00100000
00010000
01000000
00100000
00100000
10000000
00010000
,
01000000
00000000
00000000
00000000
,
01010000
00000000
00000000
00000000
10000000
00000000
01000000
00000000
10000000
00010000
00000000
00010000
01000000
00000000
00000000
00000000
,
01010000
00000000
00000000
00000000
10000000
00000000
01000000
00000000
10000000
00010000
00000000
00010000
01000000
00000000
00000000
00000000
,
01010000
00000000
11000000
00000000
10000000
01000000
00100000
00000000
,
00010000
00100000
01000000
10000000
00010000
00100000
00001000
00010000
,
00001100
00000000
00000000
00000000
00000101
00000000
00000000
00000000
00001000
00000100
00000000
00000010
00000001
00000000
00000000
00000000
,
00001000
00000000
00000010
00000000
00000100
00000000
00000001
00000000
00001000
00000010
00000000
00000100
00000001
00000000
00000000
00000000
,
00001000
00000000
00000100
00000000
00001000
00000000
00000001
00000000
00000100
00000010
00000000
00001000
00000001
00000000
00000000
00000000
,
00001000
00000100
00010000
00001000
00100000
00010000
01000000
00100000
,
10100000
00000000
01010000
00000000
01000000
00001000
00010000
00000000
,
00011000
00000000
00101000
00000000
00010000
00000100
00001000
00000010
,
00001010
00000000
00000101
00000000
00001000
00000100
00000010
00000000
,
00000001
00000000
00001000
00000000
00000010
00000000
00000100
00000000
00000001
00000000
00001000
00000000
00000010
00000100
00000010
00000100
,
00000001
00000000
00001000
00000000
00000100
00000000
00000010
00000000
00000001
00000100
00000000
00000100
00000010
00000000
00001000
00000000
,
00000100
00000000
00000010
00000000
00000001
00000000
00001000
00000000
00000100
00010000
00000000
00010000
00001000
00000000
00100000
00000000
,
00010000
00000000
01000000
00000000
00100000
00000000
10000000
00000000
00010000
00100000
00000000
00100000
01000000
00000000
10000000
00000000
,
00010000
00100000
00010000
00000000
10000000
00000000
01000000
00000000
00100000
00010000
00100000
00000000
01000000
00000000
10000000
00000000
,
00010000
00000000
00000000
00000000
,
00000000
00000000
00000000
00000000
,
00000001
00000000
00001000
00000000
00000010
00000100
00000010
00000000
00001000
00000000
00000001
00000000
00000010
00000100
00000010
00000000
,
00000001
00000000
00001000
00000000
00000100
00000000
00010000
00000000
00001000
00000000
00001000
00000000
01000000
00010000
01000000
00000000
,
10100000
00000000
10000000
00000000
00100000
10000000
00100000
00000000
00110000
00000000
00100000
00000000
00010000
00100000
00010000
00000000
,
11000000
00000000
10000000
00000000
01000000
10000000
01000000
00000000
01010000
00000000
00010000
00000000
01000000
00010000
01000000
00000000
,
00010000
10000000
00010000
10000000
01000000
00100000
00010000
00000000
00200000
00000000
00302000
00000000
00023000
00000000
00030200
00000000
,
00001300
00000001
00001000
00000001
00001000
00000100
00000010
00000000
00000002
00000000
00000203
00000000
00000320
00000000
00001030
00000000
,
00000001
00000100
00000001
00000100
00000001
00000100
00000010
00000000
,
00001000
00000100
00001000
00000100
00001000
00000100
00000010
00000000
,
00000001
00001000
00000100
00001000
00000010
00000100
00000001
00001000
,
00000100
00000100
00010000
00010000
00001000
00001000
00100000
00000000
,
00010000
01000000
00010000
00000000
00100000
00000000
01000000
00000000
10000000
00000000
00010000
00000000
01000000
00000000
00100000
00000000
,
10000000
01000000
10000000
00000000
00100000
00000000
01000000
00000000
00010000
00000000
10000000
00000000
01000000
00000000
00100000
00000000
,
00010000
00100000
00010000
00000000
01000000
00000000
00001000
00000000
00100000
00010000
00100000
00000000
00001000
00000000
01000000
00000000
,
00000100
00010000
00000100
00000000
00010000
00000000
00000010
00000000
00000100
00000010
00000100
00000010
00000100
00000000
00000001
00000000
,
00001001
00000000
00000000
00000000
00000100
00000000
00000010
00000000
00001000
00000100
00001000
00000100
00001000
00000000
00000000
00000000
,
00000001
00000000
00000100
00000000
00000010
00000000
00001000
00000000
00000100
00000000
00000100
00000000
00010000
00000000
00001000
00010000
,
00001000
00000000
00100000
00000000
00010000
00000000
01000000
00000000
01000000
00000000
00100000
00000000
10000000
00000000
00010000
01000000
,
00010000
00000000
10000000
01000000
10000000
00000000
00010000
00000000
00100000
00000000
01000000
00000000
10000000
00000000
00000000
00000000
,
10010000
00000000
00000000
00000000
10010000
00000000
00000000
00000000
00100000
01000000
00100000
01000000
00100000
00000000
00000000
00000000
,
10000000
00000000
00100000
00000000
01000000
00000000
00010000
00000000
10000000
00000000
01000000
00000000
00100000
00000000
00010000
10000000
,
00010000
00000000
00100000
00000000
00001000
00000000
01000000
00010000
01000000
00000000
00100000
00000000
10000000
00000000
01000000
00000000
,
00100000
00100000
00001000
00001000
00010000
00000100
00001000
00001010
;
