#VERSION:0.82;
#TITLE:You Get What You Give;
#SUBTITLE:;
#ARTIST:New Radicals;
#TITLETRANSLIT:;
#SUBTITLETRANSLIT:;
#ARTISTTRANSLIT:;
#GENRE:Don't Give Up! One Dance Left!;
#ORIGIN:;
#CREDIT:;
#BANNER:You Get What You Give.png;
#BACKGROUND:You Get What You Give-bg.png;
#PREVIEWVID:;
#JACKET:jacket.png;
#CDIMAGE:;
#DISCIMAGE:;
#LYRICSPATH:;
#CDTITLE:;
#MUSIC:You Get What You Give.ogg;
#OFFSET:0.060000;
#SAMPLESTART:84.254349;
#SAMPLELENGTH:13.714000;
#SELECTABLE:YES;
#DISPLAYBPM:114;
#BPMS:0.000=114.000,
15.000=115.240,
16.000=114.000,
47.000=110.500,
48.000=114.000,
127.000=112.520,
128.000=113.700,
144.000=113.940,
160.000=112.340,
161.000=114.000,
179.000=114.920,
182.000=114.000,
198.000=108.520,
200.000=114.000,
210.000=113.540,
214.000=114.000,
225.000=113.940;
#STOPS:;
#DELAYS:;
#WARPS:;
#TIMESIGNATURES:0.000=4=4;
#TICKCOUNTS:0.000=4;
#COMBOS:0.000=1;
#SPEEDS:0.000=1.000=0.000=0;
#SCROLLS:0.000=1.000;
#FAKES:;
#LABELS:0.000=Song Start;
#BGCHANGES:4.000=You Get What You Give.avi=1.000=0=0=1=====,
99999=-nosongbg-=1.000=0=0=0 // don't automatically add -songbackground-
;
#KEYSOUNDS:;
#ATTACKS:
;

//---------------dance-single - ----------------
#NOTEDATA:;
#CHARTNAME:;
#STEPSTYPE:dance-single;
#DESCRIPTION:;
#CHARTSTYLE:;
#DIFFICULTY:Hard;
#METER:8;
#RADARVALUES:0.525485,0.515302,0.338597,0.176994,0.065411,411.000000,44.000000,23.000000,0.000000,0.000000,0.000000,0.000000,0.000000,0.525485,0.515302,0.338597,0.176994,0.065411,411.000000,44.000000,23.000000,0.000000,0.000000,0.000000,0.000000,0.000000;
#CREDIT:Ben Speirs;
#NOTES:
0000
0000
0000
0000
,
0000
0000
0000
0000
,
1000
0000
0101
0000
1000
1000
0100
0000
,
0010
0000
0001
1001
1000
0100
1000
0000
,
0010
0100
0100
0001
1000
1000
0000
0100
,
0010
0001
0001
1000
0010
0010
0000
0100
,
0001
1000
1000
0100
0010
0010
0000
0001
,
1000
0010
0010
0100
0001
0001
0000
1000
,
2200
3300
0202
0303
,
2020
3030
0022
0033
,
2001
3100
1002
0103
,
1001
1000
1001
0001
1001
1000
0110
0000
,
1000
0010
0001
1000
0100
0001
1000
0001
,
1000
0010
0001
1000
0100
0001
1000
0001
,
1000
0010
0001
1000
0100
0001
1000
0001
,
1000
0010
0100
0001
0010
0100
1000
0000
,
0001
0010
0011
0000
0001
1000
0001
1000
,
0100
1000
0010
0100
0001
0010
0100
1000
,
1000
0100
1100
0000
1000
0001
1000
0001
,
0010
0001
0100
0010
1000
0100
0010
0001
,
0100
0010
0110
0000
0010
1000
0001
1000
,
0010
0000
0100
0000
0001
0000
0010
0000
0100
0000
1000
0000
0010
0000
1000
0001
,
2000
0100
0010
3100
,
1000
0100
0010
0001
1000
0010
0100
0000
,
0001
1000
1001
0000
0010
1010
0000
0101
,
0100
0000
0010
0000
1000
0000
0100
0000
0010
0000
0001
0000
1000
0001
1000
0000
,
0010
0000
0101
0000
0010
1010
0000
1001
,
1000
0000
0100
0000
0010
0000
0001
0000
1000
0000
0010
0000
0100
0010
0100
0000
,
0001
0000
0101
0000
1000
1100
0000
1001
,
1000
0000
0010
0000
0100
0000
0001
0000
0010
0000
0100
0000
1000
0100
1000
0000
,
0002
0010
0100
1003
,
0001
0010
0100
1000
0010
0100
0001
0000
,
2000
0100
3200
0010
0320
0000
0031
1000
,
0001
1000
0010
0000
0100
0001
1000
0000
,
0002
0010
0023
0100
0230
0000
1300
0001
,
1000
0001
0100
0000
2010
0000
3001
0000
,
0001
0100
0010
1000
0100
0010
0001
1000
,
0010
0100
0001
0010
0100
1000
0010
1000
,
0002
0100
1000
0010
,
1003
0100
1000
0001
0100
0001
1000
0010
,
0100
0000
0000
0000
0001
0100
0001
0000
0010
0000
0100
1000
0100
0000
1000
0001
,
1000
0010
1000
0100
0010
0001
1000
0000
,
0010
0000
1000
0000
0001
0100
0001
0000
1000
0000
0010
0100
0010
0000
1000
0100
,
1000
0001
0010
0100
1000
0010
0010
0100
,
0001
0000
0000
0000
1000
0100
1000
0000
0001
0000
0010
0100
0010
0000
0001
1000
,
0001
0010
0001
1000
0010
0100
0001
1000
,
0010
0000
0000
0000
1000
0100
1000
0000
0010
0000
1000
0001
1000
0000
0010
0100
,
0010
0000
1000
0000
0100
0000
0010
0000
0001
0000
1000
0000
0010
0000
0100
0001
,
2000
0100
0001
3010
,
1002
0000
0000
0100
0200
0000
0303
0000
,
0001
0100
0001
0100
0010
1000
1010
1010
,
1000
0100
1000
0100
0010
0001
0011
0011
,
0001
1000
0001
1000
0010
0100
0110
0110
,
0100
0001
0010
0100
1000
0001
0010
0100
,
1000
0010
0100
0001
1000
0001
1001
1001
,
0001
0010
0100
1000
0001
1000
1001
1001
,
1000
0010
0100
0001
0010
0100
1100
1100
,
0100
1000
0010
0100
0001
1000
0001
0100
,
0010
0000
1010
0000
0001
0101
0000
1100
,
0001
0010
0100
1000
0010
0100
0001
1000
,
0010
0000
1001
0000
0100
0101
0000
1100
;

//---------------dance-double - ----------------
#NOTEDATA:;
#CHARTNAME:;
#STEPSTYPE:dance-double;
#DESCRIPTION:;
#CHARTSTYLE:;
#DIFFICULTY:Challenge;
#METER:8;
#RADARVALUES:0.492505,0.491879,0.430942,0.223166,0.000000,363.000000,56.000000,29.000000,0.000000,0.000000,0.000000,0.000000,0.000000,0.492505,0.491879,0.430942,0.223166,0.000000,363.000000,56.000000,29.000000,0.000000,0.000000,0.000000,0.000000,0.000000;
#CREDIT:Ben Speirs;
#NOTES:
00000000
00000000
00000000
00000000
,
00000000
00000000
00000000
00000000
,
20000000
00000000
31000000
00000000
10000000
00010000
10000000
00000000
,
00020000
00000000
01030000
00000000
00010000
10000000
00010000
00000000
,
10000000
01000000
00100000
01000000
00100000
00010000
10000000
00010000
,
00100000
00001000
00010000
00001000
00010000
00000010
00001000
00000100
,
00000020
00000001
00000100
00000031
,
00000010
00000001
00000100
00000100
00000010
00001000
00000100
00000000
,
00000022
00000033
00002020
00003030
,
00000202
00000303
00002200
00003300
,
00002001
00003100
00001002
00000103
,
00001001
00000100
00011000
00100000
10010000
01000000
01100000
00000000
,
10000000
00100000
01000000
01000000
00100000
10000000
01000000
01000000
,
00100000
00010000
10000000
00100000
01000000
00010000
00100000
01000000
,
00100000
00001000
00010000
00010000
00001000
00010000
00000100
00000100
,
00001000
00000010
00000100
00000010
00001000
00000100
00000010
00000001
,
00000001
00000000
00001100
00000000
00000010
00001010
00000000
00000101
,
00000000
00001000
00000100
00000010
00000001
00001000
00000010
00000100
,
00000001
00000000
00001001
00000000
00000100
00001100
00000000
00000101
,
00000000
00000100
00000010
00001000
00000001
00000010
00000100
00001000
,
00000001
00000000
00001100
00000000
00010000
00011000
00000000
00010100
,
00000000
00001000
00000100
00001000
00000100
00010000
00001000
00100000
,
00200000
00010000
10000000
00310000
,
00100000
00010000
01000000
01000000
00100000
10000000
01000000
00000000
,
10000000
00000000
00110000
00000000
01000000
01010000
00000000
10100000
,
00000000
00010000
00100000
01000000
10000000
00010000
01000000
00100000
,
10000000
00000000
10010000
00000000
00100000
00110000
00000000
10100000
,
00000000
00100000
01000000
00010000
10000000
01000000
00100000
00010000
,
10000000
00000000
00110000
00000000
00001000
00011000
00000000
00101000
,
00000000
00010000
00100000
00010000
00100000
00001000
00010000
00000100
,
00000200
00001000
00000001
00001300
,
00000100
00001000
00000010
00000010
00000100
00000001
00000010
00000000
,
00000002
00000000
00000203
00000000
00002300
00000000
00013000
00001000
,
00000100
00000001
00001000
00000000
00000100
00000010
00000001
00000000
,
00000002
00000000
00000023
00000000
00002030
00000000
00013000
00001000
,
00000010
00000001
00001000
00000000
00022000
00000000
00033000
00000000
,
00120000
01030000
20100000
31000000
,
10000000
00010000
10000000
00000000
00100000
01000000
00010000
10000000
,
02000000
00100000
00010000
03100000
,
01000000
00100000
00100000
10000000
00100000
00100000
00010000
00100000
,
00001000
00000000
00101000
00000000
00010000
00011000
00001000
00011000
,
00010000
00100000
10000000
01000000
00100000
00010000
00100000
00010000
,
01000000
00000000
01001000
00000000
00001000
00011000
00010000
00011000
,
00001000
00000100
00000001
00000010
00000100
00001000
00000100
00001000
,
00000001
00000000
00000011
00000000
00001000
00001010
00000000
00001001
,
00000000
00001000
00000100
00000001
00000100
00010000
00001000
00001000
,
00100000
00000000
00101000
00000000
00010000
00011000
00001000
00011000
,
00010000
01000000
10000000
00100000
01000000
00100000
01000000
00010000
,
20000000
01000000
00100000
30010000
,
10010000
00000000
00000000
00011000
00022000
00000000
00033000
00000000
,
00010000
00001000
00010000
00001000
01000000
01000000
00000100
00000100
,
00010000
00001000
00010000
00001000
00100000
00100000
00000010
00000010
,
00010000
00001000
00010000
00001000
01000000
01000000
00000010
00000010
,
00010000
00001000
00010000
00001000
00000100
00000001
00000010
00000100
,
00010000
00001000
00010000
00001000
01000000
01000000
01010000
01001000
,
00001000
00010000
00001000
00010000
00000100
00000100
00001100
00010100
,
00010000
00001000
00010000
00001000
00100000
00100000
00000010
00000010
,
00010000
00001000
00010000
00001000
00010000
00100000
10000000
01000000
,
00100000
00000000
00110000
00000000
10000000
11000000
00000000
01010000
,
00010000
10000000
01000000
00100000
00010000
01000000
00001000
00010000
,
00001000
00000000
00010010
00000000
00000000
00011000
00000000
00101000
;

//---------------dance-single - ----------------
#NOTEDATA:;
#CHARTNAME:;
#STEPSTYPE:dance-single;
#DESCRIPTION:;
#CHARTSTYLE:;
#DIFFICULTY:Medium;
#METER:5;
#RADARVALUES:0.326504,0.398188,0.230862,0.223166,0.000000,238.000000,30.000000,29.000000,0.000000,0.000000,0.000000,0.000000,0.000000,0.326504,0.398188,0.230862,0.223166,0.000000,238.000000,30.000000,29.000000,0.000000,0.000000,0.000000,0.000000,0.000000;
#CREDIT:Ben Speirs;
#NOTES:
0000
0000
0000
0000
,
0000
0000
0000
0000
,
0100
0000
0010
0000
1000
1000
0100
0000
,
0010
0000
0001
1000
0000
0000
0000
0000
,
0010
0000
0100
0000
0001
1000
0000
0001
,
1000
0000
0100
0000
0010
0000
0001
1000
,
0002
0000
0100
0100
,
2003
0000
0100
3100
,
1001
0000
0110
0000
,
1001
0000
0110
0000
,
1001
0010
1001
0010
,
1001
1100
0011
1001
,
0001
0100
0001
0000
0010
0000
0001
0000
,
1000
0100
1000
0000
0001
0000
1000
0000
,
0010
0100
0010
0000
1000
0000
0001
0000
,
0010
0100
0010
0000
0001
0000
1000
0000
,
0000
0000
1001
0000
0000
0100
0000
1000
,
0000
0000
0001
0100
0001
0000
1000
0000
,
0000
0000
1100
0000
0000
1000
0000
0001
,
0000
0000
0010
0001
0010
0000
0001
0000
,
0000
0000
1010
0000
0000
0100
0000
0001
,
0000
0000
1000
0010
1000
0000
0001
0000
,
0202
0000
0000
0303
,
0001
0100
0010
0000
1000
0100
0010
0000
,
0001
1000
0010
0100
,
0001
0000
1000
0100
0010
0001
1000
0000
,
0010
0100
0010
1000
,
0001
0000
1000
0010
0100
0001
1000
0000
,
0001
0010
0001
1000
,
0010
0000
1000
0100
0010
0001
1000
0000
,
2200
0000
0000
3300
,
2002
3003
0202
0303
,
2000
3020
0230
0302
,
1000
1003
0000
0000
,
0002
0023
0032
2003
,
3020
0000
0230
0000
,
0302
2003
3200
0320
,
0001
0000
0031
0000
0000
0000
0001
1000
,
0200
0000
0000
0300
,
1000
0100
1000
0100
0010
0001
0010
0001
,
0000
0000
1001
0000
0000
1001
0000
1001
,
0000
0000
1000
0000
0010
0100
0001
0000
,
0000
0000
1001
0000
0000
1001
0000
1001
,
0000
0000
0001
0000
0010
0100
1000
0000
,
0000
0000
1100
0000
0000
0101
0000
1100
,
0000
0000
0001
0000
1000
0001
0100
0000
,
0000
0000
1010
0000
0000
0011
0000
1010
,
0000
0000
0001
0000
1000
0001
0100
0000
,
2002
0000
0000
3003
,
0020
0000
0000
0100
0200
0000
0330
0000
,
0100
0000
0001
0000
1000
1000
0100
0100
,
0010
0000
0001
0000
1000
1000
0001
0001
,
0100
0000
0010
0000
1000
1000
0001
0001
,
0010
0000
0001
0000
1000
1000
0100
0100
,
0010
0000
0001
0000
1000
1000
0001
0001
,
0100
0000
0010
0000
1000
1000
0001
0001
,
0010
0000
0001
0000
1000
1000
0100
0100
,
0010
0000
0001
0000
1000
0001
1000
0001
,
0000
0000
0100
0000
0000
0100
0000
0100
,
0000
0000
0010
0000
1000
0001
0010
0001
,
1000
0000
0100
0000
0000
0100
0000
0100
;

//---------------dance-single - ----------------
#NOTEDATA:;
#CHARTNAME:;
#STEPSTYPE:dance-single;
#DESCRIPTION:;
#CHARTSTYLE:;
#DIFFICULTY:Easy;
#METER:3;
#RADARVALUES:0.151709,0.304497,0.053868,0.038477,0.000000,126.000000,7.000000,5.000000,0.000000,0.000000,0.000000,0.000000,0.000000,0.151709,0.304497,0.053868,0.038477,0.000000,126.000000,7.000000,5.000000,0.000000,0.000000,0.000000,0.000000,0.000000;
#CREDIT:Ben Speirs;
#NOTES:
0000
0000
0000
0000
,
0000
0000
0000
0000
,
0100
0000
0001
0000
,
1000
0000
0100
0000
,
1000
0100
1000
0000
,
0001
0010
0001
0000
,
1000
0000
0001
0000
,
0100
0000
0100
0000
,
0001
0000
1000
0000
,
0001
0000
1000
0000
,
1001
0000
1001
0000
,
1001
1001
1001
1001
,
0100
0000
0001
0000
,
1000
0100
0010
0000
,
0001
0000
1000
0000
,
0010
1000
0001
0000
,
0000
0100
0000
0010
,
1000
0000
0001
0000
,
0000
0010
0000
0010
,
0001
0000
1000
0000
,
0000
0100
0000
0100
,
1000
0000
0001
0000
,
0200
0000
0300
0000
,
0010
0000
1000
0000
,
0000
0001
0000
0001
,
0010
0000
0100
0000
,
0000
1000
0000
1000
,
0010
0000
0100
0000
,
0000
0010
0000
0010
,
1000
0000
0001
0000
,
0020
0000
0030
0000
,
0001
0000
1000
0000
,
0001
0100
0001
0100
,
0010
0000
0000
0000
,
1000
0100
1000
0100
,
0010
0000
0000
0000
,
0001
1000
0001
1000
,
0010
0000
0000
0000
,
2002
0000
0000
3003
,
1000
0000
0001
0000
,
0000
0000
0100
0000
0000
0100
0000
0100
,
0000
0000
0010
0000
,
0000
0000
1000
0000
0000
1000
0000
1000
,
0000
0000
0100
0000
,
0000
0000
0010
0000
0000
0010
0000
0010
,
0000
0000
0001
0000
,
0000
0000
0100
0000
0000
0100
0000
0100
,
0000
0000
0010
0000
,
2000
0000
0000
3000
,
0001
0000
1000
0000
,
0010
0000
0010
0000
,
1000
0000
1000
0000
,
0100
0000
0100
0000
,
0010
0000
0010
0000
,
0001
0000
1000
0000
,
0010
0100
0001
0000
,
0010
0100
1000
0000
,
0001
0000
1000
0000
,
0000
0000
0010
0000
0000
0010
0000
0010
,
0000
0000
1000
0000
,
0000
0000
0100
0000
0000
0100
0000
0100
;

//---------------dance-single - ----------------
#NOTEDATA:;
#CHARTNAME:;
#STEPSTYPE:dance-single;
#DESCRIPTION:;
#CHARTSTYLE:;
#DIFFICULTY:Beginner;
#METER:1;
#RADARVALUES:0.098941,0.141403,0.007695,0.000000,0.000000,89.000000,1.000000,0.000000,0.000000,0.000000,0.000000,0.000000,0.000000,0.098941,0.141403,0.007695,0.000000,0.000000,89.000000,1.000000,0.000000,0.000000,0.000000,0.000000,0.000000,0.000000;
#CREDIT:Ben Speirs;
#NOTES:
// measure 0
0000
0000
0000
0000
,  // measure 1
0000
0000
0000
0000
,  // measure 2
1000
0000
0000
0000
,  // measure 3
0001
0000
0000
0000
,  // measure 4
0100
0000
0000
0000
,  // measure 5
0010
0000
0000
0000
,  // measure 6
1000
0000
0000
0000
,  // measure 7
0001
0000
0000
0000
,  // measure 8
1000
0000
0000
0000
,  // measure 9
0100
0000
0000
0000
,  // measure 10
1000
0000
0001
0000
,  // measure 11
1000
1000
1000
1000
,  // measure 12
0000
0010
0000
0010
,  // measure 13
0000
0100
0000
0100
,  // measure 14
0000
0001
0000
0001
,  // measure 15
0000
1000
0000
1000
,  // measure 16
1000
0000
0000
0000
,  // measure 17
0001
0000
1000
0000
,  // measure 18
0010
0000
0000
0000
,  // measure 19
0100
0000
0001
0000
,  // measure 20
1000
0000
0000
0000
,  // measure 21
0100
0000
0010
0000
,  // measure 22
0001
0000
0000
0000
,  // measure 23
1000
0000
0000
0000
,  // measure 24
0010
0000
0000
0000
,  // measure 25
0100
0000
0001
0000
,  // measure 26
1000
0000
0000
0000
,  // measure 27
0100
0000
0010
0000
,  // measure 28
0001
0000
0000
0000
,  // measure 29
0100
0000
0010
0000
,  // measure 30
1000
0000
0000
0000
,  // measure 31
0001
0000
0000
0000
,  // measure 32
1000
1000
1000
0000
,  // measure 33
1000
0000
0000
0000
,  // measure 34
0001
0001
0001
0000
,  // measure 35
0001
0000
0000
0000
,  // measure 36
0010
0010
0010
0000
,  // measure 37
0010
0000
0000
0000
,  // measure 38
0100
0000
0000
0000
,  // measure 39
0100
0000
1000
0000
,  // measure 40
0010
0000
0000
0000
,  // measure 41
0100
0000
0001
0000
,  // measure 42
1000
0000
0000
0000
,  // measure 43
0100
0000
0010
0000
,  // measure 44
0001
0000
0000
0000
,  // measure 45
0100
0000
0001
0000
,  // measure 46
1000
0000
0000
0000
,  // measure 47
0010
0000
1000
0000
,  // measure 48
0100
0000
0000
0000
,  // measure 49
1001
0000
0000
0000
,  // measure 50
1000
0000
0000
0000
,  // measure 51
0010
0000
0000
0000
,  // measure 52
0100
0000
0000
0000
,  // measure 53
0001
0000
1000
0000
,  // measure 54
0100
0000
0000
0000
,  // measure 55
0010
0000
0000
0000
,  // measure 56
0001
0000
0000
0000
,  // measure 57
1000
0000
0001
0000
,  // measure 58
0100
0000
0000
0000
,  // measure 59
0010
0010
0000
0000
,  // measure 60
1000
0000
0000
0000
,  // measure 61
0100
0100
0000
0000
;
