#TITLE:Call Me Maybe;
#SUBTITLE:;
#ARTIST:Carly Rae Japsen;
#TITLETRANSLIT:;
#SUBTITLETRANSLIT:;
#ARTISTTRANSLIT:;
#CREDIT:;
#BANNER:Call Me Maybe-bn.png;
#BACKGROUND:Call Me Maybe-bg.png;
#LYRICSPATH:;
#CDTITLE:;
#MUSIC:Call Me Maybe.mp3;
#OFFSET:-0.060;
#SAMPLESTART:92.040;
#SAMPLELENGTH:16.180;
#SELECTABLE:YES;
#BPMS:0.000=120.050;
#STOPS:;
#BGCHANGES:;

//---------------dance-single - ----------------
#NOTES:
     dance-single:
     :
     Beginner:
     1:
     0.099,0.140,0.038,0.000,0.000:
0000
0000
0000
0000
,
0000
0000
0000
0000
,
0010
0000
0000
0000
,
0010
0000
0000
0000
,
0100
0000
0000
0000
,
0100
0000
0000
0000
,
0001
0000
0000
0000
,
0001
0000
0000
0000
,
1000
0000
0000
0000
,
1000
0000
0000
0000
,
0010
0000
0000
0000
,
1000
0000
0000
0000
,
0100
0000
0000
0000
,
1000
0000
1000
0000
,
1000
0000
0000
0000
,
0001
0001
0000
0000
,
0010
0010
0000
0000
,
0001
0001
0000
0000
,
1000
0000
0000
0000
,
0010
0010
0000
0000
,
1000
1000
0000
0000
,
0100
0100
0000
0000
,
0110
0000
0000
0000
,
1000
1000
0000
0000
,
0010
0010
0000
0000
,
0100
0100
0000
0000
,
0010
0000
0000
0000
,
1000
1000
0000
0000
,
0001
0001
0000
0000
,
0010
0010
0000
0000
,
1001
0000
0000
0000
,
0100
0000
0100
0000
,
0100
0000
0000
0000
,
1000
0000
1000
0000
,
1000
0000
0000
0000
,
0010
0000
0010
0000
,
0010
0000
0000
0000
,
1000
0000
1000
0000
,
1000
0000
0000
0000
,
0000
0000
0000
0000
,
0000
0000
0000
0000
,
0000
0000
0000
0000
,
1001
0000
0000
0000
,
0100
0000
0000
0000
,
0010
0000
0000
0000
,
0001
0000
0001
0000
,
1001
0000
0000
0000
,
1000
1000
0000
0000
,
0010
0010
0000
0000
,
1000
1000
0000
0000
,
0100
0000
0000
0000
,
0010
0010
0000
0000
,
0001
0001
0000
0000
,
1000
1000
0000
0000
,
0110
0000
0000
0000
,
0100
0000
0000
0000
,
0001
0000
0000
0000
,
1000
1000
1000
1000
,
1000
0000
0000
0000
,
0100
0000
0000
0000
,
1000
0000
0000
0000
,
0010
0010
0010
0010
;

//---------------dance-single - ----------------
#NOTES:
     dance-single:
     :
     Medium:
     5:
     0.266,0.280,0.091,0.151,0.000:
0000
0000
0000
0000
,
0000
0000
0000
0000
,
0010
0010
1000
0001
,
1000
1000
0100
0010
,
0001
0001
0100
0010
,
1000
0000
1000
0000
0100
0010
0100
0000
,
1000
1000
0010
0100
,
0010
0010
1000
0001
,
0100
0100
0010
1000
,
0001
0000
0001
0000
0010
0100
0010
0000
,
0001
0000
1000
0000
0100
0100
1000
0000
,
0010
0000
0100
0000
0001
0001
0010
0000
,
0001
0000
1000
0000
0010
0010
0100
0000
,
0110
0110
0110
0000
,
0010
2000
3100
0000
,
1000
0002
0103
0000
,
0001
0020
0130
0000
,
0010
0002
0103
0000
,
0010
2000
3100
0000
,
1000
0200
0301
0000
,
0100
2000
3001
0000
,
1000
0020
0130
0000
,
1010
0001
0100
0100
,
0001
1000
0100
0010
,
0001
1000
0010
0010
,
1000
0001
0100
0000
,
0110
0100
0001
0001
,
0010
0100
1000
0010
,
1000
0001
0100
0100
,
0001
0010
0010
0000
,
0201
0000
0000
0320
0000
0000
2030
0000
,
0000
0100
0100
3100
,
1000
0001
0100
0000
,
0010
0100
0001
0000
,
2010
0000
0000
3002
0000
0000
0023
0000
,
0000
0100
0100
0130
,
1000
0010
0100
0100
,
0010
0000
1000
0000
0001
1000
0001
0000
,
1001
0000
0000
0000
0000
0000
0000
0100
,
0000
0010
0000
0000
0000
0000
0000
1000
,
0000
0100
0000
0000
0000
0000
0000
0001
,
0000
0010
0000
0000
0100
0000
0100
0000
,
0110
0000
0000
0000
0000
0000
0000
0010
,
0000
0001
0000
0000
0000
0000
0000
1000
,
0000
0010
0000
0000
0000
0000
0000
0100
,
0000
0001
0000
0000
1000
1000
1000
0000
,
1100
0010
0100
0010
,
1000
0001
0010
0001
,
1000
0010
0100
0010
,
1000
0000
0001
0000
1000
0100
1000
0000
,
0100
1000
0010
0100
,
0001
0010
1000
0010
,
0001
0100
0010
1000
,
0100
0000
1000
0000
0010
0100
0010
0000
,
2001
0000
0000
3002
0000
0000
0023
0000
,
0000
0100
0100
0130
,
1000
0010
0100
0001
,
1000
0010
1000
0001
,
0102
0000
0000
2003
0000
0000
3200
0000
,
0000
0010
0010
0310
,
0010
0001
1000
0010
,
0000
0000
0000
1000
0100
0010
0001
1000
;

//---------------dance-single - ----------------
#NOTES:
     dance-single:
     :
     Hard:
     8:
     0.348,0.350,0.234,0.053,0.000: // measure 1
0000
0000
0000
0000
,  // measure 2
0000
0000
0000
0000
,  // measure 3
0010
0000
0010
0000
1000
0100
0001
0000
,  // measure 4
0010
0000
0010
0000
1000
0100
0001
0000
,  // measure 5
0010
0000
0010
0000
1000
0100
0001
0000
,  // measure 6
1000
0000
0001
0000
0100
0100
0100
0000
,  // measure 7
0001
0000
0001
0000
0010
0100
1000
0000
,  // measure 8
0001
0000
0001
0000
0010
0100
1000
0000
,  // measure 9
0001
0000
0001
0000
0010
0100
1000
0000
,  // measure 10
0001
0000
1000
0000
0100
0100
0100
0000
,  // measure 11
1000
0101
0010
1000
,  // measure 12
0001
0000
1100
0000
0010
0001
0100
0000
,  // measure 13
0010
0100
0010
0000
1000
0000
0001
0000
,  // measure 14
0100
0001
1000
0100
,  // measure 15
2100
0000
3010
0000
0100
1000
0100
0000
,  // measure 16
1000
0000
0001
0000
0100
0010
0100
0000
,  // measure 17
0001
0000
1000
0000
0001
0010
0001
0000
,  // measure 18
1000
0000
0001
0000
0100
0100
0010
0010
,  // measure 19
1000
0000
0001
0000
1000
0100
0010
0000
,  // measure 20
0001
0000
1000
0000
0010
0100
0001
0000
,  // measure 21
0100
0000
0001
0000
1000
0100
0010
0000
,  // measure 22
0001
0000
1000
0000
0010
0010
0100
0100
,  // measure 23
0001
1100
0001
0101
,  // measure 24
0010
0000
0110
0000
0001
0100
1000
0000
,  // measure 25
0010
1100
0010
0110
,  // measure 26
1000
0000
1100
0000
0010
0010
0001
0001
,  // measure 27
0100
0101
0010
1000
,  // measure 28
0001
1100
0101
1001
,  // measure 29
0010
0100
0010
0000
1000
0000
0001
0000
,  // measure 30
1000
0100
0010
0000
0001
0001
1000
1000
,  // measure 31
0010
0200
0001
0010
,  // measure 32
1000
0301
0110
0110
,  // measure 33
0001
1000
1001
1001
,  // measure 34
0100
1000
1100
1001
,  // measure 35
0101
0020
1000
0100
,  // measure 36
0001
0130
0011
0011
,  // measure 37
1000
0000
0100
0010
0001
0000
0001
0000
,  // measure 38
1000
0000
0001
0100
0010
1000
0100
0000
,  // measure 39
1100
0000
0000
0000
0000
0000
0000
0010
,  // measure 40
0000
0001
0001
0000
0000
0000
0000
0100
,  // measure 41
0000
0010
0010
0000
0000
0000
0000
1000
,  // measure 42
0000
0100
0100
0000
2000
0000
3002
0000
,  // measure 43
0003
0000
0100
0000
0010
1000
0100
0000
,  // measure 44
0000
0000
0000
0000
1000
0001
0020
0000
,  // measure 45
0000
0130
0000
0000
0010
0001
0010
0001
,  // measure 46
0000
0000
1100
0001
,  // measure 47
0110
0000
1100
0000
0001
1000
0100
0000
,  // measure 48
1100
0000
0101
0000
0100
0010
1000
0000
,  // measure 49
0001
0000
1000
0100
0010
0001
1000
0000
,  // measure 50
0010
0000
0100
0001
0100
0010
1000
0000
,  // measure 51
0001
0020
0100
0130
,  // measure 52
1000
0000
0001
0000
0100
0010
1000
0000
,  // measure 53
0001
1000
0100
0000
0010
0010
0010
0010
,  // measure 54
0001
0000
0100
0000
0010
0010
0010
0010
,  // measure 55
0100
1000
0001
0100
,  // measure 56
0010
1000
0100
0010
0001
0000
0001
0000
,  // measure 57
1000
0010
0100
0001
,  // measure 58
1000
0100
0110
1001
,  // measure 59
0110
0000
1000
0000
0010
1000
0001
0100
,  // measure 60
0010
0000
0100
0010
1000
0000
0010
0000
,  // measure 61
1000
0000
0001
0010
0100
0000
1000
0000
,  // measure 62
0001
0000
1000
0100
0010
0001
0100
0010
;

//---------------dance-single - ----------------
#NOTES:
     dance-single:
     :
     Easy:
     3:
     0.187,0.210,0.143,0.113,0.000:
0000
0000
0000
0000
,
0000
0000
0000
0000
,
0010
0000
1000
0100
,
1000
0000
0001
0010
,
0001
0000
0100
0010
,
0100
0000
0001
1000
,
0001
0000
1000
0100
,
1000
0000
0010
0100
,
0010
0000
1000
0001
,
1000
0000
0001
0010
,
0002
0000
0203
0000
,
0301
0001
0001
0000
,
0020
0000
0230
0000
,
1300
1000
1000
0000
,
1001
0000
0000
0000
,
0010
0010
0000
0000
,
1000
1000
0000
0000
,
0100
0100
0000
0000
,
1001
0000
0000
0000
,
0010
0010
0000
0000
,
0001
0001
0000
0000
,
0100
0100
0000
0000
,
0110
0000
1000
0001
,
0100
0000
0001
0010
,
0100
0000
1000
0100
,
0010
0000
0001
1000
,
0010
0000
0100
0001
,
1000
0000
0100
0001
,
0100
0000
1000
0010
,
0001
0000
0010
0100
,
0110
0000
1100
0000
,
0001
1000
0100
0100
,
1000
0000
0001
0000
,
0010
0000
0001
0000
,
0110
0000
0101
0000
,
1000
0010
0100
0100
,
0010
0000
1000
0000
,
0001
0000
1000
0000
,
0220
0000
0000
0300
,
0002
0000
0000
0030
,
2000
0000
0000
0003
,
0020
0000
0000
3030
,
0202
0000
0000
0300
,
2000
0000
0000
0003
,
0020
0000
0000
3000
,
0200
0000
0330
0000
,
1001
0000
0110
0000
,
1000
0100
0001
0000
,
0100
0000
0010
0000
,
1000
0010
0001
0000
,
0110
0000
1001
0000
,
0100
1000
0001
0000
,
0010
0001
0100
0000
,
0010
1000
0100
0000
,
1100
0000
0011
0000
,
1001
0000
0100
0100
,
0000
0000
1000
1000
,
0000
0000
0001
0001
,
1001
0000
1010
0000
,
0110
0000
0100
0100
,
0000
0000
0001
0001
,
0000
0000
2000
3001
;

//---------------dance-single - ----------------
#NOTES:
     dance-single:
     :
     Challenge:
     13:
     0.573,0.608,0.446,0.000,0.238:
0000
0000
0000
0000
,
0000
0000
0000
0000
,
0000
1000
0010
0100
0001
0010
0100
1000
,
0000
0010
1000
0001
0100
0010
1000
0100
,
0000
1000
0100
0001
0100
1000
0010
0100
,
0000
0000
0001
0000
0100
0000
0010
0000
1000
0000
0000
1000
0000
0000
1000
0000
,
0000
0100
1000
0010
0100
0001
0010
0100
,
0000
0010
0001
1000
0100
0010
0001
1000
,
0000
0010
1000
0001
0100
0010
1000
0001
,
0000
0000
0010
0000
0001
0000
0100
0000
1000
0000
0000
1000
0000
0000
1000
0000
,
0100
0000
0000
0000
1001
0000
0000
0000
1000
0000
0100
1000
0000
1000
0000
0000
,
0010
0000
1000
0000
0100
0000
0000
0000
0001
0000
0010
0001
0000
0001
0000
0000
,
0100
0000
0010
0000
0100
0000
0000
0000
0001
0000
1000
0001
0000
0001
0000
0000
,
1000
0100
0001
0100
1000
0010
0100
0001
,
0101
0000
0000
0000
0010
0000
0000
0000
1000
0100
0000
1000
0000
1000
0010
0000
,
0000
0000
0100
0000
0100
0000
0001
0000
0010
0100
0000
0010
0000
0010
0001
0000
,
0000
1000
1000
0010
0100
0001
1000
0100
,
0000
1000
1000
0001
0100
0100
0010
0010
,
1000
0000
0000
0000
0100
0000
0000
0000
1000
0000
0001
0100
0000
0100
0010
0000
,
0000
1000
1000
0000
1000
0010
0100
0001
,
0000
0010
0010
0001
1000
0100
1000
0010
,
0000
0000
0100
0000
0100
0000
0001
0000
1000
0100
1000
0100
0010
0001
0010
0001
,
0100
0010
1000
0001
0010
0100
1000
1010
,
1000
0101
0101
1000
0010
0100
0001
0011
,
1000
0110
0110
1000
0001
0100
0010
1010
,
1000
0101
0101
1000
0010
0010
0100
0100
,
1001
1000
0010
0100
0001
0010
0100
0110
,
0010
0011
0011
0100
1000
0001
0100
0110
,
1000
1100
1100
1000
0010
0100
0001
0011
,
1000
0000
1100
0000
1100
0000
1000
0000
0001
0010
0001
0010
0100
0010
0100
0010
,
0001
1000
0100
1000
0010
0100
0001
1000
,
0010
0000
0100
0010
1000
0000
0100
0000
1100
0000
0000
0000
0101
0000
0000
0000
,
0010
0000
1000
0001
0010
0000
0100
0000
1100
0000
0000
0000
0101
0000
0000
0000
,
0010
0000
1000
0001
0100
0000
0010
0000
0110
0000
1000
0000
1100
0000
0100
0000
,
0101
0010
1000
0100
0010
0001
1000
0010
,
0100
0000
0001
1000
0100
0000
0010
0000
0011
0000
0000
0000
1100
0000
0000
0000
,
0010
0000
1000
0001
0100
0000
0010
0000
0110
0000
0000
0000
1001
0000
0000
0000
,
0100
0000
1000
0001
0100
0000
0010
0000
0110
0000
0100
0000
1001
0000
0100
0000
,
1010
0000
0000
0000
0000
0000
0000
0110
,
0000
1001
1001
0000
0000
0000
0000
1100
,
0000
0011
0011
0000
0000
0000
0000
1001
,
0000
0000
0101
0000
0101
0000
0000
0000
0010
1000
0010
1000
0100
1000
0100
1000
,
0010
0100
0010
0100
0010
0100
0010
0100
,
0001
1000
0001
1000
0001
1000
0001
1000
,
0100
0010
0100
0010
0100
0010
0100
1000
,
0001
1000
0010
0100
0001
0010
0100
1000
0010
0000
0000
0000
0000
0000
0000
0000
,
1000
0010
0001
0000
0010
0000
1000
0000
0100
0000
0010
0000
0001
0000
1000
0000
,
0001
0100
1000
0000
0100
0000
0010
0000
1000
0000
0100
0000
0010
0000
0001
0000
,
1000
0001
0100
0000
0010
0000
1000
0000
0001
0000
0010
0000
0100
0000
1000
0000
,
0010
0100
0001
0000
1000
0000
0100
0000
1100
0000
1100
0000
0101
0000
0101
0000
,
0010
1000
0001
0000
0010
0000
0100
0000
1000
0000
0001
0000
0100
0000
0010
0000
,
1000
0100
0001
0000
0100
0000
1000
0000
0010
0000
0100
0000
0001
0000
0010
0000
,
0100
0010
0001
0000
0100
0000
0010
0000
1000
0000
0001
0000
0010
0000
0100
0000
,
1000
0010
0001
0000
0010
0000
1000
0000
0100
1000
0100
1000
0010
0100
0010
0100
,
0001
1000
0100
0010
0001
0100
0100
0010
,
0010
0000
1000
0100
0001
0000
0100
0000
1100
0000
0100
0000
1001
0000
0000
0000
,
0010
0000
1000
0001
0010
0000
0100
0000
1100
0000
0010
0000
0011
0000
0000
0000
,
1000
0000
0001
0100
0010
0000
1000
0000
0101
0000
1000
0000
1100
0000
0010
0000
,
0110
0000
1000
0100
0001
0000
0100
1000
0010
0000
0100
0001
0010
0000
0100
1000
,
0010
0100
0001
1000
1010
0100
1001
0000
,
0100
0000
1000
0001
0010
0000
0100
0000
0110
0000
1000
0000
1001
0000
0000
0000
,
0010
0000
0100
0001
1000
0000
0010
0000
1000
0010
0100
0001
0010
0100
1000
0010
;
