#TITLE:I Just Can't Wait To Be King;
#SUBTITLE:;
#ARTIST:Disney Grooves;
#TITLETRANSLIT:;
#SUBTITLETRANSLIT:;
#ARTISTTRANSLIT:;
#CREDIT:;
#BANNER:;
#BACKGROUND:;
#LYRICSPATH:;
#CDTITLE:./CDTITLES/DanceDanceRevolution Disney Grooves.png;
#MUSIC:I Just Can't Wait To Be King.mp3;
#OFFSET:-0.111;
#SAMPLESTART:8.400;
#SAMPLELENGTH:15.000;
#SELECTABLE:YES;
#BPMS:0.000=116.000;
#STOPS:;
#BGCHANGES:;

//---------------dance-single - ----------------
#NOTES:
     dance-single:
     :
     Beginner:
     1:
     0.107,0.119,0.000,0.000,0.000:
0000
0000
0000
0000
,
0000
0000
0000
0000
,
0000
0000
0000
0000
,
0000
0000
0000
0000
,
0001
0000
0000
0000
,
1000
0000
0000
0000
,
1000
0000
0000
0000
,
0001
0000
0000
0000
,
0001
0001
0000
0000
,
1000
1000
0000
0000
,
1000
1000
0000
0000
,
0001
0001
0000
0000
,
1000
0000
1000
0000
,
0100
0000
0000
0000
,
0001
0000
1000
0000
,
0001
0001
0000
0000
,
1000
1000
0000
0000
,
0001
0000
0001
0000
,
1000
0000
0000
0000
,
1000
0000
1000
0000
,
0001
0000
0000
0000
,
1000
0000
1000
0000
,
0010
0010
0000
0000
,
0001
0000
0001
0000
,
0010
0010
0000
0000
,
0001
0000
0001
0000
,
0100
0000
0000
0000
,
1000
0000
0001
0000
,
1000
1000
0000
0000
,
0001
0001
0000
0000
,
0010
0000
0010
0000
,
0100
0000
0100
0000
,
1000
0000
0010
0000
,
0001
0000
0010
0000
,
1000
0000
0001
0000
,
1000
0000
0000
0000
,
0010
0000
1000
0000
,
0100
0000
0000
0000
,
0001
0000
1000
0000
,
0001
0000
0000
0000
,
0010
0000
0001
0000
,
0100
0000
0000
0000
,
0001
0001
0000
0000
,
1000
1000
0000
0000
,
0001
0000
1000
0000
,
0001
0000
0000
0000
;

//---------------dance-single - ----------------
#NOTES:
     dance-single:
     :
     Easy:
     2:
     0.155,0.166,0.000,0.000,0.000:
0000
0000
0000
0000
,
0000
0000
0000
0000
,
0000
0000
0000
0000
,
0000
0000
0000
0000
,
0001
0000
0001
0000
,
1000
1000
1000
0000
,
1000
0000
1000
0000
,
0001
0001
0001
0000
,
0001
0001
0000
0001
,
1000
1000
0000
1000
,
1000
1000
0000
1000
,
0001
0001
0000
0001
,
1000
0000
1000
0000
,
0100
0000
0100
0000
,
0001
0000
1000
0000
,
0001
0001
0001
0000
,
1000
1000
1000
0000
,
0001
0000
0001
0000
,
1000
1000
1000
0000
,
1000
0000
1000
0000
,
0001
0001
0001
0000
,
1000
0000
1000
0000
,
0010
0010
0010
0000
,
0001
0000
0001
0000
,
0010
0010
0010
0000
,
0001
0000
0001
0000
,
0100
0100
0100
0000
,
1000
0000
0001
0000
,
1000
1000
1000
0000
,
0001
0001
0001
0000
,
0010
0000
0010
0000
,
0100
0000
0100
0000
,
1000
1000
0010
0000
,
0001
0001
0010
0000
,
1000
1000
0001
0001
,
1000
0000
1000
0000
,
0010
0000
1000
0000
,
0100
0000
0000
0000
,
0001
0000
1000
0000
,
0001
0000
1000
1000
,
0010
0000
0001
0000
,
0100
0000
0000
0000
,
0001
0001
0000
0001
,
1000
1000
0000
1000
,
0001
0000
1000
0000
,
0001
0000
0000
0000
;

//---------------dance-single - ----------------
#NOTES:
     dance-single:
     :
     Medium:
     4:
     0.226,0.214,0.137,0.021,0.000:
0000
0000
0000
0000
,
0000
0000
0000
0000
,
0000
0000
0000
0000
,
0000
0000
0000
0000
,
1000
0010
0100
0100
,
0001
0010
0001
0000
,
0001
0010
0100
0100
,
1000
0001
1001
0000
,
1000
0010
0100
0100
,
0001
0010
0001
0000
,
0001
0010
0100
0100
,
0001
1000
1001
0000
,
0001
0001
1000
1000
,
0001
0010
1000
0000
,
1001
0000
0110
0000
,
0001
0001
0001
0001
,
1000
1000
1000
1000
,
0001
0010
0100
0100
,
1000
0010
1000
0000
,
1000
0010
0100
0100
,
0001
1000
1001
0000
,
0001
0010
0100
0100
,
1000
0010
1000
0000
,
1000
0010
0100
0100
,
1000
0001
1001
0000
,
1000
1000
0001
0001
,
1000
0010
0001
0000
,
1001
0000
0110
0000
,
1000
1000
1000
1000
,
0001
0001
0001
0001
,
0100
1000
0001
0000
,
0100
0001
1000
0000
,
0010
0001
0100
0000
,
0010
1000
0100
0000
,
0010
0010
0100
0100
,
0001
1000
0001
0000
,
0110
0000
1001
0000
,
0020
0000
0000
0030
,
0100
0100
0010
0010
,
1000
0001
1000
0000
,
0110
0000
1001
0000
,
0020
0000
0000
0030
,
1000
1000
0001
1000
,
0001
0001
1000
0001
,
1000
1000
0001
0001
,
1001
0000
0000
0000
;

//---------------dance-single - ----------------
#NOTES:
     dance-single:
     :
     Hard:
     7:
     0.303,0.285,0.137,0.095,0.000:
0000
0000
0000
0000
,
0000
0000
0000
0000
,
0000
0000
0000
0000
,
0000
0000
0000
0000
,
0001
0000
0100
0000
0010
0100
0001
0000
,
0010
1000
0100
0001
,
1000
0000
0100
0000
0010
0100
1000
0000
,
0001
1000
1001
0000
,
0001
0000
0100
0000
0010
0100
0001
0000
,
0010
1000
0100
0001
,
1000
0000
0100
0000
0010
0100
1000
0000
,
1000
0001
1001
0000
,
1000
0100
0001
0000
1000
0100
0001
0000
,
1000
0100
0001
0100
,
1010
0100
0011
0100
,
2000
0100
0100
3100
,
0002
0100
0100
0103
,
1000
0000
0100
0000
0010
0100
1000
0000
,
0010
0001
0100
1000
,
0001
0000
0100
0000
0010
0100
0001
0000
,
1000
0001
1001
0000
,
1000
0000
0100
0000
0010
0100
1000
0000
,
0010
0001
0100
1000
,
0001
0000
0100
0000
0010
0100
0001
0000
,
0001
1000
1001
0000
,
0001
0100
1000
0000
0001
0100
1000
0000
,
0001
0100
1000
0100
,
0011
0100
1010
0100
,
0002
0100
0100
0103
,
2000
0100
0100
3100
,
0010
0000
0001
0000
1000
0100
1000
0000
,
0010
0000
1000
0000
0001
0100
0001
0000
,
0100
1000
0010
0001
,
0100
0001
0010
1000
,
0010
0001
0100
0000
0010
1000
0100
0000
,
1000
0010
0100
0001
,
0011
0100
1010
0100
,
0002
0100
0100
0103
,
0010
1000
0100
0000
0010
0001
0100
0000
,
0001
0010
0100
1000
,
1010
0100
0011
0100
,
2000
0100
0100
3100
,
0002
0010
1000
0103
,
2000
0010
0001
3100
,
0002
0100
0100
0103
,
1001
0000
0000
0000
;
