#VERSION:0.82;
#TITLE:Break Free;
#SUBTITLE:;
#ARTIST:Arianna Grande ft. Zedd;
#TITLETRANSLIT:;
#SUBTITLETRANSLIT:;
#ARTISTTRANSLIT:;
#GENRE:Fiesta 2?;
#ORIGIN:;
#CREDIT:;
#BANNER:Break Free.png;
#BACKGROUND:Break Free-bg.png;
#PREVIEWVID:;
#JACKET:jacket.png;
#CDIMAGE:;
#DISCIMAGE:;
#LYRICSPATH:;
#CDTITLE:;
#MUSIC:Break Free.ogg;
#OFFSET:-0.175000;
#SAMPLESTART:73.979485;
#SAMPLELENGTH:13.714000;
#SELECTABLE:YES;
#DISPLAYBPM:130.000000;
#BPMS:0.000=130.000,
159.000=132.500,
160.000=130.000;
#STOPS:;
#DELAYS:;
#WARPS:;
#TIMESIGNATURES:0.000=4=4;
#TICKCOUNTS:0.000=4;
#COMBOS:0.000=1;
#SPEEDS:0.000=1.000=0.000=0;
#SCROLLS:0.000=1.000;
#FAKES:;
#LABELS:0.000=Song Start;
#BGCHANGES:4.000=Break Free.avi=1.000=0=0=1=====,
99999=-nosongbg-=1.000=0=0=0 // don't automatically add -songbackground-
;
#KEYSOUNDS:;
#ATTACKS:
;

//---------------dance-single - ----------------
#NOTEDATA:;
#CHARTNAME:;
#STEPSTYPE:dance-single;
#DESCRIPTION:;
#CHARTSTYLE:;
#DIFFICULTY:Hard;
#METER:9;
#RADARVALUES:0.589404,0.714121,0.114153,0.130461,0.391383,476.000000,14.000000,16.000000,0.000000,0.000000,0.000000,0.000000,0.000000,0.589404,0.714121,0.114153,0.130461,0.391383,476.000000,14.000000,16.000000,0.000000,0.000000,0.000000,0.000000,0.000000;
#CREDIT:Ben Speirs;
#DISPLAYBPM:130.000000;
#NOTES:
// measure 0
0000
0000
0000
0000
,  // measure 1
0000
0000
0000
0000
,  // measure 2
0000
0000
0000
0000
,  // measure 3
0000
0000
0000
0000
,  // measure 4
1100
0100
0010
0000
0001
0000
1001
0000
,  // measure 5
0101
0100
0010
0000
1000
0000
1001
0000
,  // measure 6
0010
0000
1000
0100
0010
0001
1000
0010
,  // measure 7
0100
0000
0001
0000
1000
0100
0010
0000
,  // measure 8
0011
0001
1000
0000
0010
0000
1001
0000
,  // measure 9
1010
1000
0001
0000
0010
0000
1001
0000
,  // measure 10
0001
0000
1000
0100
0010
0001
1000
0010
,  // measure 11
0100
0000
0001
0000
0100
0102
1000
0000
,  // measure 12
1003
0010
0120
0000
1030
1000
0001
1000
,  // measure 13
0010
0100
0001
1000
0001
0000
0100
0001
,  // measure 14
1000
1000
0100
1000
0001
0001
0100
0001
,  // measure 15
1000
1000
1000
0000
0010
1000
0100
2100
,  // measure 16
0001
0000
3020
0000
0130
0100
0001
1000
,  // measure 17
0100
0010
0001
1000
0001
0000
0100
0001
,  // measure 18
1000
1000
0100
1000
0001
0001
0100
0001
,  // measure 19
1000
0010
0001
0010
1000
0100
0001
0100
,  // measure 20
1100
0000
0001
0100
0000
0100
0010
0000
,  // measure 21
1000
0000
0001
0010
0000
0010
0001
1000
,  // measure 22
0100
0000
1000
0100
0001
0010
0000
0001
,  // measure 23
0001
1000
0010
0100
0100
0001
1000
0100
,  // measure 24
0100
0000
1000
0001
0000
0010
0100
0000
,  // measure 25
1000
0100
0010
0001
0000
0100
0001
1000
,  // measure 26
0010
0010
0100
0001
0000
0000
1000
0001
,  // measure 27
0100
0010
1000
0100
0010
0001
1000
0010
,  // measure 28
0100
0000
0000
0000
0001
1000
0001
0000
0000
0000
0100
0000
0100
0000
0000
0000
,  // measure 29
0010
0000
0000
0000
1000
0100
1000
0000
0000
0000
0001
0000
0000
0000
1000
0000
,  // measure 30
0010
0000
0000
0000
0100
0001
0100
0000
0010
0000
1000
0000
0000
0000
0000
0000
,  // measure 31
0001
0000
0000
0000
1000
0100
1000
0000
0001
0000
0010
0000
0100
0000
1000
0000
,  // measure 32
0001
0000
0000
0000
0100
0010
0100
0000
0000
0000
0001
0000
0001
0000
0000
0000
,  // measure 33
1000
0000
0000
0000
0100
0010
0100
0000
1000
0000
0100
0000
0010
0000
0001
0000
,  // measure 34
2000
0000
0000
0002
0000
0000
3003
0000
,  // measure 35
0001
0000
0000
0100
0000
0000
0010
0000
0010
0000
0000
1000
0000
0000
0100
0000
,  // measure 36
1000
0001
1000
0001
1000
0001
1000
0001
,  // measure 37
0100
0010
0100
0010
0100
0010
0100
0010
,  // measure 38
1000
0100
0001
0010
1000
0100
0001
0010
,  // measure 39
0001
1000
0001
1000
0001
1000
0001
1000
0001
1000
0001
1000
0001
0000
0000
0000
,  // measure 40
0110
0000
0100
0000
0001
1000
0001
0000
0100
0000
0010
0000
1000
0000
0100
0000
,  // measure 41
0010
0000
0001
0000
1000
0010
1000
0000
0001
0000
0010
0000
0100
0000
1000
0000
,  // measure 42
0002
0000
0000
0000
0103
0010
0100
0010
1000
0010
1000
0000
0001
0000
0000
0000
,  // measure 43
1000
0100
0010
0001
0100
0010
1000
0001
,  // measure 44
0100
0000
0000
0000
0001
1000
0001
0000
0100
0000
0010
0000
1000
0000
0001
0000
,  // measure 45
0010
0000
0100
0000
1000
0001
1000
0000
0010
0000
0100
0000
0001
0000
1000
0000
,  // measure 46
0010
0000
0100
0000
0001
0010
0001
0000
1000
0000
0001
0000
0010
0000
0001
0000
,  // measure 47
1000
0000
1000
0100
0000
0100
0010
0000
0001
0000
0001
1000
0000
1000
0010
0000
,  // measure 48
1010
0000
0010
0000
1000
0001
1000
0000
0010
0000
0100
0000
0001
0000
0010
0000
,  // measure 49
0100
0000
1000
0000
0001
0100
0001
0000
1000
0000
0100
0000
0010
0000
0001
0000
,  // measure 50
2000
0000
0000
0000
3010
0100
0010
0100
0001
0100
0001
0000
1000
0000
0000
0000
,  // measure 51
0001
0010
0100
1000
0010
0100
0001
1000
,  // measure 52
0010
0000
0000
0000
1000
0001
1000
0000
0010
0000
0100
0000
0001
0000
1000
0000
,  // measure 53
0100
0000
0010
0000
0001
1000
0001
0000
0100
0000
0010
0000
1000
0000
0001
0000
,  // measure 54
0100
0000
0010
0000
1000
0100
1000
0000
0001
0000
1000
0000
0100
0000
1000
0000
,  // measure 55
0001
0100
0001
0100
0001
0100
0001
0100
0001
1000
0000
0000
,  // measure 56
0001
0010
0001
1000
0010
1000
0001
0010
0001
2000
0000
0000
,  // measure 57
3001
0010
0001
1000
0010
1000
0001
0010
0001
2000
0000
0000
,  // measure 58
3001
0100
0001
1000
0100
1000
0001
0100
0001
2000
0000
0000
,  // measure 59
3001
0100
0001
1000
0100
1000
0001
0100
1000
0001
0010
1000
,  // measure 60
0001
0010
0001
1000
0010
1000
0001
0010
0001
2000
0000
0000
,  // measure 61
3001
0100
0001
1000
0100
1000
0001
0100
0001
2000
0000
0000
,  // measure 62
3001
0010
0100
1000
0010
0100
0001
0010
0100
2000
0000
0000
,  // measure 63
3010
0100
0001
0010
0100
1000
0010
0100
0001
2000
0000
0000
,  // measure 64
3001
0100
0001
0100
0001
0100
0001
0100
0001
0100
0001
0100
0020
0000
1030
0000
;

//---------------dance-single - ----------------
#NOTEDATA:;
#CHARTNAME:;
#STEPSTYPE:dance-single;
#DESCRIPTION:;
#CHARTSTYLE:;
#DIFFICULTY:Medium;
#METER:6;
#RADARVALUES:0.404196,0.449632,0.122307,0.154922,0.101923,313.000000,15.000000,19.000000,0.000000,0.000000,0.000000,0.000000,0.000000,0.404196,0.449632,0.122307,0.154922,0.101923,313.000000,15.000000,19.000000,0.000000,0.000000,0.000000,0.000000,0.000000;
#CREDIT:Ben Speirs;
#DISPLAYBPM:130.000000;
#NOTES:
0000
0000
0000
0000
,
0000
0000
0000
0000
,
0000
0000
0000
0000
,
0000
0000
0000
0000
,
1000
0100
1000
0000
0010
0000
0100
0000
,
0001
1000
0001
0000
0010
0000
0001
0000
,
1000
0000
0010
0000
0100
0000
0001
1000
,
0100
0010
0001
1000
,
0010
0100
0010
0000
1000
0000
0001
0000
,
0010
0100
0010
0000
0001
0000
1000
0000
,
0010
0000
0100
0000
0001
0010
0100
0000
,
1000
0000
0001
0000
0100
0020
0000
0000
,
1030
0002
0103
0020
,
1030
0000
0100
0010
0001
0000
0000
0000
,
2000
3100
0020
0031
,
1000
0001
1000
0000
0010
0000
0100
0002
,
0000
0000
2003
0000
3100
0000
0010
0001
,
2000
3010
0200
0301
,
1000
0100
1000
0000
0001
0100
0001
0000
,
2000
3200
0320
0032
,
1003
0000
0000
0010
0000
0010
0000
0000
,
0100
0000
0001
1000
0000
1000
0000
0100
,
0010
0000
0001
0010
0100
1000
0000
0000
,
0001
0100
0001
0000
1000
0000
0100
0010
,
0001
0000
0000
1000
0000
1000
0000
0000
,
0010
0000
0100
0001
0000
0001
0000
1000
,
0100
0000
0010
0001
0000
0000
0000
0000
,
1000
0001
0100
0010
,
1001
0100
0010
1000
,
1100
0000
0010
0000
1000
0000
0100
0010
,
0001
0000
1000
0001
1000
0001
0100
0000
,
0010
0000
1000
0000
0001
0000
0010
0100
,
1000
0000
0001
0000
1000
0000
0010
0100
,
0001
0000
1000
0000
0001
0000
0010
0001
,
1000
0000
0100
0000
1000
0001
0100
0000
,
0001
1000
0001
1000
0010
0100
0010
0000
,
0101
1100
0101
1100
,
0011
1010
0011
1010
,
0001
1000
0001
1000
0001
1000
0001
1000
,
0010
0100
0001
0010
0100
1000
0001
0000
,
1100
0000
0001
0100
0010
1000
0001
0000
,
1000
0000
0100
0010
0000
0010
0000
0001
,
1000
0000
0010
0100
0010
0100
0001
0000
,
1000
0000
0001
0000
0010
0000
0001
1000
,
0100
0000
0010
0001
1000
0001
0100
0000
,
0010
0000
1000
0000
0001
0000
0010
0001
,
2000
0000
0000
0200
0000
0000
3300
0000
,
1000
0000
0001
0000
0100
0000
0010
1000
,
0001
0000
1000
0100
1000
0001
0100
0000
,
0010
0000
1000
0001
0000
0001
0000
1000
,
0100
0000
1000
0001
1000
0001
0000
0000
,
1000
0100
0010
0001
0100
0010
1000
0000
,
0001
0000
0101
0000
1000
0000
0001
0010
,
0100
1000
0001
1100
,
0102
0000
0000
2000
0000
0000
3003
0000
,
0020
0000
0000
0130
,
1001
0000
1000
0100
0000
0100
0010
0000
0010
0001
0000
0000
,
1000
0000
1000
0001
0000
0001
0100
0000
0100
0010
0000
0000
,
1000
0000
1000
0001
0000
0001
0010
0000
0010
0100
0000
0000
,
1000
0000
1000
0001
0000
0001
0100
0000
0010
1000
0000
0100
,
0010
0000
0010
0001
0000
0001
1000
0000
1000
0010
0000
0000
,
0100
0000
0100
0001
0000
0001
1000
0000
1000
0100
0000
0000
,
0010
0000
0010
0001
0000
0001
1000
0000
1000
0010
0000
0000
,
0100
0000
0100
0001
0000
0001
1000
0000
1000
0010
0000
0000
,
1000
0001
1000
0001
1000
0001
0200
0300
;

//---------------dance-single - ----------------
#NOTEDATA:;
#CHARTNAME:;
#STEPSTYPE:dance-single;
#DESCRIPTION:;
#CHARTSTYLE:;
#DIFFICULTY:Easy;
#METER:3;
#RADARVALUES:0.222483,0.316776,0.114153,0.040769,0.000000,172.000000,14.000000,5.000000,0.000000,0.000000,0.000000,0.000000,0.000000,0.222483,0.316776,0.114153,0.040769,0.000000,172.000000,14.000000,5.000000,0.000000,0.000000,0.000000,0.000000,0.000000;
#CREDIT:Ben Speirs;
#DISPLAYBPM:130.000000;
#NOTES:
0000
0000
0000
0000
,
0000
0000
0000
0000
,
0000
0000
0000
0000
,
0000
0000
0000
0000
,
0100
0010
1000
0000
,
0100
0010
0001
0000
,
1000
0000
0001
0000
,
0100
0000
0010
0000
,
1000
0001
0010
0000
,
0001
1000
0010
0000
,
0100
0000
0001
0010
,
0100
0000
1000
0000
,
1001
0000
0100
0000
,
0001
1000
0010
0000
,
1000
0100
1000
0100
,
0010
0001
1000
0000
,
0010
0000
0100
0000
,
0001
1000
0001
0000
,
0100
0001
0100
0001
,
1000
0010
0100
0000
,
1001
0000
0000
0000
,
0100
0000
0000
0000
,
1000
0100
0010
0000
,
0001
1000
0010
1000
,
0001
0000
0000
0000
,
0100
0000
0000
0000
,
0010
0000
0010
0000
,
1000
0100
0010
0001
,
1001
0000
1000
0100
,
1000
0000
0001
0100
,
0010
0010
0010
0000
,
1000
0000
0001
1000
,
0100
0000
0010
0010
,
0001
0000
1000
0000
,
0010
0100
0010
0000
,
1000
0010
0100
0001
,
1000
1000
1000
0000
,
0001
0001
0001
0000
,
0100
0010
0100
0010
,
1000
0100
0010
0000
,
1001
0000
1000
0010
,
0010
0000
1000
0010
,
0100
0100
0100
0000
,
0001
1000
0100
0000
,
0110
0000
1001
0000
,
1000
0001
1000
0000
,
0010
0000
0010
0000
,
0100
0100
0001
0001
,
1000
0000
1001
1001
,
0000
0000
0110
0110
,
0000
0010
1000
0001
,
0010
0100
1000
0000
,
1001
0000
0100
0100
,
1000
0000
0010
0000
,
1001
0000
0110
0000
,
2000
0000
3000
0001
,
0100
0100
0100
0000
,
0010
0010
0010
0000
,
1000
1000
1000
0000
,
0001
0001
0001
0000
,
1000
0100
0010
0002
,
1003
0100
0010
0002
,
1003
0100
0010
0002
,
1003
0100
0010
0002
,
1003
0000
0000
1001
;

//---------------dance-single - ----------------
#NOTEDATA:;
#CHARTNAME:;
#STEPSTYPE:dance-single;
#DESCRIPTION:;
#CHARTSTYLE:;
#DIFFICULTY:Beginner;
#METER:2;
#RADARVALUES:0.128131,0.184786,0.089692,0.000000,0.000000,99.000000,11.000000,0.000000,0.000000,0.000000,0.000000,0.000000,0.000000,0.128131,0.184786,0.089692,0.000000,0.000000,99.000000,11.000000,0.000000,0.000000,0.000000,0.000000,0.000000,0.000000;
#CREDIT:Ben Speirs;
#DISPLAYBPM:130.000000;
#NOTES:
0000
0000
0000
0000
,
0000
0000
0000
0000
,
0000
0000
0000
0000
,
0000
0000
0000
0000
,
1000
0000
0000
0000
,
0001
0000
0000
0000
,
0100
0000
0100
0000
,
0010
0000
0000
0000
,
1000
0000
0000
0000
,
0001
0000
0000
0000
,
0010
0000
0010
0000
,
0100
0000
0000
0000
,
1000
0000
0000
0000
,
0001
0000
0000
0000
,
0100
0000
0100
0000
,
0010
0010
0000
0000
,
1000
0000
0000
0000
,
0001
0000
0000
0000
,
0010
0000
0010
0000
,
0100
0100
0000
0000
,
1001
0000
0000
0000
,
1000
0000
0000
0000
,
0010
0000
0010
0000
,
0100
0000
0100
0000
,
0001
0000
0000
0000
,
1000
0000
0000
0000
,
0100
0000
0100
0000
,
0010
0000
0000
0000
,
0110
0000
0000
0000
,
0010
0000
0001
0000
,
1000
1000
1000
0000
,
1000
0000
0000
0000
,
0010
0000
0010
0000
,
0100
0000
0100
0000
,
0001
0001
0000
0000
,
1000
0000
1000
0000
,
0001
0000
0000
0000
,
0100
0000
0000
0000
,
0010
0000
0010
0000
,
1000
1000
1000
0000
,
1001
0000
0100
0100
,
0000
0000
0010
0010
,
0010
0000
0000
0000
,
0001
0000
1000
0000
,
0010
0000
0100
0100
,
0000
0000
0010
0010
,
0010
0000
0000
0000
,
1000
0000
0001
0000
,
1001
0000
1000
1000
,
0000
0000
0100
0100
,
0100
0000
0000
0000
,
0010
0000
0010
0000
,
0001
0000
1000
1000
,
0000
0000
0010
0010
,
0010
0000
1000
0000
,
0001
0000
0000
0000
,
0100
0000
0000
1001
,
0000
0000
0000
1001
,
0000
0000
0000
1001
,
0000
0000
0010
0010
,
0010
0000
0000
1001
,
0000
0000
0000
1001
,
0000
0000
0000
1001
,
0000
0000
0000
1001
,
0000
0000
0000
0010
;

//---------------dance-double - ----------------
#NOTEDATA:;
#CHARTNAME:;
#STEPSTYPE:dance-double;
#DESCRIPTION:;
#CHARTSTYLE:;
#DIFFICULTY:Challenge;
#METER:9;
#RADARVALUES:0.609206,0.714121,0.138615,0.154922,0.419921,487.000000,17.000000,19.000000,0.000000,0.000000,0.000000,0.000000,0.000000,0.609206,0.714121,0.138615,0.154922,0.419921,487.000000,17.000000,19.000000,0.000000,0.000000,0.000000,0.000000,0.000000;
#CREDIT:Ben Speirs;
#DISPLAYBPM:130.000000;
#NOTES:
00000000
00000000
00000000
00000000
,
00000000
00000000
00000000
00000000
,
00000000
00000000
00000000
00000000
,
00000000
00000000
00000000
00000000
,
10000000
01000000
00010000
01000000
10000000
00000000
11000000
00000000
,
00010000
01000000
10000000
01000000
00010000
00000000
01010000
00000000
,
10000000
00000000
00010000
00100000
00100000
00001000
00010000
00001000
,
00002000
00000000
00100000
00000000
00013000
00000000
00010100
00000100
,
00001000
00000100
00000001
00000100
00001000
00000000
00001100
00000000
,
00000001
00000100
00001000
00000100
00000001
00000000
00000101
00000000
,
00001000
00000000
00000001
00000001
00001000
00000100
00000100
00010000
,
00020000
00000000
00001000
00000000
00030100
00011000
00000000
00000000
,
00101000
00000000
00011000
00000000
00001000
00010000
00100000
10000000
,
02000000
00000000
03100000
00010000
20000000
00000000
30010000
00000000
,
10000000
00100000
01000000
00100000
10000000
01000000
00010000
00001000
,
00010000
00010000
00010000
00000000
00001000
00100000
00001000
00011000
,
00010000
00000000
00011000
00000000
00010000
00001000
00000100
00000001
,
00000020
00000000
00000130
00001000
00000002
00000000
00001003
00000000
,
00000001
00000100
00000010
00000100
00000001
00000010
00001000
00010000
,
00001000
00001000
00001000
00000000
00010000
00001000
01000000
00010000
,
01010000
00000000
10000000
01000000
00000000
01000000
00100000
00000000
,
00010000
00000000
10000000
00100000
00000000
01000000
00010000
10000000
,
01000000
00000000
00100000
00100000
00100000
00100000
00000000
00010000
,
00010000
10000000
01000000
00010000
00001000
00000100
00000001
00001000
,
00000001
00000000
00001000
00000100
00000000
00000100
00000010
00000000
,
00000001
00000000
00000100
00000010
00000000
00000010
00001000
00000100
,
00020000
00000000
00000000
00000200
00000000
00000000
00030300
00000000
,
00010000
00001000
00010000
00000100
00010000
00010000
00001000
00100000
,
00110000
00000000
00000000
00000000
10000000
01000000
10000000
00000000
00010000
00000000
00000000
00000000
01000000
00000000
00000000
00000000
,
00100000
00000000
00000000
00000000
10000000
00010000
10000000
00000000
01000000
00000000
00000000
00000000
10000000
00000000
01000000
00000000
,
00200000
00000000
00001000
00001000
00001000
00301000
00010000
00001000
,
00000100
00000001
00000100
00001000
00010000
01000000
10000000
01000000
,
00100000
00000000
00000000
00000000
00010000
00100000
00010000
00000000
10000000
00000000
00000000
00000000
00100000
00000000
00000000
00000000
,
01000000
00000000
00000000
00000000
00010000
10000000
00010000
00000000
10000000
00000000
01000000
00000000
00100000
00000000
00010000
00000000
,
02000000
00000000
00000000
00002000
00000000
00000000
03003000
00000000
,
01000000
00001000
00010000
00001000
00100000
00001000
01000000
00001000
,
00010000
00000100
00010000
00000100
00001000
00000010
00001000
00000010
,
00010000
00001000
00010000
00001000
01000000
00010000
01000000
00010000
,
10000000
01000000
00010000
00001000
00000100
00000001
00000010
00000010
,
00000001
00001000
00000001
00001000
00000001
00001000
00000001
00001000
00000100
00010000
00000100
00010000
00001000
00000000
00000000
00000000
,
00011000
00000000
00001000
00000000
00100000
00010000
01000000
00000000
00100000
00000000
10000000
00000000
01000000
00000000
00100000
00000000
,
00010000
00000000
10000000
00000000
00100000
01000000
00010000
00000000
10000000
00000000
00010000
00000000
10000000
00000000
01000000
00000000
,
00100000
00000000
00010000
00000000
01000000
00010000
01000000
00010000
00100000
00001000
00100000
00001000
00010000
00000000
00000000
00000000
,
00001000
00010000
00000100
00000100
00001000
00000010
00000100
00000001
,
00001001
00000000
00001000
00000000
00000100
00000010
00000100
00000000
00001000
00000000
00000010
00000000
00000100
00000000
00000001
00000000
,
00001000
00000000
00000010
00000000
00000100
00000001
00000100
00000000
00000010
00000000
00001000
00000000
00000100
00000000
00010000
00000000
,
00000100
00001000
00000100
00001000
00000100
00001000
00000010
00000100
00000010
00000100
00000010
00000100
00000001
00000000
00000000
00000000
,
00000100
00000000
00000001
00000100
00000001
00000000
00001000
00000100
00001000
00000000
00000100
00010000
00000100
00000000
00010000
00000000
,
00011000
00000000
00010000
00000000
00000100
00001000
00000010
00000000
00000100
00000000
00000001
00000000
00000010
00000000
00000100
00000000
,
00001000
00000000
00000001
00000000
00000100
00000010
00001000
00000000
00000001
00000000
00001000
00000000
00000001
00000000
00000010
00000000
,
00000100
00000000
00001000
00000000
00000010
00001000
00000010
00001000
00000100
00010000
00000100
00010000
00001000
00000000
00000000
00000000
,
00010000
00001000
00100000
00100000
00010000
01000000
00100000
10000000
,
10010000
00000000
00010000
00000000
00100000
01000000
00100000
00000000
00010000
00000000
01000000
00000000
00100000
00000000
10000000
00000000
,
00010000
00000000
01000000
00000000
00100000
10000000
00100000
00000000
01000000
00000000
00010000
00000000
00100000
00000000
00001000
00000000
,
00100000
00010000
00100000
00010000
00100000
00010000
01000000
00100000
01000000
00100000
01000000
00100000
10000000
00000000
00000000
00000000
,
00100000
10000000
00100000
01000000
00010000
01000000
00100000
10000000
00100000
10010000
00000000
00000000
,
10000000
01000000
10000000
00010000
01000000
00010000
10000000
01000000
00100000
00020000
00000000
00000000
,
01030000
00100000
01000000
00010000
00100000
00010000
01000000
00100000
01000000
00002000
00000000
00000000
,
00103000
00010000
00100000
00001000
00010000
00001000
00100000
00001000
00010000
00000200
00000000
00000000
,
00001300
00000001
00001000
00000010
00000100
00000010
00001000
00000100
00000001
00001000
00000010
00000001
,
00000100
00000010
00001000
00000010
00000100
00000001
00000100
00000010
00001000
00000200
00000000
00000000
,
00001300
00000100
00000001
00000100
00001000
00000010
00000001
00000010
00001000
00000200
00000000
00000000
,
00010300
00000100
00000100
00010000
00001000
00001000
00100000
00010000
01000000
00200000
00000000
00000000
,
10300000
00010000
00010000
01000000
00100000
00100000
10000000
01000000
00100000
00020000
00000000
00000000
,
10030000
01000000
10000000
01000000
10000000
01000000
10000000
01000000
10000000
01000000
10000000
01000000
00200000
00000000
00310000
00000000
;
