#VERSION:0.82;
#TITLE:Royals;
#SUBTITLE:;
#ARTIST:Lorde;
#TITLETRANSLIT:;
#SUBTITLETRANSLIT:;
#ARTISTTRANSLIT:;
#GENRE:You CAN Call Her Queen Bee;
#ORIGIN:;
#CREDIT:;
#BANNER:Royals.png;
#BACKGROUND:Royals-bg.png;
#PREVIEWVID:;
#JACKET:jacket.png;
#CDIMAGE:;
#DISCIMAGE:;
#LYRICSPATH:;
#CDTITLE:;
#MUSIC:Royals.ogg;
#OFFSET:-1.000000;
#SAMPLESTART:90.235092;
#SAMPLELENGTH:13.714000;
#SELECTABLE:YES;
#BPMS:0.000=85.000;
#STOPS:;
#DELAYS:;
#WARPS:;
#TIMESIGNATURES:0.000=4=4;
#TICKCOUNTS:0.000=4;
#COMBOS:0.000=1;
#SPEEDS:0.000=1.000=0.000=0;
#SCROLLS:0.000=1.000;
#FAKES:;
#LABELS:0.000=Song Start;
#BGCHANGES:0.000=Royals.avi=1.000=0=0=1=====,
99999=-nosongbg-=1.000=0=0=0 // don't automatically add -songbackground-
;
#KEYSOUNDS:;
#ATTACKS:
;

//---------------dance-single - ----------------
#NOTEDATA:;
#CHARTNAME:;
#STEPSTYPE:dance-single;
#DESCRIPTION:;
#CHARTSTYLE:;
#DIFFICULTY:Hard;
#METER:8;
#RADARVALUES:0.481746,0.511931,0.196855,0.188297,0.410829,349.000000,23.000000,22.000000,0.000000,0.000000,0.000000,0.000000,0.000000,0.481746,0.511931,0.196855,0.188297,0.410829,349.000000,23.000000,22.000000,0.000000,0.000000,0.000000,0.000000,0.000000;
#CREDIT:Ben Speirs;
#NOTES:
0000
0000
0000
0000
,
0000
0000
0000
0000
,
1000
0000
0000
1000
0100
0000
0010
0000
0000
0000
0000
0001
1000
0000
0001
0100
,
0001
0000
0000
1000
0100
0000
1000
0000
0000
0000
0000
0001
1000
0000
0001
0000
,
0100
0000
0000
0100
0001
0000
1000
0000
0000
0000
0000
0100
1000
0000
0001
0000
,
0010
0000
0000
0010
0001
0000
1000
0000
0000
0000
0001
0100
0001
0000
1000
0000
,
0100
0000
0000
1000
0001
0000
0100
0000
0000
0000
1000
0000
0001
0000
0100
0000
,
0010
0000
0000
1000
0001
0000
1000
0000
0000
0001
0010
0100
1000
0001
0100
0000
,
0101
0000
0100
0000
1010
0000
0010
0000
1000
0010
0100
0001
1000
0000
1000
0000
,
0011
0000
0001
0000
1100
0000
1000
0000
0001
0100
0010
1000
0001
0000
0001
0000
,
0100
0010
0000
0010
2000
0000
0000
0000
3100
0000
1000
0000
0001
0100
0010
0100
,
0010
1000
0010
0000
1000
0001
0000
1000
0000
1000
0100
0010
0001
1000
0010
0000
,
1010
0000
0010
0000
0101
0000
0100
0000
0001
0100
0010
1000
0001
0000
0001
0000
,
1100
0000
1000
0000
0011
0000
0001
0000
1000
0010
0100
0001
1000
0000
1000
0000
,
0010
0100
0000
0100
0002
0000
0000
0000
0013
0000
0001
0000
1000
0010
0100
0000
,
0001
1000
0001
1000
0001
0000
0100
0010
1000
0000
0001
0100
0001
0100
0001
0000
,
1100
0010
0101
1000
0020
0000
0230
0000
,
0301
0010
0100
1000
0001
0000
1000
0000
0001
0000
0100
0000
0001
1000
0100
0010
,
0001
0000
1000
0100
1000
0100
0010
0000
0001
0000
1000
0000
0010
0000
0010
0000
,
0100
0000
0001
0010
0001
0010
0100
0000
1000
0000
0010
0100
0001
1000
0001
0000
,
0011
0100
1010
0001
0200
0000
0320
0000
,
1030
0100
0010
0001
1000
0000
0001
0000
1000
0000
0010
0000
1000
0001
0010
0100
,
2000
0000
3010
0001
0020
0000
0130
0001
0200
0000
0301
1000
0200
0000
0000
0000
,
0310
0000
0001
0000
1000
0000
0001
0100
0001
0000
1000
0000
1000
0100
0010
0001
,
1000
0000
0010
0100
0001
0000
0000
0000
,
1000
0000
0100
0010
0001
0000
0100
0010
,
1000
0000
0000
0000
0001
0100
0001
0100
0010
1000
0001
0000
0000
0000
0000
0000
,
1001
0000
0000
0000
1000
0010
1000
0010
0100
0001
1000
0000
0000
0000
0000
0000
,
0010
0000
2002
0003
3100
0000
0000
0000
,
0010
0000
2002
3000
0103
0000
0010
1000
,
0100
0000
0000
0000
1000
0010
1000
0010
0100
0001
1000
0000
0000
0000
0100
0010
,
0001
0000
1000
0100
1000
0000
0001
0100
0000
0000
0001
1000
0001
1000
0001
0000
,
1100
0010
0101
0010
2001
3100
1002
0103
,
0001
0010
0100
1000
0001
0000
1000
0000
0010
0000
1000
0000
0001
1000
0100
0010
,
0001
0000
1000
0100
1000
0001
0100
0000
0010
0000
1000
0000
0001
0010
0100
1000
,
0001
0010
0001
1000
0000
0010
0100
0000
0001
0000
1000
0100
0010
0001
1000
0000
,
0011
0100
1010
0100
1002
0013
2001
3010
,
1000
0100
0010
0001
1000
0000
0001
0000
0100
0000
0001
0000
1000
0001
0010
0100
,
2000
0000
3010
0001
0020
0000
0130
1000
0200
0000
0301
1000
0002
0000
0000
0000
,
1003
0000
0001
0000
0010
0000
0001
1000
0100
0000
0010
0000
0010
0001
1000
0000
;

//---------------dance-double - ----------------
#NOTEDATA:;
#CHARTNAME:;
#STEPSTYPE:dance-double;
#DESCRIPTION:;
#CHARTSTYLE:;
#DIFFICULTY:Challenge;
#METER:8;
#RADARVALUES:0.536767,0.546060,0.231091,0.308122,0.449344,376.000000,27.000000,36.000000,0.000000,0.000000,0.000000,0.000000,0.000000,0.536767,0.546060,0.231091,0.308122,0.449344,376.000000,27.000000,36.000000,0.000000,0.000000,0.000000,0.000000,0.000000;
#CREDIT:Ben Speirs;
#NOTES:
// measure 0
00000000
00000000
00000000
00000000
,  // measure 1
00000000
00000000
00000000
00000000
,  // measure 2
01010000
00000000
00010000
00000000
10000000
01000000
10000000
00000000
00010000
00000000
00000000
01000000
00100000
00000000
10000000
01000000
,  // measure 3
00100000
00000000
00000000
00010000
10000000
00000000
00010000
00000000
00000000
00000000
00000000
00100000
00001000
00010000
00010000
00000000
,  // measure 4
00011000
00000000
00000100
00000000
00001000
00000100
00001000
00000000
00000001
00000000
00000100
00000000
00000010
00000000
00000000
00000000
,  // measure 5
00001010
00000000
00000000
00001000
00000001
00000000
00001000
00000000
00000010
00000000
00000100
00000001
00001000
00000000
00000100
00000000
,  // measure 6
00001100
00000000
00000000
00000001
00000100
00000000
00000010
00000000
00000000
00000000
00001000
00000000
00000100
00000000
00000010
00000000
,  // measure 7
00000001
00000100
00000010
00001000
00000000
00000000
00000100
00000000
00000000
00001000
00000100
00001000
00000100
00010000
00001000
00000000
,  // measure 8
00100000
00000000
00200000
00000000
00001000
00000000
00302000
00000000
00013000
00100000
10000000
01000000
01000000
00000000
01000000
00000000
,  // measure 9
10000000
00000000
20000000
00000000
00100000
00000000
30200000
00000000
01300000
00100000
00010000
00001000
00002000
00000000
00013000
00000000
,  // measure 10
00001000
00020000
00000000
00000200
00000000
00000000
00030300
00000000
00001000
00000000
00000001
00000000
00001000
00000001
00000010
00000100
,  // measure 11
00001000
00000100
00001000
00000000
00000001
00000100
00000000
00000010
00000000
00000010
00001000
00001000
00000100
00010000
00001000
00010000
,  // measure 12
00000100
00000000
00000200
00000000
00010000
00000000
00020300
00000000
00031000
00000100
00000001
00000010
00000010
00000000
00000010
00000000
,  // measure 13
00000001
00000000
00000002
00000000
00000100
00000000
00000203
00000000
00000310
00000100
00001000
00010000
00020000
00000000
00031000
00000000
,  // measure 14
00010000
00002000
00000000
00200000
00000000
00000000
00303000
00000000
00010000
00000000
10000000
00000000
00010000
10000000
01000000
00100000
,  // measure 15
00010000
00100000
00010000
00000000
10000000
00000000
00100000
01000000
00000000
00000000
00010000
00100000
01000000
10000000
00010000
00000000
,  // measure 16
10010000
01000000
01100000
00100000
20010000
30010000
10020000
10030000
,  // measure 17
00010000
00100000
01000000
10000000
00100000
00000000
02100000
00000000
03010000
00000000
10000000
00000000
00010000
00100000
01000000
10000000
,  // measure 18
00100000
00000000
01000000
00010000
01000000
00010000
10000000
00000000
01000000
00000000
00100000
00000000
00010000
01000000
00010000
10000000
,  // measure 19
01000000
00100000
01000000
00100000
00010000
00000000
10000000
00010000
01000000
00000000
00010000
01000000
00001000
00010000
00001000
00000000
,  // measure 20
00101000
00010000
00010100
00000100
00021000
00031000
00012000
00013000
,  // measure 21
00001000
00000100
00000001
00001000
00000001
00000000
00002001
00000000
00003010
00000000
00000100
00000000
00000001
00000010
00000100
00001000
,  // measure 22
00000020
00000000
00001030
00000001
00000200
00000000
00000301
00000010
00002000
00000000
00003010
00000001
00000200
00000000
00000310
00001000
,  // measure 23
00000001
00000000
00000100
00000000
00000100
00000000
00000010
00001000
00000100
00000000
00001100
00000000
00000100
00010000
00001000
00000000
,  // measure 24
00010000
00000000
00000100
00010000
00001000
00000000
00000000
00000000
,  // measure 25
00101000
00000000
00010000
00001000
00100000
00000000
00010000
01000000
,  // measure 26
00100000
00000000
10000000
01000000
10000000
01000000
10000000
01000000
00100000
00010000
10000000
00000000
00100000
00000000
00000000
00000000
,  // measure 27
01000000
00000000
00010000
00100000
00010000
00100000
00010000
00100000
01000000
10000000
00010000
00000000
01000000
00000000
00000000
00000000
,  // measure 28
00010000
10000000
02000000
00000000
03100000
00000000
00000000
00000000
,  // measure 29
00010000
00100000
00002000
00000000
00013000
00000000
00001000
00010000
,  // measure 30
00000100
00000000
00001000
00000010
00001000
00000010
00001000
00000010
00000100
00000001
00001000
00000000
00000001
00000000
00000100
00000010
,  // measure 31
00001000
00000000
00000001
00000010
00000100
00000000
00001000
00000010
00000100
00000000
00000001
00000010
00000100
00001000
00000001
00000000
,  // measure 32
00001001
00000010
00000110
00000100
00001002
00001003
00002001
00003001
,  // measure 33
00001000
00000100
00000010
00000001
00000100
00000000
00000120
00000000
00001030
00000000
00000001
00000000
00001000
00000100
00000010
00000001
,  // measure 34
00000100
00000000
00000010
00001000
00000010
00001000
00000001
00000000
00000010
00000000
00000100
00000000
00001000
00000010
00001000
00000001
,  // measure 35
00000010
00000100
00000010
00000100
00001000
00000000
00000001
00001000
00000010
00000000
00001000
00000010
00010000
00001000
00010000
00000000
,  // measure 36
00010100
00001000
00101000
00100000
00012000
00013000
00021000
00031000
,  // measure 37
00010000
00100000
10000000
00010000
10000000
00000000
10020000
00000000
01030000
00000000
00100000
00000000
10000000
01000000
00100000
00010000
,  // measure 38
02000000
00000000
03010000
10000000
00200000
00000000
10300000
01000000
00020000
00000000
01030000
10000000
00200000
00000000
01300000
00010000
,  // measure 39
10000000
00000000
00100000
00000000
00100000
00000000
01000000
00010000
00100000
00000000
00110000
00000000
00100000
00001000
00010000
00000000
;

//---------------dance-single - ----------------
#NOTEDATA:;
#CHARTNAME:;
#STEPSTYPE:dance-single;
#DESCRIPTION:;
#CHARTSTYLE:;
#DIFFICULTY:Medium;
#METER:5;
#RADARVALUES:0.270218,0.307159,0.008559,0.342357,0.008559,180.000000,1.000000,40.000000,0.000000,0.000000,0.000000,0.000000,0.000000,0.270218,0.307159,0.008559,0.342357,0.008559,180.000000,1.000000,40.000000,0.000000,0.000000,0.000000,0.000000,0.000000;
#CREDIT:Ben Speirs;
#NOTES:
0000
0000
0000
0000
,
0000
0000
0000
0000
,
1000
0100
0010
0001
0000
0000
1000
0000
,
0001
0100
0010
1000
0000
0000
0001
0000
,
1000
0100
1000
0100
0010
0000
0000
0000
,
0001
0100
0001
0100
0010
0000
0000
0000
,
2000
0100
3001
0000
,
0002
0100
1003
0000
,
0001
0001
0100
0100
0001
0100
0001
0001
,
1000
1000
0100
0100
1000
0100
1000
1000
,
0020
0130
0000
0001
,
0020
0000
0000
0030
0100
0000
0000
0000
0000
0000
0000
0000
1000
0000
0000
0000
,
0100
0100
1000
1000
0100
1000
0100
0100
,
0010
0010
0001
0001
0010
0001
0010
0010
,
0001
0200
0310
0000
,
1000
0200
0310
0001
,
2000
0000
0000
0000
3002
0000
0000
0000
0203
0000
0000
0300
0020
0000
0000
0000
,
1030
0000
0100
0000
0010
0000
0002
0000
0000
0000
0000
0003
1000
0000
0000
0000
,
0020
0100
0130
0000
,
0002
1000
1003
0000
,
0002
2003
3020
0230
,
0301
0010
0100
2000
0000
0000
3010
0000
,
0100
0100
0001
0001
1000
1000
0020
0000
,
0130
0000
0000
0000
0001
1000
0100
0000
,
2000
0100
3010
0000
,
0002
0010
0103
2000
,
3002
0000
0103
0010
0100
0010
0000
0000
,
2000
0000
3100
0010
0100
0010
0000
0000
,
0002
0010
0103
0000
,
2000
0010
3100
0002
,
1003
0000
0010
0100
0010
0100
0001
0000
,
2002
0000
0000
3003
,
0200
0320
0032
2003
,
3010
0100
0001
2000
0000
0000
3001
0000
,
1000
0000
0100
0010
0010
0000
0001
0000
,
1000
0000
0010
0100
0100
0000
0001
0000
,
2000
3200
0320
0032
,
1003
0001
0100
0200
0000
0000
0310
0000
,
0100
0100
0001
0001
1000
1000
0200
0000
,
0310
0000
0000
0000
0000
0000
0001
1000
0001
0000
1000
0000
0010
0100
0010
0000
;

//---------------dance-single - ----------------
#NOTEDATA:;
#CHARTNAME:;
#STEPSTYPE:dance-single;
#DESCRIPTION:;
#CHARTSTYLE:;
#DIFFICULTY:Easy;
#METER:2;
#RADARVALUES:0.144279,0.187708,0.008559,0.111266,0.000000,104.000000,1.000000,13.000000,0.000000,0.000000,0.000000,0.000000,0.000000,0.144279,0.187708,0.008559,0.111266,0.000000,104.000000,1.000000,13.000000,0.000000,0.000000,0.000000,0.000000,0.000000;
#CREDIT:Ben Speirs;
#NOTES:
0000
0000
0000
0000
,
0000
0000
0000
0000
,
0100
0010
1000
0000
,
0002
0003
1000
0000
,
0100
0010
0001
0000
,
0100
0010
1000
0000
,
0002
0003
0001
1000
,
2000
3000
1000
0000
,
0010
0100
0010
0010
,
0100
0010
0100
0100
,
0002
0003
0001
0000
,
2000
3000
1000
0000
,
0100
0010
0100
0100
,
0010
0100
0010
0010
,
0002
0003
0001
0000
,
2002
0000
0000
3003
,
0010
0010
1000
1000
,
0002
0003
1000
0000
,
0100
0010
0001
0000
,
0100
0010
1000
0000
,
0001
0001
1000
1000
,
0200
0300
0100
0000
,
1000
0100
0010
0001
,
1000
0000
0010
0100
,
0001
0000
0000
0000
,
1000
0000
0000
0000
,
0100
0010
0001
0000
,
0100
0010
1000
0000
,
0001
0000
0000
0000
,
1000
0000
0000
0000
,
0100
1000
0010
0000
,
0200
0000
0000
0300
,
0001
0001
1000
1000
,
0020
0030
0010
0000
,
1000
0100
0010
0000
,
0001
1000
0010
0000
,
0100
0100
0001
0001
,
2000
3000
1000
0000
,
0100
0010
0001
1000
,
0010
0000
0000
0000
1000
0000
0100
0100
;

//---------------dance-single - ----------------
#NOTEDATA:;
#CHARTNAME:;
#STEPSTYPE:dance-single;
#DESCRIPTION:;
#CHARTSTYLE:;
#DIFFICULTY:Beginner;
#METER:1;
#RADARVALUES:0.091703,0.119076,0.000000,0.000000,0.000000,75.000000,0.000000,0.000000,0.000000,0.000000,0.000000,0.000000,0.000000,0.091703,0.119076,0.000000,0.000000,0.000000,75.000000,0.000000,0.000000,0.000000,0.000000,0.000000,0.000000,0.000000;
#CREDIT:Ben Speirs;
#NOTES:
0000
0000
0000
0000
,
0000
0000
0000
0000
,
1000
0000
0001
0000
,
0100
0100
0000
0000
,
0010
0000
1000
0000
,
0001
0000
0000
0000
,
0010
0010
0000
0000
,
0100
0100
0000
0000
,
1000
0000
0001
0000
,
0100
0000
0010
0000
,
1000
1000
0000
0000
,
0001
0001
0000
0000
,
1000
0000
0100
0000
,
0010
0000
0001
0000
,
0100
0100
0000
0000
,
0010
0000
0000
0000
,
1000
1000
0000
0000
,
0001
0000
1000
0000
,
0100
0000
0100
0000
,
0010
0000
0010
0000
,
0001
0001
0000
0000
,
0100
0000
0010
0000
,
1000
1000
1000
1000
,
0000
0000
0010
0010
,
0010
0000
0000
0000
,
0100
0000
0000
0000
,
0001
0000
1000
0000
,
0100
0000
0010
0000
,
0001
0001
0000
0000
,
1000
1000
0000
0000
,
0010
0000
0100
0000
,
0001
0000
0000
0000
,
0010
0010
0000
0000
,
0001
0000
1000
0000
,
0010
0000
0010
0000
,
1000
0000
1000
0000
,
0100
0100
0000
0000
,
0010
0000
0001
0000
,
0100
0100
0100
0100
,
0000
0000
0010
0010
;
