#TITLE:Cosmic Cowgirl (GF 8th Mix);
#ARTIST:Toshio Sakurai;
#FILE:Cosmic Cowgirl (Cyber mix).mp3;
#BPM:145.000;
#GAP:2000;
#SAMPLESTART:43.359;
#SAMPLELENGTH:12.000;
#CDTITLE:./CDTITLES/guitar freaks & drummania.png;
#DISPLAYBPM:145;
#CHANGEBPM:653.000=145.020,653.000=145.000;
#SINGLE:BASIC:6:
00000000
807040B0
(6000300200200000)
40102030
(6000900800804000)
60908070
(4000100200200000)
60908070
(4000100200206000)
4!4000B!6000
3!2000A080
4!4000B!6000
(3!20000000A0080080)
4!4000B!6000
9!8000A020
6!6000B!4000
70208020
B0820204
04060602
80460602
0280B!B0B0
20480608
06080608
40620204
0460A!A0A0
40406060
40408080
40406060
40402020
40408080
40406060
40408080
40402020
06004006
00208080
04006002
0080B0B0
28080808
08080808
04060408
04020608
40620104
07080906
20620104
07806!6000
B0820302
03020420
80460A04
0280B!B0B0
20408060
(2000800400600000)
20408060
(2000400602020800)
40208060
(8000600400200000)
80406020
(8000400600208000)
B0000000
;
#SINGLE:ANOTHER:8:
00000000
(8040600200408000)
(2060200400A!A000A0)
(4060200800206000)
(4080200600402040)
(8020800400603000)
(2010400700A!A000A0)
(2040600600804000)
(2080400600208020)
88004400
66002220
88004400
(6060000020080020)
44006600
22008880
44002200
(6060800800406040)
66660406
04080802
64640A06
0AA0B!B0B0
21470907
09070970
26260B04
0780A!A0A0
42042402
42042406
86086806
86086806
28028208
28028208
28028208
28028208
84062084
0260B040
86028048
0620A0A0
4B090B09
0B090B09
0B010B01
2!20A!807!40B!60
3424!407!80A!2
03!60B!407!80A
6464!407!809!6
0340B!B0B0
8282!201!401!2
03!603!20A48
4286!603!20A!8
0760A!A0A0
(4060400800602000)
(4080600200A!A000A0)
(8060400400806000)
(2080400602080400)
(6080600400808000)
(2060400800A!A000A0)
(4060200400806000)
(2020800800208020)
B0000000
;
#SINGLE:MANIAC:10:
(0840602802406262)
(8040802602608000)
(2040806200A!A000A0)
(408020680620A000)
(4020408600282820)
(4080206204209000)
(2040602800B!B000B0)
(2040802608402000)
(6040204800262620)
48408680
6260BBB0
28208480
(4060400080260260)
42402620
6860AAA0
24204640
(6080402804602010)
4643070B
0A010939
42430903
09B0A!A0A0
4242!20A!809!6
0B!407!80A36
4866!609!807!4
0B20B!B0B0
(2040204020802086)
(8686868680208020)
84848686
82828686
(8004006020040040)
(8006002020020040)
(6002008040060020)
(8600640042002800)
84484484
48443030
86686686
68661090
28828828
8288B0A0
24424424
424490A0
4848!809!603!2
01!407!80A64
8888!807!407!8
0920B!B0B0
8264!407!809!6
09!80A!20346
8824!40B!603!2
0A601!1010
(2080406804206020)
(4020804600A!A000A0)
(608040260820B000)
(2040800A0B0A0B00)
(2040206804209000)
(2040802600B!B000B0)
(8020804604608000)
(2040802600828280)
B0000000
;
