#TITLE:Silenced By The Night;
#ARTIST:Keane;
#FILE:Silenced By The Night.mp3;
#BPM:112.000;
#GAP:110;
#SAMPLESTART:50.680;
#SAMPLELENGTH:16.340;
#SINGLE:BEGINNER:1:
00000000
00000000
00000000
00000000
20002000
80000000
80008000
40000000
B0000000
20000000
40006000
80000000
60000000
80000000
20004000
60000000
B0000000
20000000
80004000
20000000
40000000
60000000
80006000
20000000
80808080
80000000
40004000
60000000
40404040
40000000
20002000
80000000
40400000
40006000
80800000
80002000
40400000
40006000
20200000
20000000
A0000000
00000000
40004000
40004000
B0006000
60006000
20002000
80004000
60006000
40004000
20002000
40006000
80808080
80000000
60006000
20000000
60606060
60000000
40004000
80000000
A0000000
60006000
60000000
20202020
;
#SINGLE:ANOTHER:6:
00000000
00000000
00000000
00000000
82008200
64006400
24002400
82008200
30804040
80264020
40608060
28264620
80404060
28206040
20408840
60208820
60204442
40802640
8!8000A620
80406000
42428280
60408220
A0602040
60802000
1!40703!60B0
A!A0A00080
28284848
46462000
3!60307!40B0
A!A000A040
24248282
68246420
86806020
84802060
42406420
82806040
A0602080
40106428
60208264
24608620
A!A0000000
000000A0
60604040
24488228
4!406060B0
80A060B0
24246464
82826260
8!80202020
2020A0A6
42482642
46828640
88804060
20A00040
20406080
62840080
80804010
00626460
80204280
60406240
8!80000000
A!20000000
30604040
84000282
;
#SINGLE:MANIAC:9:
00000000
00000000
00000000
00000000
82602640
24804260
46208260
86408424
82648460
82864820
6!60304!4010
8!80A04!4610
46282680
68248260
4!40B08!80A0
6!60304!48B0
4628264!40
1482846!60
90108260
40308420
6424826!60
96484280
241082A0
62428428
B2428424
68248268
68248264
24828468
24248264
82642468
24826464
28628420
7!40B02080
B!60308624
2!20A04628
4!40B08642
8!80A09010
B0804240
8!80A04264
28648260
00420062
00420082
00420062
04246284
A!20608860
A!80402270
24826848
64246280
3!60804420
B!40802210
68286482
64826424
A2684864
24826464
28628264
28628424
28628462
84686828
64826424
82682482
6!60003!2000
1!40007!8000
7!40001!2000
3!60009!802A
;
#SINGLE:BASIC:4:
00000000
00000000
00000000
00000000
8!80A!203!60B!40
7!807!401!2000
1!40B!609!809!60
B!407!80A!2000
30604040
60406040
2!20204!4040
8!80804!4040
60406040
60604040
6!60608!8080
6!60602!2020
80804020
40408020
8!80804!4040
6!60608!8080
60208080
20608080
2!20204!4040
6!60602!2020
B0B0A0A0
B!B000B000
20402020
80608000
B0B0A0A0
B!B000B000
20404080
20600000
88806040
60208040
20004020
80006040
66608060
40802080
40002040
60000020
2!20003!6000
B!40007!8000
7!40001!2000
A!80009!6000
30202022
20202020
80804060
2080A000
60606060
66606060
80806040
8020A000
B0B0A0A0
B!B000B000
22204080
22200000
B0B0A0A0
B!B000B000
66602060
88806040
B!B0000000
000000B0
00220022
00220022
;
