#TITLE:Follow You;
#SUBTITLE:;
#ARTIST:Bring Me The Horizon;
#TITLETRANSLIT:;
#SUBTITLETRANSLIT:;
#ARTISTTRANSLIT:;
#GENRE:Hell and Back;
#CREDIT:;
#BANNER:Follow You.png;
#BACKGROUND:Follow You-bg.png;
#LYRICSPATH:;
#CDTITLE:;
#MUSIC:Follow You.ogg;
#OFFSET:0.020000;
#SAMPLESTART:55.994053;
#SAMPLELENGTH:13.714000;
#SELECTABLE:YES;
#DISPLAYBPM:90.000000;
#BPMS:0.000000=90.000000
,55.000000=89.000000
,56.000000=90.000000
,80.000000=88.199997
,81.000000=90.000000
;
#STOPS:
;
#BGCHANGES:4.000=Follow You.avi=1.000=0=0=1=====,
99999=-nosongbg-=1.000=0=0=0 // don't automatically add -songbackground-
;
#KEYSOUNDS:;
#ATTACKS:;

//---------------dance-single - ----------------
#NOTES:
     dance-single:
     :
     Hard:
     8:
     0.526637,0.603794,0.182968,0.372712,0.332053,462.000000,27.000000,55.000000,0.000000,0.000000,0.000000,0.526637,0.603794,0.182968,0.372712,0.332053,462.000000,27.000000,55.000000,0.000000,0.000000,0.000000:
0000
0000
0000
0000
,
0000
0000
0000
0000
,
1000
0010
0100
0010
0000
0100
0001
0100
,
0000
0000
0001
0000
1000
0000
0001
0000
0000
0000
1000
0000
0010
0100
0010
0100
,
0001
1000
0100
1000
0000
0001
0010
0001
,
0000
0000
1000
0000
0010
0000
1000
0000
0000
0000
0001
0000
0100
0010
0100
0010
,
1000
0000
0100
0000
0100
0000
0000
1000
0100
0000
0100
0000
0010
0000
0100
1000
,
0100
0010
0001
1000
0010
0010
1000
0000
,
0001
0000
0010
0000
0010
0000
0000
0001
0010
0000
0010
0000
0100
0000
0010
0001
,
0010
0000
0100
0000
1000
0000
0001
0000
0100
0000
0100
0000
0001
1000
0001
1000
,
0020
0230
0302
2003
0100
0100
3100
0000
,
2000
3020
0230
0302
0010
0010
0013
0001
,
1000
0000
0000
1000
0100
0000
0010
0000
0001
0000
1000
0000
0010
0000
0000
0000
,
0100
0000
0000
0100
0010
0000
1000
0000
0100
0000
0010
0000
0001
0100
0001
0100
,
0010
1000
2010
0000
3001
0010
0001
0100
,
0001
0000
0010
0000
1000
0000
0001
0000
0100
0000
1000
0000
0010
0100
0010
0100
,
0001
0100
0102
0000
1003
0100
1000
0010
,
1000
0000
0100
0000
0001
0000
1000
0000
0010
0000
0001
0000
0100
0010
0100
0010
,
2000
3200
0320
0032
0100
0100
0103
0000
,
0002
2003
3020
0230
0001
0001
0301
1000
,
0200
0000
0000
0000
0000
0000
0000
0000
0000
0000
0000
0000
0310
0001
0010
0001
,
1000
0100
0010
0001
0100
0010
1000
0001
1000
0010
0100
0001
1000
1000
0100
0010
,
0011
0000
1000
0000
0010
0000
1010
0000
0001
1000
0001
0000
0100
0010
0100
0000
,
0001
0000
1000
0000
0100
0010
0001
0000
1000
0010
1000
0001
0100
0000
0100
0000
,
1010
0000
0100
0000
0001
0010
0001
0000
1000
0100
0010
0001
1000
0000
0001
0000
,
0100
0010
0100
0000
0001
0010
0100
1000
0001
0000
0100
0000
0010
1000
0001
0000
,
0201
0000
0000
0310
1000
0000
1200
0000
0000
0000
0310
0000
0001
1000
0001
0001
,
0101
0000
1010
0000
1100
0000
0011
0000
1000
0001
1000
0010
0100
0100
0001
1000
,
0200
0000
0000
0000
0310
0000
0001
0000
1000
0010
1000
0100
1000
0000
0000
0000
,
0010
0000
0100
0000
0001
0010
0001
0000
1000
0100
1000
0000
0001
0010
0100
1000
,
0002
0000
0000
0103
0010
0000
2000
0000
0000
0000
3100
0000
0010
0000
0001
0000
,
1000
0100
1000
0000
0001
0000
0100
0000
0010
1000
0001
0100
0001
1000
0010
0000
,
1001
0000
0000
0000
0100
0000
1000
0000
0001
0100
0001
0010
0001
0000
0000
0000
,
1000
0000
0001
0000
0100
0010
0100
0000
0001
0010
0100
0000
1000
0100
1000
0010
,
1020
0000
0000
0130
0001
0000
0021
0000
0000
0000
0130
0000
1000
0001
1000
1000
,
1010
0000
0101
0000
0011
0000
1100
0000
0001
1000
0001
0100
0010
0010
1000
0001
,
0020
0000
0000
0000
0130
0000
1000
0000
0001
0100
0001
0010
0001
0000
0000
0000
,
1010
0000
0011
0000
1000
0100
0010
0001
0100
0100
0010
1000
0001
1000
0001
0100
,
0020
0000
2030
0000
3002
0000
0203
0000
0310
0100
0001
1000
0100
0010
0001
0000
,
2000
0000
3002
0000
0203
0000
0320
0000
1030
0100
1000
0001
0010
0001
1000
0000
,
0020
0230
0302
2003
3200
0010
0310
0000
,
0001
0010
0100
0000
1000
0000
0001
0000
1000
0010
0100
0000
0101
0000
0000
0000
,
1010
0000
0001
1000
0100
0000
0102
0000
0000
0000
1003
0000
0001
0000
0100
0000
,
0010
0000
1000
0100
1000
0000
0001
0000
0010
0100
0010
0001
1000
1000
0001
0000
,
0200
0000
0000
0000
0310
0000
0100
0000
0001
1000
0001
0000
0100
0000
0010
0000
,
1000
0000
1000
0100
0010
0000
0001
0000
1000
0010
1000
0001
0010
0100
1000
0010
,
0200
0000
0000
0002
0000
0303
0101
0100
,
0010
0010
1000
0100
0100
0010
0001
0000
,
2100
0000
3001
0010
1000
0010
0002
0000
,
2003
0000
3001
0100
1000
0100
0002
0000
,
2003
0000
0010
3020
0000
0130
0001
1000
,
1100
0001
0010
0011
0001
1000
0020
0000
,
0230
0000
0301
0010
1000
0010
0200
0000
,
2300
0000
3010
0001
0010
1000
0002
0000
,
0103
0000
0000
0000
;

//---------------dance-double - ----------------
#NOTES:
     dance-double:
     :
     Challenge:
     8:
     0.480169,0.567200,0.121978,0.311723,0.257510,432.000000,18.000000,46.000000,0.000000,0.000000,0.000000,0.480169,0.567200,0.121978,0.311723,0.257510,432.000000,18.000000,46.000000,0.000000,0.000000,0.000000:
// measure 0
00000000
00000000
00000000
00000000
,  // measure 1
00000000
00000000
00000000
00000000
,  // measure 2
00000001
00000100
00000010
00000100
00000000
00000010
00001000
00000010
,  // measure 3
00000000
00001000
00000100
00001000
00000000
00000100
00010000
00000100
,  // measure 4
00000000
00010000
00001000
00010000
00000000
00001000
00100000
00001000
,  // measure 5
00000000
00000000
00100000
00000000
00010000
00000000
00100000
00000000
00000000
00000000
00010000
00000000
10000000
00100000
10000000
00100000
,  // measure 6
01000000
00000000
00010000
00000000
10000000
00000000
00000000
00000000
01000000
00000000
10000000
00000000
00010000
00000000
00100000
01000000
,  // measure 7
00100000
00010000
10000000
00100000
01000000
00010000
00100000
00000000
,  // measure 8
00010000
00000000
00100000
00000000
00001000
00000000
00000000
00000000
00010000
00000000
00001000
00000000
00100000
00000000
00001000
00010000
,  // measure 9
00001000
00010000
00000100
00001000
00000010
00000100
00000001
00000000
,  // measure 10
00001000
00001000
00000010
00000010
00000100
00000001
00001000
00000000
,  // measure 11
00000100
00000100
00000010
00000010
00000001
00001000
00000010
00000100
,  // measure 12
00000002
00000000
00001003
00000000
00000100
00001000
00000010
00000000
,  // measure 13
00001000
00000100
00010000
00010000
00001000
00010000
00000100
00000000
,  // measure 14
00010100
00000000
00010000
00000000
00002000
00000000
00000000
00000000
00103000
00000000
00010000
00000000
01000000
00000000
00100000
10000000
,  // measure 15
00100000
00000000
01000000
00000000
00010000
00000000
10000000
00000000
01000000
00100000
01000000
00000000
00100000
00000000
00000000
00000000
,  // measure 16
00010000
00000000
00100000
00000000
02000000
00000000
00000000
00000000
13000000
00000000
00010000
00000000
10000000
00000000
00100000
01000000
,  // measure 17
00100000
00000000
01000000
00000000
00010000
00000000
00100000
00000000
00001000
00100000
00001000
00000000
00010000
00000000
00000000
00000000
,  // measure 18
00000100
00000100
00010000
00010000
00000100
00001000
00000020
00000000
,  // measure 19
00000130
00000100
00000001
00000001
00001000
00000100
00010000
00001000
,  // measure 20
00200000
00000000
00000000
00000000
00000000
00000000
00000000
00000000
00000000
00000000
00000000
00000000
00301000
00010000
00001000
00010000
,  // measure 21
00000100
00001000
00000010
00000100
00000001
00000010
00000100
00001000
00000010
00000100
00001000
00010000
00100000
10000000
01000000
00100000
,  // measure 22
00010000
00000000
10000000
01000000
10000000
00000000
00200000
00000000
01300000
00000000
00010000
00000000
10000000
01000000
10000000
00000000
,  // measure 23
00110000
00000000
01000000
00000000
10000000
00000000
00010000
00000000
10000000
00100000
01000000
00010000
10000000
10000000
00010000
00000000
,  // measure 24
01000000
00000000
00100000
00000000
10100000
00000000
01010000
00000000
10000000
01000000
00010000
00000000
00002000
00000000
00000000
00000000
,  // measure 25
00013000
00000000
00100000
00000000
10000000
00100000
01000000
00000000
00010000
00100000
00001000
00000000
00010000
00001000
00000010
00000001
,  // measure 26
00000200
00000000
00000000
00000310
00001000
00000000
00000200
00000000
00000000
00000000
00000310
00000000
00000001
00000000
00001000
00000000
,  // measure 27
00001010
00000000
00001100
00000000
00010100
00000000
00011000
00000000
00100000
00001000
00010000
00001000
00100000
00001000
00010000
00000100
,  // measure 28
00002000
00000000
00000000
00000000
00003010
00000000
00000100
00000000
00000001
00000010
00000001
00000000
00002000
00000000
00000000
00000000
,  // measure 29
00003010
00000000
00000100
00000000
00000001
00000010
00000001
00000000
00001000
00000100
00001000
00000000
00000001
00000100
00001000
00010000
,  // measure 30
00200000
00000000
00000000
10300000
01000000
00100000
00020000
00000000
00000000
00000000
10030000
00000000
00100000
10000000
00010000
00000000
,  // measure 31
10000000
00000000
00100000
01000000
00010000
00000000
10000000
00000000
01000000
00010000
01000000
00010000
01000000
10000000
00010000
00000000
,  // measure 32
02000000
00000000
03100000
10000000
10100000
10010000
00200000
00000000
,  // measure 33
00310000
00000000
00100000
00000000
00001000
00010000
00001000
00000000
00010000
00000100
00001000
00000000
00000010
00001000
00000100
00000010
,  // measure 34
00000002
00000000
00000000
00000103
00000010
00000000
00002000
00000000
00000000
00000000
00003100
00000000
00000010
00000000
00000001
00000000
,  // measure 35
00001001
00000000
00001100
00000000
00011000
00000000
10010000
00000000
10000000
01000000
00100000
00010000
00010000
00100000
01000000
10000000
,  // measure 36
00020000
00000000
00000000
00000000
01030000
00000000
00100000
00000000
10000000
00010000
10000000
00000000
00200000
00000000
00000000
00000000
,  // measure 37
01300000
00000000
00010000
00000000
00100000
00001000
00010000
00000000
00001000
00010000
00000100
00001000
00000010
00000100
00000001
00000000
,  // measure 38
00001100
00000001
00000100
00000020
00000000
00001030
00000100
00010000
,  // measure 39
00011000
00001000
00100000
00020000
00000000
01030000
00100000
10000000
,  // measure 40
11000000
00000000
01000000
00000000
00100000
00010000
10000000
00000000
00010000
01000000
00010000
00000000
20000000
00000000
00000000
00000000
,  // measure 41
30100000
00000000
01000000
00000000
00010000
00100000
00001000
00000000
00100000
00001000
00010000
00000100
00001000
00001000
00000010
00000100
,  // measure 42
00000002
00000023
00002030
00023000
00000000
00130000
10000000
01000000
,  // measure 43
00200000
00000000
00320000
00000000
02030000
00000000
03002000
00000000
00000000
00000000
00013000
00000000
00000100
00001000
00000010
00000000
,  // measure 44
00000200
00000000
00000302
00000000
00002003
00000000
00003200
00000000
00010300
00001000
00010000
00000100
00001000
00000010
00000100
00000001
,  // measure 45
00001000
00000000
00000100
00010000
00001000
00000000
00100000
00000000
00010000
01000000
00100000
10000000
01000000
00100000
00010000
01000000
,  // measure 46
02000000
00000000
00000000
00020000
00000000
00000000
03030000
00000000
,  // measure 47
10000000
01000000
10000000
00010000
00100000
00010000
02000000
00000000
,  // measure 48
03002000
00000000
00013000
00100000
00010000
00001000
00000020
00000000
,  // measure 49
00000031
00000100
00000010
00001000
00000100
00010000
00001000
00000000
,  // measure 50
00010200
00000000
00000010
00000320
00000000
00000001
00000031
00001000
,  // measure 51
00000010
00000100
00000001
00001000
00000100
00010000
00002000
00000000
,  // measure 52
02003000
00000000
13000000
01000000
00010000
00100000
00002000
00000000
,  // measure 53
00023000
00000000
00030100
00001000
00000010
00000001
00000020
00000000
,  // measure 54
00000130
00000000
00000000
00000000
;

//---------------dance-single - ----------------
#NOTES:
     dance-single:
     :
     Medium:
     5:
     0.324308,0.347639,0.088096,0.291393,0.000000,279.000000,13.000000,43.000000,0.000000,0.000000,0.000000,0.324308,0.347639,0.088096,0.291393,0.000000,279.000000,13.000000,43.000000,0.000000,0.000000,0.000000:
0000
0000
0000
0000
,
0000
0000
0000
0000
,
1000
0010
1000
0000
0001
0010
0001
0000
,
1000
0100
1000
0000
0001
0000
0200
0000
,
0310
1000
0010
0000
1000
0001
1000
0000
,
0001
0100
0001
0000
1000
0000
0200
0000
,
0310
0000
0001
0000
1000
0010
1000
0000
,
0001
0000
1000
0100
0010
0000
1001
0000
,
0010
0000
0100
0000
0001
0010
0001
0000
,
0100
0000
0010
1000
0001
0000
0101
0000
,
1000
0100
1000
0100
1000
1000
0100
0000
,
0010
0001
0010
0001
0010
0010
0001
0001
,
0200
0310
0000
0010
,
1000
0000
0001
0000
1000
0100
0010
0000
,
2100
0000
3001
0000
0100
0010
0100
0000
,
0001
0010
0001
1000
0010
1000
0001
0000
,
0102
0000
1003
0000
0100
1000
0010
0000
,
1000
0100
1000
0001
0100
0001
1000
0000
,
0010
0010
0100
0100
0010
1000
0001
0000
,
1000
1000
0001
0001
1000
0100
0010
0001
,
0200
0000
0000
0320
,
1030
0100
0010
0001
0100
0010
1000
0000
,
0202
0000
0303
2200
0000
3300
0001
0000
,
1000
0010
1000
0001
0010
0001
0200
0000
,
0310
0000
1000
0010
0100
0010
1000
0000
,
0002
0000
0013
0100
0010
0001
1000
0000
,
0012
0000
1000
2003
0000
0000
3010
0000
,
1010
0010
0100
0001
1000
0100
0020
0000
,
0032
0000
1003
0100
1000
0010
1000
0000
,
0020
0000
0130
0001
0100
0010
1000
0000
,
0202
0000
0303
2200
0000
3300
0010
0000
,
1000
0001
0100
0100
0010
1000
0100
0000
,
0020
0000
0031
0000
1000
0100
0010
0000
,
0002
0000
0103
0000
0010
1000
0001
0000
,
0102
0000
1003
2000
0000
0000
3100
0000
,
1000
0010
0100
0001
0010
0100
1000
0000
,
0020
0000
1030
0001
1000
0001
1000
0000
,
0200
0000
1300
0001
1000
0001
1000
0000
,
0001
0010
0100
2000
0000
0000
3010
0000
,
1000
0100
0010
0002
0000
0000
0103
0000
,
0001
0010
0100
1000
0010
0010
0010
0000
,
1000
0000
0001
0000
0100
0010
1000
0000
,
0100
0100
0010
0020
0000
0000
0031
0000
,
1000
1000
0010
0020
0000
0000
0130
0000
,
0001
0100
0010
2000
0000
0000
3001
0000
,
1000
0010
0100
0001
1000
1000
0100
0000
,
0012
0000
0000
2000
0000
0000
3003
0000
,
0010
0010
1000
0100
0100
0010
0001
0000
,
2000
0100
0001
3001
,
0002
0100
1000
1003
,
2010
0000
0001
3002
0000
0000
0013
0000
,
0001
1000
0001
1000
0010
0100
0001
0000
,
2000
0000
0000
3100
0000
0000
0000
0000
,
0002
0000
0000
0203
0000
0000
0320
0000
,
1030
0000
0000
0000
;

//---------------dance-single - ----------------
#NOTES:
     dance-single:
     :
     Easy:
     2:
     0.145212,0.182968,0.020330,0.060989,0.000000,138.000000,3.000000,9.000000,0.000000,0.000000,0.000000,0.145212,0.182968,0.020330,0.060989,0.000000,138.000000,3.000000,9.000000,0.000000,0.000000,0.000000:
0000
0000
0000
0000
,
0000
0000
0000
0000
,
0100
0000
0001
0000
,
1000
0000
0100
0010
,
0001
0000
0100
0000
,
0010
0000
1000
0100
,
0020
0030
0001
0000
,
0100
0100
0010
0000
,
2000
3000
0100
0000
,
0010
0010
0001
0000
,
0100
0001
0100
0000
,
0001
0100
0001
0000
,
2000
3000
0001
0000
,
0200
0300
0010
0000
,
1000
0100
1000
0000
,
0001
0010
0001
0000
,
1000
0010
1000
0000
,
0001
0100
0001
0000
,
1000
0001
1000
1000
,
0001
1000
0001
0001
,
0200
0000
0000
0300
,
0001
1000
0010
0100
,
1001
0000
0100
0000
,
0001
0010
0100
0000
,
1000
0000
0010
0010
,
0100
0000
0001
0001
,
1000
0000
0010
0000
,
0100
0100
0100
0100
,
0010
0000
1000
1000
,
0100
0000
0010
0000
,
1001
0000
0010
0000
,
1000
0100
0010
0000
,
0001
0000
0100
0100
,
0010
0000
1000
1000
,
0001
0000
0100
0000
,
0010
0010
0010
0010
,
0100
0000
0001
0001
,
0010
0000
0100
0000
,
1000
0100
0000
0000
,
0001
0100
0000
0000
,
1000
0010
0010
0000
,
1000
0000
0001
0000
,
0110
0000
0001
0010
,
0100
0000
0100
0010
,
0001
0000
1000
0000
,
0010
1000
0100
0100
,
0020
0000
0030
0000
,
0002
0000
0003
0000
,
0100
0010
0100
0000
,
0001
1000
0001
0000
,
2000
0000
3000
0000
,
0100
0100
0100
0100
,
0020
0000
0030
0000
,
0001
0000
1000
1000
,
0010
0000
0000
0000
;

//---------------dance-single - ----------------
#NOTES:
     dance-single:
     :
     Beginner:
     1:
     0.093904,0.109781,0.013553,0.000000,0.000000,95.000000,2.000000,0.000000,0.000000,0.000000,0.000000,0.093904,0.109781,0.013553,0.000000,0.000000,95.000000,2.000000,0.000000,0.000000,0.000000,0.000000:
0000
0000
0000
0000
,
0000
0000
0000
0000
,
0100
0000
0010
0000
,
1000
0000
0000
0000
,
0100
0000
0010
0000
,
0001
0000
0000
0000
,
1000
0000
0001
0000
,
0100
0100
0000
0000
,
0001
0000
1000
0000
,
0100
0100
0000
0000
,
1000
0000
1000
0000
,
0010
0000
0010
0000
,
0100
0000
0000
0000
,
0001
0000
1000
0000
,
0010
0010
0000
0000
,
1000
0000
0001
0000
,
0100
0100
0000
0000
,
0001
0000
1000
0000
,
0100
0000
0100
0000
,
0010
0000
0010
0000
,
0001
0000
0000
0000
,
0000
0000
0000
0000
,
1001
0000
0100
0000
,
0010
0010
0000
0000
,
1000
0000
0001
0000
,
1000
0000
0001
0000
,
0100
0000
0100
0000
,
0010
0010
0010
0000
,
1000
0000
0000
0000
,
0001
0000
1000
0000
,
0010
0000
0000
0000
,
0100
0100
0100
0000
,
0001
0000
1000
0000
,
0010
0000
0010
0000
,
1001
0000
0000
0000
,
0010
0010
0010
0010
,
0000
0000
1000
1000
,
0000
0000
0001
0001
,
0001
0000
0000
0100
,
0000
0000
0000
0010
,
0010
0000
1000
0000
,
0001
0000
0100
0100
,
0100
0000
0000
0001
,
0000
0000
0000
1000
,
0000
0000
0000
0010
,
0010
0000
1000
0000
,
0001
0000
0000
0000
,
0100
0000
0000
0000
,
0001
0000
0001
0000
,
1000
0000
1000
0000
,
0010
0000
0000
0000
,
0100
0100
0100
0100
,
0000
0000
0000
0000
,
0001
0000
1000
0000
,
0010
0000
0000
0000
;
