#TITLE:Cry Baby;
#SUBTITLE:;
#ARTIST:Melanie Martinez;
#TITLETRANSLIT:;
#SUBTITLETRANSLIT:;
#ARTISTTRANSLIT:;
#GENRE:Electronic;
#CREDIT:;
#BANNER:Cry Baby.png;
#BACKGROUND:Cry Baby-bg.png;
#LYRICSPATH:;
#CDTITLE:;
#MUSIC:Cry Baby.ogg;
#OFFSET:0.000000;
#SAMPLESTART:116.154617;
#SAMPLELENGTH:13.714000;
#SELECTABLE:YES;
#BPMS:0.000000=95.000000
;
#STOPS:
;
#BGCHANGES:4.000=Cry Baby.avi=1.000=0=0=1=====,
99999=-nosongbg-=1.000=0=0=0 // don't automatically add -songbackground-
;
#KEYSOUNDS:;
#ATTACKS:;

//---------------dance-single - ----------------
#NOTES:
     dance-single:
     :
     Hard:
     7:
     0.428136,0.408583,0.218457,0.177496,0.047787,381.000000,32.000000,26.000000,0.000000,0.000000,0.000000,0.428136,0.408583,0.218457,0.177496,0.047787,381.000000,32.000000,26.000000,0.000000,0.000000,0.000000:
0000
0000
0000
0000
,
0000
0000
0000
0000
,
1000
0100
0001
0010
0100
0110
0000
0000
,
0001
0010
1000
0010
0100
0110
0000
0000
,
1000
0100
0010
1000
0100
0010
0000
0000
,
0001
0010
0100
0001
0010
0100
0000
0000
,
1000
0000
0000
1000
0000
0000
0001
0000
0100
0000
0000
0000
0010
0000
1000
0000
,
0000
0001
1000
0100
0010
0001
1000
0000
,
0001
0000
0000
0001
0000
0000
1000
0000
0010
0000
0000
0000
0100
0000
0001
0000
,
0000
1000
0001
0010
0100
1000
0001
0000
,
1000
0100
1000
0100
0001
0100
1000
0010
,
0100
0001
0010
0100
1000
0010
0100
0000
,
0001
0100
0001
0100
1000
0100
0001
0010
,
0100
1000
0010
0100
0001
1000
0010
0000
,
2001
0000
3100
1000
0010
0010
1000
0100
,
0020
0000
0031
0010
0100
0100
0010
0001
,
2001
0000
3010
0100
0010
0010
1000
0001
,
0100
0010
0100
0000
0001
0000
1000
0000
0100
0000
0010
0000
0001
0000
0000
0000
,
1002
0000
0013
0100
0010
0001
1000
1000
,
0020
0000
0130
0010
1000
1000
0010
0100
,
0102
0000
0013
0100
0010
0001
1000
1000
,
0010
0100
0010
0000
0000
0000
0000
0000
0000
0000
1000
0000
1000
0000
0001
0000
,
2001
0000
3010
1000
1002
0000
0013
0001
,
1000
0010
0100
0001
1000
0100
0001
0000
,
2100
0000
3100
1000
0102
0000
0103
0001
,
1000
0010
0010
0100
0001
0010
0001
0000
,
2000
0100
3100
0010
0002
0100
0103
0010
,
1000
0001
0001
1000
0001
0010
1000
0000
,
0101
0000
0110
0000
1010
0001
1001
0000
,
1000
0000
0010
0100
0010
0000
0100
0000
0001
0000
1000
0000
0010
0000
0000
0000
,
1000
0000
0100
1000
0100
0000
1000
0000
0001
0000
0100
0000
0000
0000
0000
0000
,
0001
0000
0100
0001
0100
0000
0001
0000
1000
0000
0100
0000
1000
0000
0000
0000
,
0001
0010
0001
1000
0010
1000
0001
0100
,
0010
0010
1000
0100
0010
0001
1000
0000
,
0001
0000
0000
0001
0000
0000
1000
0000
0010
0000
0000
0010
0000
0000
0100
0000
,
0001
0000
0000
1000
0000
0000
0100
0000
0010
0000
0001
0000
1000
0000
0000
0000
,
0001
1000
0001
1000
0010
0001
1000
0000
,
1000
0001
1000
0001
0010
1000
0001
0000
,
2001
0000
3010
0100
0010
0010
1000
0100
,
0010
0001
1000
0010
0100
0001
1000
1000
,
1200
0000
0310
0001
1000
1000
0010
1000
,
0001
0100
0001
0000
1000
0000
0100
0000
0100
0000
1000
0000
0001
0000
0000
0000
,
1002
0000
0103
0010
0100
0100
0001
0010
,
0100
1000
0001
0100
0010
1000
0001
0001
,
0021
0000
0130
1000
0001
0001
0100
0001
,
1000
0010
1000
0000
0000
0000
0000
0000
0000
0000
0001
0000
0001
0000
1000
0000
,
2001
0000
3010
0010
1002
0000
0013
0010
,
0001
1000
0100
0010
0001
1000
1001
0000
,
0201
0000
0310
1000
1200
0000
0310
0001
,
1000
0010
0010
0100
0001
1000
0010
0000
,
2000
0100
3100
0010
0002
0100
0103
0010
,
1000
0001
0001
1000
0010
0100
0101
0000
,
2000
0100
3200
0010
0320
0001
0032
0000
,
0103
0000
0010
1000
0010
0000
0100
0000
0001
0000
1000
0000
0001
0000
0000
0000
,
0100
0100
1001
1001
0100
0100
1001
1001
,
0010
0000
0000
1000
0000
0000
0001
0000
0010
0000
0100
0000
1000
0000
0000
0000
,
0010
0010
1001
1001
0010
0010
1001
1001
,
0100
0000
0000
0000
;

//---------------dance-single - ----------------
#NOTES:
     dance-single:
     :
     Challenge:
     9:
     0.604657,0.544777,0.293551,0.054614,0.590516,569.000000,43.000000,8.000000,0.000000,0.000000,0.000000,0.604657,0.544777,0.293551,0.054614,0.590516,569.000000,43.000000,8.000000,0.000000,0.000000,0.000000:
// measure 0
0000
0000
0000
0000
,  // measure 1
0000
0000
0000
0000
,  // measure 2
1000
1000
0100
1000
0010
0000
1000
1000
0100
0010
0001
0000
1000
0000
0000
0000
,  // measure 3
0001
0001
0100
0001
0010
0000
0001
0010
0100
1000
0001
0000
1001
0000
0000
0000
,  // measure 4
1000
1000
0100
0010
0010
0000
0001
0001
0100
0010
0010
0000
1000
0000
0000
0000
,  // measure 5
0001
0001
0010
0100
0100
0000
1000
1000
0010
0100
0100
0000
0101
0000
0000
0000
,  // measure 6
1000
0000
0010
1000
0001
0000
0010
0001
1000
0000
0010
0000
0100
0001
0100
0000
,  // measure 7
0010
0000
1000
0000
0001
0000
0010
0001
1000
0000
0100
0000
1100
0000
0000
0000
,  // measure 8
0001
0000
0100
0010
1000
0000
0100
0010
0001
0000
1000
0000
0010
0100
0010
0000
,  // measure 9
1000
0000
0001
0100
0001
0000
1000
0100
1000
0000
0001
0000
0011
0000
0000
0000
,  // measure 10
1000
0100
1000
0100
0000
0000
1000
0000
0001
0000
0100
0000
0010
0000
1000
0000
,  // measure 11
0001
0100
0001
0100
0000
0000
0010
0000
0100
0000
0001
0000
1001
0000
0000
0000
,  // measure 12
1000
0010
1000
0010
0000
0000
0100
0000
0001
0010
0001
0010
0000
0000
0100
0000
,  // measure 13
1000
0000
0100
1000
0100
0000
1000
0001
1000
0000
0001
0100
0010
0000
0000
0000
,  // measure 14
1010
0000
1000
0000
0001
0010
0001
0010
0001
0000
1000
0100
1000
0100
0010
0000
,  // measure 15
0001
0000
1000
0000
0010
0100
0010
0100
0010
0000
1000
0010
1000
0000
1010
0000
,  // measure 16
1002
0000
0000
0000
0103
0010
0100
0010
0100
0000
0001
0100
0001
0000
1000
0000
,  // measure 17
0100
0010
0100
0000
0010
0000
0001
1000
0001
0000
0100
0000
1001
0000
0000
0000
,  // measure 18
0101
0000
0001
0000
1000
0100
1000
0100
1000
0000
0001
0010
0001
0010
0100
0000
,  // measure 19
1000
0000
0001
0000
0100
0010
0100
0010
0100
0000
0001
0100
0001
0000
0101
0000
,  // measure 20
2001
0000
0000
0000
3010
0100
0010
0100
0010
0000
1000
0010
1000
0000
0001
0000
,  // measure 21
0010
0001
1000
0000
0000
0000
0000
0000
0000
0000
0010
0000
0010
0000
1000
0000
,  // measure 22
0001
0010
0100
1000
0001
0000
1001
0000
1000
0100
0010
0001
1000
0000
1001
0000
,  // measure 23
0001
0000
0100
0010
1000
0000
0100
0010
0001
0000
1000
0000
1001
0000
0000
0000
,  // measure 24
1000
0100
1000
0100
0010
0000
1100
0000
1000
0100
1000
0100
0010
0000
1100
0000
,  // measure 25
0001
0000
1000
0010
0100
0000
0010
1000
0001
0000
0010
0001
1000
0000
0000
0000
,  // measure 26
0001
0010
0100
1000
0001
1000
0001
0000
1000
0100
0010
0001
1000
0001
1000
0000
,  // measure 27
0010
1010
1001
0010
0011
1001
0100
0000
,  // measure 28
1001
0000
1000
0100
0010
0000
0010
0001
1000
0000
1000
0010
0200
0000
0000
0000
,  // measure 29
0301
0100
0010
1000
0001
0000
1000
0000
0200
0000
0010
0000
0310
0000
0000
0000
,  // measure 30
0001
0001
0010
0001
0100
0001
1000
1000
0100
1000
0001
0000
0000
0000
0000
0000
,  // measure 31
1000
1000
0010
1000
0100
1000
0001
0001
0010
0001
1000
0000
0001
0000
0000
0000
,  // measure 32
0100
0100
0010
1000
0010
1000
0001
0001
0100
0001
1000
0000
0000
0000
0000
0000
,  // measure 33
0010
0010
0100
0001
0100
0001
1000
1000
0010
1000
0001
0000
2000
0000
0000
0000
,  // measure 34
3010
0000
0010
0100
0000
0100
0001
0000
1000
0000
1000
0100
0000
0100
0010
0000
,  // measure 35
0001
0000
0001
0100
0000
0100
0010
0000
1000
0000
0100
0000
1100
0000
0000
0000
,  // measure 36
0001
0000
0001
1000
0010
0000
0010
1000
0001
0000
0010
0000
1001
0000
0000
0000
,  // measure 37
1000
0000
1000
0001
0100
0000
0100
0001
1000
0000
0100
0000
1001
0000
0000
0000
,  // measure 38
0101
0000
0100
0000
0010
1000
0010
1000
0001
0000
1000
0100
0010
0001
1000
0000
,  // measure 39
0001
0000
0100
0000
0010
1000
0010
1000
0001
0000
0010
0001
0010
0000
0001
0000
,  // measure 40
2001
0000
0000
0000
3100
0010
0100
0010
0001
0000
0100
0010
0100
0010
1000
0000
,  // measure 41
0001
1000
0001
0000
0100
0000
0010
0000
0010
0000
1000
0000
1100
0000
0000
0000
,  // measure 42
1010
0000
0010
0000
0100
0001
0100
0001
1000
0000
0001
0010
0100
1000
0001
0000
,  // measure 43
1000
0000
0010
0000
0100
0001
0100
0001
1000
0000
0100
1000
0100
0000
1000
0000
,  // measure 44
1002
0000
0000
0000
0013
0100
0010
0100
1000
0000
0010
0100
0010
0100
0001
0000
,  // measure 45
1000
0001
0100
0000
0000
0000
0000
0000
0000
0000
0010
0000
0010
0000
0100
0000
,  // measure 46
0001
0010
0001
0010
0100
0000
0011
0000
0001
0010
0001
0010
0100
0000
0011
0000
,  // measure 47
1000
0000
0001
1000
0010
0000
1000
0001
0010
0000
0001
0000
1001
0000
0000
0000
,  // measure 48
0010
1000
0010
1000
0001
0000
1001
0000
0010
1000
0010
1000
0001
0000
1001
0000
,  // measure 49
0100
0000
0100
1000
0010
0000
0010
0100
0001
0000
1000
0000
0001
0000
0000
0000
,  // measure 50
1000
0100
0010
0001
1000
0001
1000
0000
0001
0010
0100
1000
0001
1000
0001
0000
,  // measure 51
1000
0000
1000
0010
0100
0000
0100
0000
0101
0000
0110
0000
2001
0000
0000
0000
,  // measure 52
3001
0100
0001
0000
1000
0100
1000
0000
0001
0010
0100
1000
0001
0000
1000
0000
,  // measure 53
0010
0100
0010
1000
0100
0010
0001
0000
1000
0000
0001
0000
1000
0100
0010
0001
,  // measure 54
1000
0000
0011
0000
0001
0010
0100
0000
1000
0000
0011
0000
0001
0010
0100
0000
,  // measure 55
1000
0010
1000
0100
0010
0000
0001
1000
0001
0000
0100
0000
0101
0000
0000
0000
,  // measure 56
0001
0000
1100
0000
1000
0100
0010
0000
0001
0000
1100
0000
1000
0100
0010
0001
,  // measure 57
1000
0000
0000
0000
;

//---------------dance-double - ----------------
#NOTES:
     dance-double:
     :
     Challenge:
     8:
     0.568573,0.544777,0.307205,0.109228,0.443741,522.000000,45.000000,16.000000,0.000000,0.000000,0.000000,0.568573,0.544777,0.307205,0.109228,0.443741,522.000000,45.000000,16.000000,0.000000,0.000000,0.000000:
00000000
00000000
00000000
00000000
,
00000000
00000000
00000000
00000000
,
10000000
00000000
01000000
00100000
01000000
00000000
00100000
00000000
00010000
00000000
10000000
00000000
00000000
00000000
00000000
00000000
,
00010000
00000000
00100000
00010000
00100000
00000000
00001000
00000000
00010000
00000000
00000100
00000000
00002000
00000000
00000000
00000000
,
00003010
00000000
00000100
00000001
00000100
00000000
00000010
00000000
00001000
00000100
00001000
00000000
00000000
00000000
00000000
00000000
,
00000001
00000000
00000001
00000010
00000001
00000000
00001000
00000000
00001000
00000100
00001000
00000000
00000001
00000000
00000000
00000000
,
00000100
00000000
00000100
00000010
00000000
00000000
00001000
00000000
00000100
00000000
00000010
00000000
00000001
00000000
00001000
00000000
,
00000000
00000010
00000100
00000010
00001000
00000100
00020100
00000000
,
00031000
00010000
00000100
00001000
00000100
00010000
00001000
00100000
,
00010000
00000000
01000000
00000000
00100000
00000000
10000000
00000000
00010000
00100000
00010000
00000000
10010000
00000000
00000000
00000000
,
10000000
00000000
10000000
01000000
00000000
00000000
00100000
00000000
00010000
00000000
00010000
01000000
00000000
00000000
00100000
00000000
,
10000000
00000000
01000000
00100000
01000000
00000000
00100000
00000000
00010000
00000000
01000000
00000000
01010000
00000000
00000000
00000000
,
10000000
00000000
01000000
00100000
01000000
00000000
00100000
00010000
00100000
00000000
00010000
00000000
10000000
00000000
00000000
00000000
,
00010000
00000000
01000000
00010000
01000000
00000000
00100000
01000000
00100000
00000000
10000000
00000000
00010000
00000000
00000000
00000000
,
11000000
00000000
01000000
00000000
00100000
00010000
00100000
00010000
10000000
00000000
00100000
10000000
00100000
10000000
00010000
00000000
,
00100000
00000000
00010000
00000000
01000000
00010000
00100000
00000000
00001000
00000000
00100000
00000000
00101000
00000000
00011000
00000000
,
00001200
00000000
00000000
00000000
00001300
00000001
00001000
00000001
00001000
00000000
00000010
00000000
00000100
00000001
00000100
00000000
,
00000010
00001000
00000001
00000000
00000010
00000000
00000001
00000000
00001000
00000000
00000100
00000000
00001100
00000000
00000000
00000000
,
00000011
00000000
00000010
00000000
00000100
00001000
00000100
00001000
00000001
00000000
00000100
00000001
00000100
00000001
00001000
00000000
,
00000100
00000000
00001000
00000000
00000010
00001000
00000100
00000000
00010000
00000000
00000100
00000000
00010100
00000000
00011000
00000000
,
00210000
00000000
00000000
00000000
00310000
10000000
00010000
10000000
00010000
00000000
01000000
00000000
00100000
10000000
00100000
00000000
,
10000000
00010000
00100000
00000000
00000000
00000000
00000000
00000000
00000000
00000000
00010000
00000000
00010000
00000000
10000000
00000000
,
10200000
00000000
10300000
00010000
00120000
00000000
10030000
00100000
,
01000000
00000000
00010000
10000000
00010000
00000000
00100000
00000000
00001000
00100000
00001000
00000000
00010000
00000000
00000000
00000000
,
00000100
00010000
00000100
00010000
00001000
00000000
00100000
00000000
00001000
00010000
00001000
00010000
00000100
00000000
00001000
00000000
,
00000010
00000010
00000100
00000100
00000110
00001010
00000002
00000000
,
00001003
00000100
00001000
00000100
00000010
00000001
00001000
00000000
00000001
00000100
00000001
00000100
00000010
00001000
00000001
00000000
,
00000100
00000110
00000010
00001000
00001100
00010100
00012000
00000000
,
00103000
00000000
00100000
00010000
01000000
00000000
01000000
00100000
10000000
00000000
00010000
00000000
10020000
00000000
00000000
00000000
,
10030000
01000000
00100000
00010000
10000000
00000000
00100000
01000000
00100000
00000000
10000000
00000000
00010000
00000000
00000000
00000000
,
10000000
10000000
01000000
10000000
00100000
10000000
00010000
00010000
00100000
00010000
10000000
00000000
00000000
00000000
00000000
00000000
,
00010000
00010000
00100000
00010000
01000000
00010000
10000000
10000000
01000000
00100000
00010000
00000000
01000000
00000000
00010000
00000000
,
00100000
00100000
00010000
00100000
00001000
00100000
00001000
00001000
00010000
00000100
00001000
00000000
00000000
00000000
00000000
00000000
,
00000100
00000100
00001000
00000010
00000100
00000010
00001000
00001000
00000100
00000010
00000001
00000000
00001001
00000000
00000000
00000000
,
00000001
00000100
00000001
00000100
00000010
00001000
00000100
00001000
00000100
00000010
00000001
00000000
00000000
00000000
00000000
00000000
,
00001000
00000100
00001000
00000100
00000010
00000001
00001000
00000010
00001000
00000010
00000100
00000000
00000001
00000000
00001000
00000000
,
00000010
00010000
00000010
00010000
00000010
00000000
00001000
00000000
00000001
00000100
00000001
00000000
00000010
00000000
00000100
00000000
,
00010000
00000100
00010000
00000100
00010000
00000000
00000010
00000000
00001000
00000100
00000010
00000000
00001001
00000000
00000000
00000000
,
00000011
00000000
00000010
00000000
00000100
00001000
00000100
00001000
00000001
00000000
00000100
00000001
00000100
00000001
00001000
00000000
,
00000100
00000000
00001000
00000000
00000010
00001000
00000100
00000000
00010000
00000000
00000100
00000000
00010100
00000000
00011000
00000000
,
00210000
00000000
00000000
00000000
00310000
10000000
00010000
10000000
00010000
00000000
01000000
00000000
00100000
10000000
00100000
00000000
,
01000000
00010000
10000000
00000000
01000000
00000000
10000000
00000000
00010000
00000000
00100000
00000000
00110000
00000000
00000000
00000000
,
11000000
00000000
01000000
00000000
00100000
00010000
00100000
00010000
10000000
00000000
00100000
10000000
00100000
10000000
00010000
00000000
,
00100000
00000000
00010000
00000000
01000000
00010000
00100000
00000000
00001000
00000000
00100000
00000000
00101000
00000000
00011000
00000000
,
00001200
00000000
00000000
00000000
00001300
00000001
00001000
00000001
00001000
00000000
00000010
00000000
00000100
00000001
00000100
00000000
,
00000001
00001000
00000100
00000000
00000000
00000000
00000000
00000000
00000000
00000000
00001000
00000000
00001000
00000000
00000001
00000000
,
00000201
00000000
00000301
00001000
00002100
00000000
00003001
00000100
,
00000010
00000000
00001000
00000001
00001000
00000000
00000100
00000000
00010000
00000100
00010000
00000000
00001000
00000000
00000000
00000000
,
00100000
00001000
00100000
00001000
00010000
00000000
00000100
00000000
00010000
00001000
00010000
00001000
00100000
00000000
00010000
00000000
,
01000000
01000000
00100000
00100000
01100000
01010000
20000000
00000000
,
30010000
00100000
00010000
00100000
01000000
10000000
00010000
00000000
10000000
00100000
10000000
00100000
01000000
00010000
10000000
00000000
,
00100000
01100000
01000000
00010000
00110000
00101000
00021000
00000000
,
00030100
00000000
00000100
00001000
00000010
00000000
00000010
00000100
00000001
00000000
00001000
00000000
00002001
00000000
00000000
00000000
,
00003001
00000010
00000100
00001000
00000001
00000000
00000100
00000010
00000100
00000000
00000001
00000000
00001000
00000100
00000000
00000000
,
00000001
00000000
00001100
00000000
00000001
00001000
00000100
00000000
00000001
00000000
00001100
00000000
00000001
00001000
00000100
00000000
,
00001000
00000000
00001000
00000100
00010000
00000000
00010000
00001000
00100000
00000000
00010000
00000000
01000000
00100000
01000000
00000000
,
00010000
00000000
10100000
00000000
10000000
00100000
01000000
00000000
00010000
00000000
10100000
00000000
10000000
00100000
01000000
00010000
,
10000000
00000000
00000000
00000000
;

//---------------dance-single - ----------------
#NOTES:
     dance-single:
     :
     Medium:
     5:
     0.300378,0.311301,0.095575,0.177496,0.000000,268.000000,14.000000,26.000000,0.000000,0.000000,0.000000,0.300378,0.311301,0.095575,0.177496,0.000000,268.000000,14.000000,26.000000,0.000000,0.000000,0.000000:
0000
0000
0000
0000
,
0000
0000
0000
0000
,
1000
0100
0100
0010
0001
0001
0000
0000
,
0001
0100
0100
0010
1000
1000
0000
0000
,
1000
1000
1000
0001
0001
0001
0000
0000
,
0001
0001
0001
1000
1000
1000
0000
0000
,
0020
1030
0002
0013
,
0001
0000
1000
0100
0010
0001
0000
0000
,
2000
3010
0200
0310
,
1000
0000
0001
0010
0100
1000
0000
0000
,
0002
0103
0020
1030
,
0001
0000
1000
1000
0001
0001
0000
0000
,
2000
3010
0200
0300
,
0002
0013
0200
0300
,
1001
0000
1000
0000
0010
0010
0100
0000
,
0001
0000
1000
0000
0100
0100
0010
0001
,
1000
0000
0010
0000
0100
0100
0001
0000
,
2000
0000
3000
0000
0100
0010
0001
0000
,
1000
0000
0010
0000
0100
0100
0001
0000
,
1000
0000
0001
0000
0010
0010
0001
1000
,
0010
0000
0100
0000
0010
0010
1000
0000
,
0200
0300
0000
0000
,
1001
0100
1001
0100
,
0000
1000
1000
0000
0100
0010
0001
0000
,
1000
1010
0001
0011
,
0000
1000
1000
0000
0001
1000
0010
0000
,
2000
0000
3100
0100
0020
0000
0031
0001
,
0100
0000
0010
0000
1000
0001
1000
0000
,
0101
0000
0110
0000
1000
0010
0100
0000
,
0002
2003
3200
0300
,
1000
1000
0100
1000
0001
0001
0000
0000
,
0001
0001
0100
0001
1000
1000
0000
0000
,
0010
0010
0010
0100
0100
0100
0000
0000
,
0001
0001
0001
1000
1000
1000
0000
0000
,
0020
0000
1030
0000
0100
0100
0000
0000
,
2000
0000
3001
0000
0100
0100
0000
0000
,
0001
0010
0001
0010
0001
0000
0000
0000
,
1000
0010
1000
0010
1000
0000
0000
0000
,
1001
0000
0001
0000
0100
0100
0010
0000
,
1000
0000
0001
0000
0010
0010
0100
1000
,
0001
0000
0100
0000
0010
0010
1000
0000
,
0002
0000
0003
0000
0010
0100
1000
0000
,
0001
0000
0100
0000
0010
0010
1000
0000
,
0001
0000
1000
0000
0100
0100
1000
0001
,
0100
0000
0010
0000
0100
0100
0001
0000
,
0020
0030
0000
0000
,
1001
0010
1001
0010
,
0000
0001
0001
0000
0010
0100
1000
0000
,
0001
0101
1000
1100
,
0000
0001
0001
0000
1000
0001
0100
0000
,
0002
0000
0013
0010
0200
0000
1300
1000
,
0010
0000
0100
0000
0001
1000
0001
0000
,
1010
0000
0110
0000
0001
0100
0010
0000
,
2000
3002
0023
0030
,
0001
1000
0001
0001
1000
0001
1000
1000
,
0010
0010
0100
0001
,
1000
1000
0001
1000
0001
0001
1000
0001
,
0100
0000
0000
0000
;

//---------------dance-single - ----------------
#NOTES:
     dance-single:
     :
     Easy:
     3:
     0.160917,0.194563,0.000000,0.109228,0.000000,149.000000,0.000000,16.000000,0.000000,0.000000,0.000000,0.160917,0.194563,0.000000,0.109228,0.000000,149.000000,0.000000,16.000000,0.000000,0.000000,0.000000:
0000
0000
0000
0000
,
0000
0000
0000
0000
,
0010
0010
1000
0000
,
0001
0001
0010
0000
,
0100
0100
1000
0000
,
0010
0010
0100
0000
,
0002
0003
1000
0000
,
0010
1000
0001
0000
,
2000
3000
0001
0000
,
1000
0001
0100
0000
,
0020
0030
0010
0010
,
2000
3000
1000
0000
,
0001
0001
1000
0000
,
1000
1000
0001
0000
,
0100
0000
0010
1000
,
0010
0000
1000
0001
,
0001
0000
1000
0100
,
1000
0000
0001
0000
,
0010
0000
0001
0100
,
0001
0000
1000
0010
,
0010
0000
1000
0100
,
1000
0000
0000
0000
,
0010
0100
0010
0100
,
0000
0001
0001
0000
,
1000
0100
1000
0100
,
0000
1000
1000
0000
,
0001
0010
0001
0010
,
0000
0001
0001
0000
,
1000
0010
0100
0100
,
0010
0000
1000
0000
,
0001
0001
0000
0000
,
1000
1000
0000
0000
,
0010
0010
0000
0000
,
0100
0100
0000
0000
,
0001
0100
0000
0000
,
1000
0100
0000
0000
,
0001
0010
0000
0000
,
1000
0010
0000
0000
,
2000
3000
0100
0100
,
0020
0030
0001
1000
,
0020
0030
0100
0100
,
0002
0003
0000
0000
,
2000
3000
0001
0001
,
0200
0300
0010
1000
,
0002
0003
0010
0010
,
0002
0003
0000
0000
,
1000
0010
1000
0010
,
0000
0100
0100
0000
,
0001
1000
0001
1000
,
0000
0010
0010
0000
,
1000
0100
1000
0100
,
0000
0010
0010
0000
,
0001
0100
0010
0010
,
2000
3000
0002
0003
,
0100
0100
0010
0010
,
2000
3000
0002
0003
,
0010
0010
0100
0100
,
1000
0000
0000
0000
;

//---------------dance-single - ----------------
#NOTES:
     dance-single:
     :
     Beginner:
     2:
     0.112154,0.136194,0.040961,0.000000,0.000000,109.000000,6.000000,0.000000,0.000000,0.000000,0.000000,0.112154,0.136194,0.040961,0.000000,0.000000,109.000000,6.000000,0.000000,0.000000,0.000000,0.000000:
0000
0000
0000
0000
,
0000
0000
0000
0000
,
1000
0000
0000
0000
,
0001
0000
0000
0000
,
0100
0000
0000
0000
,
0001
0000
0000
0000
,
1000
0000
1000
0000
,
0010
0000
0000
0000
,
0100
0000
0100
0000
,
0001
0000
0000
0000
,
1000
0000
1000
0000
,
0001
0000
0000
0000
,
0100
0100
0000
0000
,
0100
0100
0000
0000
,
1001
0000
0010
0010
,
0000
0000
1000
0000
,
0001
0000
0100
0100
,
0100
0000
0000
0000
,
1001
0000
1000
1000
,
0000
0000
0010
0010
,
0010
0000
0100
0000
,
0001
0000
0000
0000
,
1000
1000
1000
1000
,
0000
0000
0010
0000
,
0100
0100
0100
0100
,
0000
0000
0001
0000
,
0010
0010
0010
0010
,
0000
0000
0001
0000
,
1000
0000
1000
0000
,
0010
0000
0010
0000
,
0100
0100
0000
0000
,
0001
0001
0000
0000
,
1000
1000
0000
0000
,
0010
0010
0000
0000
,
1000
0000
1000
0000
,
0001
0000
0001
0000
,
0100
0100
0000
0000
,
0100
0100
0000
0000
,
1001
0000
0001
0001
,
0000
0000
0010
0010
,
0010
0000
0001
0000
,
1000
0000
0000
0000
,
1001
0000
1000
1000
,
1000
0000
0000
0010
,
0010
0000
1000
0000
,
0001
0000
0000
0000
,
0100
0100
0100
0100
,
0000
0000
0001
0000
,
1000
1000
1000
1000
,
0000
0000
0010
0000
,
0100
0100
0100
0100
,
0000
0000
0001
0000
,
1000
0000
1000
0000
,
0010
0000
0010
0000
,
1001
0000
0000
0000
,
1000
1000
1000
0000
,
1001
0000
0000
0000
,
0001
0000
0000
0000
;
