#TITLE:GERUDO VALLEY (Techno Remix);
#ARTIST:Nintendo;
#FILE:Gerudo Valley (Techno Remix).mp3;
#BPM:130.000;
#GAP:3727;
#SAMPLESTART:27.660;
#SAMPLELENGTH:12.000;
#CDTITLE:./CDTITLES/DANCE DANCE REVOLUTION EXTREME.PNG;
#SINGLE:MANIAC:8:
00000000
00000000
(4242080626262000)
(8000400060060060)
(2000800040040040)
60308070
20A04070
20308090
40B08010
60A04030
80106030
80B02090
40706010
(0828200646400000)
(0242400686800000)
(0242400828200000)
(06824!400000004000)
(0848400686800000)
(0242400828200000)
(0686800242400000)
(04286!600000006000)
(0040080020060040)
(80004646!600006000)
(0020080040060020)
(80002626!600006000)
(0040020080060020)
(80004848!800008000)
(2002002!20800800A!80)
(4004007!40600600B0)
(0020080040060020)
(80002828!800008000)
(0020060080020040)
(60002626!600006000)
(0048480026260000)
(0042420086860000)
(4008002060080020)
B!B00000B0
(2828000000042424)
(2868!8000000008000)
(2424000000626262)
(8484!4000000004000)
62842628
62428468
24826824
B!B00000B0
;
#SINGLE:ANOTHER:5:
00000000
00000000
00000000
(4000600020020020)
(2000800040040040)
40602030
40802090
206040A0
602080B0
62804820
64802840
62604820
84602840
60208400
60208200
60802400
8!80802060
40802600
40208600
20804600
2!20206020
40602060
2!20208!8080
40602060
4!40406!6060
20804060
28406280
40626048
2!20000020
60206040
80284!4040
60206080
20482!2020
62804800
28406200
82804640
80206040
60308048
20308042
40902084
60308048
20602080
40206080
40206040
B!B00000B0
;
#SINGLE:BASIC:3:
00000000
00000000
00000000
40000000
60000000
20202020
80808080
40404040
60606060
4!40106!6030
4!40106!6030
4!40706!6090
4!40706!6090
40008000
20006000
40804060
20804060
20008000
40006000
20604080
20602080
40003080
4000A080
40003080
6000A080
4!40208010
6!60802090
4!406080B0
6!60204030
80406020
6!60604!4040
80206020
8!80804!4040
60206040
80206020
80402060
80406020
70004080
30006020
B0008020
90002060
10008020
30008040
B0002080
B!B00000B0
;
