#TITLE:Black Magic;
#SUBTITLE:;
#ARTIST:Little Mix;
#TITLETRANSLIT:;
#SUBTITLETRANSLIT:;
#ARTISTTRANSLIT:;
#GENRE:Basically A Roofie;
#CREDIT:;
#BANNER:Black Magic.png;
#BACKGROUND:Black Magic-bg.png;
#LYRICSPATH:;
#CDTITLE:;
#MUSIC:Black Magic.ogg;
#OFFSET:-0.310000;
#SAMPLESTART:47.443962;
#SAMPLELENGTH:13.714000;
#SELECTABLE:YES;
#BPMS:0.000000=112.000000
,168.000000=56.000000
,184.000000=112.000000
;
#STOPS:
;
#BGCHANGES:4.000=Black Magic.avi=1.000=0=0=1=====,
99999=-nosongbg-=1.000=0=0=0 // don't automatically add -songbackground-
;
#KEYSOUNDS:;
#ATTACKS:;

//---------------dance-single - ----------------
#NOTES:
     dance-single:
     :
     Hard:
     7:
     0.369232,0.573303,0.139116,0.131794,0.087863,316.000000,19.000000,18.000000,0.000000,0.000000,0.000000,0.369232,0.573303,0.139116,0.131794,0.087863,316.000000,19.000000,18.000000,0.000000,0.000000,0.000000:
// measure 0
0000
0000
0000
0000
,  // measure 1
0000
0000
0000
0000
,  // measure 2
0100
0000
0100
0000
0001
1000
0100
0000
,  // measure 3
0010
0000
0010
0000
0001
1000
0010
0000
,  // measure 4
0102
1003
0100
0000
,  // measure 5
1000
0100
0010
0000
0001
1000
0010
0000
,  // measure 6
2010
3001
0010
0000
,  // measure 7
0001
0010
0100
0000
1000
0001
0100
0000
,  // measure 8
1002
0000
0103
0010
1000
0000
0001
0000
,  // measure 9
1000
0100
1000
0000
0001
0100
0001
0000
,  // measure 10
1000
0000
0100
0010
0001
0000
1001
0000
,  // measure 11
0010
0000
0100
0001
1000
0000
0100
0010
,  // measure 12
0010
0001
0000
0000
1000
0000
0001
0100
,  // measure 13
0200
0000
0310
0000
1001
0000
0010
0100
,  // measure 14
0100
1000
0000
0000
0001
0000
1000
0010
,  // measure 15
0020
0000
0130
0000
1001
0000
0001
0100
,  // measure 16
0010
1000
0000
0000
0100
0000
0110
0000
,  // measure 17
0001
0010
0001
0000
1000
0100
1000
0000
,  // measure 18
0020
0100
1030
1001
,  // measure 19
0010
0001
0100
0010
1000
0000
0001
0000
,  // measure 20
0100
0010
0100
0010
1000
0100
0010
0000
,  // measure 21
0002
1000
1003
1001
,  // measure 22
0000
0010
1000
0010
0100
0100
0100
0000
,  // measure 23
0000
0001
0010
0001
1000
1000
1000
0000
,  // measure 24
0000
0100
1000
0100
0010
0010
0010
0000
,  // measure 25
0000
0001
1000
0001
0100
0100
0100
0000
,  // measure 26
0000
0010
0100
0001
2000
0000
3100
0000
,  // measure 27
0000
1000
0010
0100
0002
0000
1003
0000
,  // measure 28
0010
0000
0000
0010
0000
0000
0010
0000
0100
0000
0000
0000
1001
0000
0000
0000
,  // measure 29
0100
0000
0000
0100
0000
0000
0100
0000
0010
0000
0000
0000
1001
0000
0000
0000
,  // measure 30
0000
0100
0001
0100
0010
0010
0010
0000
,  // measure 31
0000
1000
0100
1000
0001
0001
0001
0000
,  // measure 32
0000
0010
0001
0010
0100
0100
0100
0000
,  // measure 33
0000
1000
0001
1000
0010
0010
0010
0000
,  // measure 34
0000
0100
0010
1000
0002
0000
0013
0000
,  // measure 35
0000
0001
0100
0010
2000
0000
3001
0000
,  // measure 36
0100
0000
0000
0100
0000
0000
0100
0000
0010
0000
0000
0000
1001
0000
0000
0000
,  // measure 37
0010
0000
0000
0010
0000
0000
0010
0000
0100
0000
0000
0000
1001
0000
0000
0000
,  // measure 38
0100
0000
0010
0000
1000
0100
0001
0000
,  // measure 39
0000
0000
1000
0100
0010
0001
1000
0000
,  // measure 40
0010
0000
0100
0000
0001
0010
1000
0000
,  // measure 41
0000
0000
0001
0010
0100
1000
0001
0000
,  // measure 42
2000
0000
0000
0000
0100
0100
3100
0000
0002
0000
0000
0000
0100
0100
0103
0000
,  // measure 43
2000
0000
0000
0000
0010
0010
3010
0000
0002
0000
0000
0000
0010
0010
0013
0000
,  // measure 44
0001
1000
0001
1000
0010
0100
0010
0000
1000
0001
1000
0001
0100
0010
0100
0000
,  // measure 45
0001
0000
0000
0001
0000
0000
0001
0000
0100
0000
0000
0000
0101
0000
0000
0000
1000
0000
0000
1000
0000
0000
1000
0000
0100
0000
0000
0000
1100
0000
0000
0000
,  // measure 46
0000
1000
0100
0010
0001
1000
0001
1000
,  // measure 47
0000
0001
0100
0010
1000
0001
1000
0000
,  // measure 48
0000
1000
0100
0010
0001
1000
0001
1000
,  // measure 49
0000
0001
0100
0010
1000
0001
1000
0000
,  // measure 50
0020
0000
0130
0000
0001
0010
0100
0000
,  // measure 51
2000
0000
3001
0000
0100
0001
1000
0000
,  // measure 52
0100
0000
0000
0100
0000
0000
0100
0000
0010
0000
0000
0000
0001
0000
0000
0000
,  // measure 53
0100
0000
0000
0100
0000
0000
0100
0000
0010
0000
0000
0000
1000
0000
0000
0000
,  // measure 54
0001
0000
0000
0100
0000
0000
0010
0000
0010
0000
0000
0000
0110
0000
0000
0000
,  // measure 55
1000
0000
0000
0100
0000
0000
0010
0000
0010
0000
0000
0000
0110
0000
0000
0000
,  // measure 56
0001
0000
0000
0010
0000
0000
0100
0000
1000
0000
0000
0000
1100
0000
0000
0000
,  // measure 57
1000
0000
0000
0010
0000
0000
0100
0000
0001
0000
0000
0000
0102
0000
0000
0000
,  // measure 58
1003
0000
0000
0000
;

//---------------dance-single - ----------------
#NOTES:
     dance-single:
     :
     Challenge:
     9:
     0.558555,0.637003,0.300197,0.021966,0.417347,490.000000,41.000000,3.000000,0.000000,0.000000,0.000000,0.558555,0.637003,0.300197,0.021966,0.417347,490.000000,41.000000,3.000000,0.000000,0.000000,0.000000:
// measure 0
0000
0000
0000
0000
,  // measure 1
0000
0000
0000
0000
0000
0000
0000
0000
0000
0000
0000
0000
0000
0000
1000
0010
,  // measure 2
0100
0000
0001
0010
0100
0000
1000
0010
0100
0000
0010
0000
1001
0000
0000
0000
,  // measure 3
0100
0000
0000
0100
0001
0000
1000
0100
0010
0000
0001
0000
1001
0000
0000
0000
,  // measure 4
0010
0100
0001
1000
0010
1000
0100
0010
,  // measure 5
0001
1000
0000
0000
0001
1000
0000
0000
0010
0100
0000
0000
1001
0000
0000
0000
,  // measure 6
0001
0100
0010
1000
0100
0010
0001
1000
,  // measure 7
0010
0100
0000
0000
0010
0100
0000
0000
0001
0010
0000
0000
1100
0000
0000
0000
,  // measure 8
0100
1000
0001
0100
0010
1000
0100
0010
,  // measure 9
0001
0000
0001
0000
1000
0000
0010
0100
0010
0000
1000
0000
0001
0000
0000
0000
,  // measure 10
0010
0000
0000
0010
0001
0000
1000
0000
1000
0000
0000
0000
1001
0000
0000
0000
,  // measure 11
0010
0000
0000
0010
1000
0000
0001
0000
0001
0000
0000
0000
1001
0000
0000
0000
,  // measure 12
0100
0010
1000
0001
0100
0001
0010
0100
,  // measure 13
1000
0001
0000
0000
1000
0001
0000
0000
0100
0010
0000
0000
1001
0000
0000
0000
,  // measure 14
1000
0010
0100
0001
0010
0100
1000
0001
,  // measure 15
0100
0010
0000
0000
0100
0010
0000
0000
1000
0100
0000
0000
0011
0000
0000
0000
,  // measure 16
0010
0001
1000
0010
0100
0001
0010
0100
,  // measure 17
1000
0000
1000
0000
0001
0000
0100
0010
0100
0000
0001
0000
1000
0000
0000
0000
,  // measure 18
0100
0000
0000
0100
1000
0000
0001
0000
0001
0000
0000
0000
1001
0000
0000
0000
,  // measure 19
0100
0000
0000
0100
0001
0000
1000
0000
1000
0000
0000
0000
1001
0000
1000
0100
,  // measure 20
1000
0000
0001
0100
0001
0000
1000
0010
1000
0000
0001
0010
0001
0000
1000
0000
,  // measure 21
0010
0000
0000
0010
0100
0000
0001
0010
0100
1000
0001
0000
1001
0000
0000
0000
,  // measure 22
0100
0000
0010
1000
0010
0000
0100
0001
0100
0000
0010
0000
1000
0000
0100
0000
,  // measure 23
0010
0001
1000
0010
1010
1001
0101
0000
,  // measure 24
0001
0000
0100
0010
0100
0000
0001
0000
0010
0000
0100
0000
1000
0000
0001
0000
,  // measure 25
1000
0010
0010
0100
0110
0101
1001
0000
,  // measure 26
0100
0000
1000
0100
1000
0000
0001
0000
1000
0000
0010
0000
0100
0000
0000
0000
,  // measure 27
0001
0000
0100
0001
0100
0000
0010
0000
1000
0000
0001
0000
0010
0000
0100
0000
,  // measure 28
1000
0100
1000
0001
0100
0001
1000
0000
0100
0000
0010
0000
0001
0000
0000
0000
,  // measure 29
1000
0010
1000
0001
0010
0001
1000
0000
0010
0000
0100
0000
1001
0000
0000
0000
,  // measure 30
0010
0000
0100
0001
0100
0000
0010
1000
0010
0000
0100
0000
0001
0000
0010
0000
,  // measure 31
0100
1000
0001
0100
0101
1001
1010
0000
,  // measure 32
1000
0000
0010
0100
0010
0000
1000
0000
0100
0000
0010
0000
0001
0000
1000
0000
,  // measure 33
0001
0100
0100
0010
0110
1010
1001
0000
,  // measure 34
0010
0000
0001
0010
0001
0000
1000
0000
0001
0000
0100
0000
0010
0000
0000
0000
,  // measure 35
1000
0000
0010
1000
0010
0000
0100
0000
0001
0000
1000
0000
0100
0000
0010
0000
,  // measure 36
0001
0010
0001
1000
0010
1000
0001
0000
0010
0000
0100
0000
1000
0000
0000
0000
,  // measure 37
0001
0100
0001
1000
0100
1000
0001
0000
0100
0000
0010
0000
1001
0000
0001
0100
,  // measure 38
0010
0000
1000
0100
0010
0000
0001
0100
0010
0000
0100
0000
1001
0000
0000
0000
,  // measure 39
0010
0000
0000
0010
1000
0000
0001
0010
0100
0000
1000
0000
0110
0000
1000
0010
,  // measure 40
0100
0000
0001
0010
0100
0000
1000
0010
0100
0000
0010
0000
1001
0000
0000
0000
,  // measure 41
0100
0000
0000
0100
0001
0000
1000
0100
0010
0000
0001
0000
0110
0000
0000
0000
,  // measure 42
0000
0000
0001
0010
0001
0000
1000
0100
1000
0000
0001
0000
1000
0000
0010
0000
0000
0000
0100
0000
0100
0000
0001
0000
0010
0000
0010
0000
0100
0000
0000
0000
,  // measure 43
0000
0000
0010
0001
0010
0000
0001
0000
1000
0000
0010
0000
0100
0000
0001
0000
0000
0000
1000
0000
1000
0000
0100
0000
0010
0000
0001
0000
1000
0000
0000
0000
,  // measure 44
0000
0001
0100
1000
0100
0001
0101
0000
0000
0010
1000
0010
0001
0010
1000
0001
,  // measure 45
0020
0000
0030
0000
0000
0000
0100
1000
0020
0000
0030
0000
0000
0000
0100
0001
1000
0000
0000
0100
0000
0000
0010
0000
0000
0000
0001
0000
1001
0000
0000
0000
,  // measure 46
1000
0000
0100
0010
0001
0000
1000
0010
0100
0000
0001
0000
1000
0000
0010
0000
,  // measure 47
0100
0001
0001
0010
0011
0110
1100
0001
,  // measure 48
1000
0000
0010
0100
0001
0000
1000
0000
0100
0000
0010
0000
0001
0000
1000
0000
,  // measure 49
0010
0100
0100
0010
1010
0110
0101
1000
,  // measure 50
0001
0000
0010
0000
0100
0000
0010
0000
0001
1000
0001
1000
0001
0000
0000
0000
,  // measure 51
0100
0000
0010
0000
0100
0000
0001
0000
1000
0001
1000
0001
1000
0000
0000
0000
,  // measure 52
0001
0100
0001
1000
0100
1000
0001
0000
0100
0000
0010
0000
1000
0000
0000
0000
,  // measure 53
0001
0010
0001
1000
0010
1000
0001
0000
0010
0000
0100
0000
1000
0000
0000
0000
,  // measure 54
0001
0000
0100
0010
0000
0010
1000
0000
0100
0000
0000
0000
1100
0000
0000
0000
,  // measure 55
0010
0000
1000
0100
0000
0100
0010
0000
0001
0000
0000
0000
0011
0000
0000
0000
,  // measure 56
1000
0000
0001
0100
0000
0100
0010
0000
1000
0000
0000
0000
1010
0000
0000
0000
,  // measure 57
0010
0000
0100
0001
0000
0001
1000
0000
0100
0000
0000
0000
2100
0000
0000
0000
,  // measure 58
3001
0000
0000
0000
;

//---------------dance-single - ----------------
#NOTES:
     dance-single:
     :
     Medium:
     4:
     0.253128,0.403435,0.124472,0.139116,0.007322,206.000000,17.000000,19.000000,0.000000,0.000000,0.000000,0.253128,0.403435,0.124472,0.139116,0.007322,206.000000,17.000000,19.000000,0.000000,0.000000,0.000000:
// measure 0
0000
0000
0000
0000
,  // measure 1
0000
0000
0000
0000
,  // measure 2
0100
0100
0010
1001
,  // measure 3
0100
0000
0001
1000
0100
0000
0000
0000
,  // measure 4
1000
0000
0100
0010
0001
0000
0000
0000
,  // measure 5
1000
1000
0001
0001
,  // measure 6
0100
0000
0001
0010
0100
0000
0000
0000
,  // measure 7
1000
1000
0001
0001
,  // measure 8
0100
0100
0000
0000
0010
0000
0000
0000
,  // measure 9
1000
0000
0001
1000
,  // measure 10
0110
0001
1000
0000
,  // measure 11
0110
1000
0001
0000
,  // measure 12
0001
0000
0010
0100
1000
0000
0000
0000
,  // measure 13
0001
0001
1000
1000
,  // measure 14
0010
0000
1000
0100
0010
0000
0000
0000
,  // measure 15
0001
0001
1000
1000
,  // measure 16
0010
0010
0000
0000
0100
0000
0000
0000
,  // measure 17
0001
0000
1000
0001
,  // measure 18
0110
1000
0001
0000
,  // measure 19
0110
0001
1000
0000
,  // measure 20
0002
2003
3020
0230
,  // measure 21
0302
0000
1003
1001
,  // measure 22
0000
0010
1000
0100
,  // measure 23
0000
0000
0010
0000
0001
1000
0001
0000
,  // measure 24
0000
0100
0001
1000
,  // measure 25
0000
0000
0010
0000
1000
0001
1000
0000
,  // measure 26
0000
0200
0310
0001
,  // measure 27
0000
0200
0310
1000
,  // measure 28
0001
0001
0001
0000
,  // measure 29
1000
1000
1000
0110
,  // measure 30
0000
0100
0001
0010
,  // measure 31
0000
0000
0100
0000
1000
0001
1000
0000
,  // measure 32
0000
0010
1000
0001
,  // measure 33
0000
0000
0100
0000
0001
1000
0001
0000
,  // measure 34
0000
0020
0130
1000
,  // measure 35
0000
0020
0130
0001
,  // measure 36
1000
1000
1000
0000
,  // measure 37
0001
0001
0001
0110
,  // measure 38
0010
0010
0100
1001
,  // measure 39
0010
0000
1000
0001
0010
0000
0000
0000
,  // measure 40
0100
0100
0010
1001
,  // measure 41
0100
0000
0001
1000
0100
0000
0000
0000
,  // measure 42
2000
0000
0000
0000
3100
0000
0000
0000
0002
0000
0000
0000
0103
0100
0100
0000
,  // measure 43
0020
0000
0000
0000
1030
0000
0000
0000
0200
0000
0000
0000
0310
0010
0010
0000
,  // measure 44
0001
1000
0010
1001
0100
0001
1000
0000
,  // measure 45
0100
0000
0100
0000
1100
0011
0101
1010
,  // measure 46
0000
0100
0001
0010
,  // measure 47
0000
0000
0100
0000
1000
0001
1000
0000
,  // measure 48
0000
0010
1000
0001
,  // measure 49
0000
0000
0100
0000
0001
1000
0001
0000
,  // measure 50
0000
0020
0130
1000
,  // measure 51
0000
0020
0130
0001
,  // measure 52
1000
1000
1000
0000
,  // measure 53
0001
0001
0001
0110
,  // measure 54
2000
0100
3100
0000
,  // measure 55
0002
0100
0103
0000
,  // measure 56
2000
0010
3010
0000
,  // measure 57
0002
0010
0013
0000
,  // measure 58
1001
0000
0000
0000
;

//---------------dance-single - ----------------
#NOTES:
     dance-single:
     :
     Easy:
     3:
     0.172587,0.254801,0.073219,0.102506,0.000000,141.000000,10.000000,14.000000,0.000000,0.000000,0.000000,0.172587,0.254801,0.073219,0.102506,0.000000,141.000000,10.000000,14.000000,0.000000,0.000000,0.000000:
// measure 0
0000
0000
0000
0000
,  // measure 1
0000
0000
0000
0000
,  // measure 2
1000
0000
0001
0000
,  // measure 3
0100
0010
0100
0000
,  // measure 4
1001
0000
0010
0000
,  // measure 5
1000
0100
0010
0000
,  // measure 6
1001
0000
0100
0000
,  // measure 7
0001
0010
0100
0000
,  // measure 8
1000
1000
0100
0000
,  // measure 9
0001
0001
0100
0000
,  // measure 10
0020
0030
0000
1001
,  // measure 11
0200
0300
0000
0000
,  // measure 12
1001
0000
0100
0000
,  // measure 13
0001
0010
0100
0000
,  // measure 14
1001
0000
0010
0000
,  // measure 15
1000
0100
0010
0000
,  // measure 16
0001
0001
0010
0000
,  // measure 17
1000
1000
0010
0000
,  // measure 18
0200
0300
0000
1001
,  // measure 19
0020
0030
0000
0000
,  // measure 20
1000
0100
0010
0001
,  // measure 21
1000
0000
0001
0000
,  // measure 22
0100
0000
0010
0000
,  // measure 23
1000
0100
0010
0000
,  // measure 24
0001
0000
1000
0000
,  // measure 25
0010
1000
0100
0000
,  // measure 26
0010
0010
0010
0000
,  // measure 27
0001
0001
0001
0000
,  // measure 28
0200
0300
0000
0010
,  // measure 29
0200
0300
0000
0000
,  // measure 30
0001
0000
1000
0000
,  // measure 31
0100
0010
0001
0000
,  // measure 32
0100
0000
0010
0000
,  // measure 33
1000
0001
0010
0000
,  // measure 34
0100
0100
0100
0000
,  // measure 35
1000
1000
1000
0000
,  // measure 36
0020
0030
0000
0100
,  // measure 37
0020
0030
0000
0000
,  // measure 38
0100
0000
0001
0000
,  // measure 39
1000
0001
1000
0000
,  // measure 40
0100
0000
0010
0000
,  // measure 41
0001
1000
0001
0000
,  // measure 42
0200
0300
0002
0003
,  // measure 43
2000
3000
0200
0300
,  // measure 44
0010
0010
0001
0001
,  // measure 45
1000
1000
0110
1001
,  // measure 46
0110
0000
1000
0000
,  // measure 47
0001
1000
0100
0000
,  // measure 48
0010
0000
0001
0000
,  // measure 49
1000
0010
0100
0000
,  // measure 50
0001
0001
0001
0000
,  // measure 51
1000
1000
1000
0000
,  // measure 52
0020
0030
0000
0100
,  // measure 53
0020
0030
0000
0000
,  // measure 54
1000
0100
0010
0000
,  // measure 55
0001
0100
0010
0000
,  // measure 56
1000
0001
0100
0000
,  // measure 57
0001
1000
0100
0000
,  // measure 58
0110
0000
0000
0000
;

//---------------dance-single - ----------------
#NOTES:
     dance-single:
     :
     Beginner:
     1:
     0.102506,0.169868,0.058575,0.000000,0.000000,90.000000,8.000000,0.000000,0.000000,0.000000,0.000000,0.102506,0.169868,0.058575,0.000000,0.000000,90.000000,8.000000,0.000000,0.000000,0.000000,0.000000:
// measure 0
0000
0000
0000
0000
,  // measure 1
0000
0000
0000
0000
,  // measure 2
1000
0000
0000
0000
,  // measure 3
0001
0000
0000
0000
,  // measure 4
0100
0000
0000
0000
,  // measure 5
0010
0000
0010
0000
,  // measure 6
1000
0000
0000
0000
,  // measure 7
1000
0000
1000
0000
,  // measure 8
0001
0000
0000
0000
,  // measure 9
1000
0000
0000
0000
,  // measure 10
0010
0000
0000
0000
,  // measure 11
0010
0000
0000
0000
,  // measure 12
1001
0000
0000
0000
,  // measure 13
0100
0000
0100
0000
,  // measure 14
0001
0000
0000
0000
,  // measure 15
0001
0000
0001
0000
,  // measure 16
1000
0000
0000
0000
,  // measure 17
0010
0000
0000
0000
,  // measure 18
0100
0000
0000
0000
,  // measure 19
0100
0000
0000
0000
,  // measure 20
1001
0000
0000
0000
,  // measure 21
0100
0000
0000
0000
,  // measure 22
1001
0000
0000
0000
,  // measure 23
0010
0010
0000
0000
,  // measure 24
1000
0000
0000
0000
,  // measure 25
0100
0100
0000
0000
,  // measure 26
0010
0000
0000
0000
,  // measure 27
0001
0001
0000
0000
,  // measure 28
1000
1000
1000
0000
,  // measure 29
0001
0001
0001
0000
,  // measure 30
0110
0000
0000
0000
,  // measure 31
1000
1000
0000
0000
,  // measure 32
0010
0000
0000
0000
,  // measure 33
0100
0100
0000
0000
,  // measure 34
0001
0000
0000
0000
,  // measure 35
1000
0000
0000
0000
,  // measure 36
0100
0100
0100
0000
,  // measure 37
0010
0010
0010
0000
,  // measure 38
1001
0000
0000
0000
,  // measure 39
0010
0000
0010
0000
,  // measure 40
0100
0000
0000
0000
,  // measure 41
0100
0000
0100
0000
,  // measure 42
1001
0000
0000
0000
,  // measure 43
0010
0000
0000
0000
,  // measure 44
1000
0000
0001
0000
,  // measure 45
0100
0100
0100
0100
,  // measure 46
0110
0000
0000
0000
,  // measure 47
1000
0000
1000
0000
,  // measure 48
0001
0000
0000
0000
,  // measure 49
0001
0000
0001
0000
,  // measure 50
0010
0000
0000
0000
,  // measure 51
0100
0000
0000
0000
,  // measure 52
1000
1000
1000
0000
,  // measure 53
0001
0001
0001
0000
,  // measure 54
0100
0000
0100
0000
,  // measure 55
0001
0000
0001
0000
,  // measure 56
1000
0000
1000
0000
,  // measure 57
0010
0000
0010
0000
,  // measure 58
1001
0000
0000
0000
;

//---------------dance-double - ----------------
#NOTES:
     dance-double:
     :
     Challenge:
     9:
     0.560647,0.590143,0.344128,0.029288,0.366094,485.000000,47.000000,4.000000,0.000000,0.000000,0.000000,0.560647,0.590143,0.344128,0.029288,0.366094,485.000000,47.000000,4.000000,0.000000,0.000000,0.000000:
00000000
00000000
00000000
00000000
,
00000000
00000000
00000000
00000000
00000000
00000000
00000000
00000000
00000000
00000000
00000000
00000000
00000000
00000000
00010000
00001000
,
00100000
00000000
00001000
00010000
00000100
00000000
00010000
00001000
01000000
00000000
00000100
00000000
00011000
00000000
00000000
00000000
,
00010000
00000000
00000000
00010000
00100000
00000000
10000000
00100000
10000000
00000000
00010000
00000000
10010000
00000000
00000000
00000000
,
10000000
00000000
00000000
10000000
00000000
00000000
01000000
00000000
10000000
00000000
00010000
00000000
01000000
00000000
00000000
00000000
,
00010000
10000000
00000000
00000000
00010000
10000000
00000000
00000000
00100000
00000000
01000000
00000000
10010000
00000000
00000000
00000000
,
00010000
00000000
00000000
00010000
00000000
00000000
10000000
00000000
01000000
00000000
00100000
00000000
00010000
00000000
00000000
00000000
,
00100000
00001000
00000000
00000000
00100000
00001000
00000000
00000000
00010000
00001000
00010000
00000000
00011000
00000000
00000000
00000000
,
00001100
00000000
00000000
00001000
00000010
00000000
00000100
00000000
00000100
00000000
00000001
00000000
00001000
00000000
00000000
00000000
,
00000101
00000000
00000000
00000001
00000100
00000000
00000010
00000000
00000010
00000000
00001000
00000000
00000001
00000000
00000000
00000000
,
00001000
00000000
00000000
00000100
00000000
00000000
00000010
00000000
00000001
00000000
00000000
00000000
00001100
00000000
00000000
00000000
,
00000001
00000000
00000000
00000100
00000000
00000000
00000010
00000000
00001000
00000100
00001000
00000000
00001001
00000000
00000000
00000000
,
00000001
00000000
00001000
00000001
00000000
00000001
00000010
00000000
00000001
00000000
00001000
00000000
00000010
00000000
00000000
00000000
,
00001000
00000001
00000000
00000000
00001000
00000001
00000000
00000000
00000100
00000000
00000010
00000000
00001001
00000000
00000000
00000000
,
00001000
00000000
00000001
00001000
00000000
00001000
00000001
00000000
00000010
00000000
00000100
00000000
00001000
00000000
00000000
00000000
,
00000100
00010000
00000000
00000000
00000100
00010000
00000000
00000000
00001000
00010000
00001000
00000000
00011000
00000000
00000000
00000000
,
00110000
00000000
00000000
00010000
01000000
00000000
00100000
00000000
00100000
00000000
10000000
00000000
00010000
00000000
00000000
00000000
,
10100000
00000000
00000000
10000000
00100000
00000000
01000000
00000000
01000000
00000000
00010000
00000000
10000000
00000000
00000000
00000000
,
00010000
00000000
00000000
00100000
00000000
00000000
01000000
00000000
10000000
00000000
00000000
00000000
00110000
00000000
00000000
00000000
,
10000000
00000000
00000000
00100000
00000000
00000000
01000000
00000000
00010000
00100000
00010000
00000000
10010000
00000000
01000000
00100000
,
10000000
00000000
01000000
00100000
00010000
00000000
10000000
01000000
10000000
00000000
00010000
01000000
00010000
00000000
10000000
00000000
,
00020000
00000000
00000000
00000000
01000000
00000000
00000000
00000000
10030000
01000000
10000000
00000000
10010000
00000000
00000000
00000000
,
11000000
00000000
01000000
10000000
00100000
00000000
01000000
00010000
00100000
00000000
00010000
00000000
10000000
00000000
00100000
00000000
,
01000000
00010000
00010000
00100000
00101000
00011000
00001100
00000000
,
00000100
00000000
00001000
00000010
00000100
00000000
00000001
00000010
00000100
00000000
00001000
00000000
00000010
00000000
00000100
00000000
,
00000001
00001000
00001000
00000010
00010010
00011000
00110000
00000000
,
00100000
00010000
00000010
00010000
00100000
00001000
00010000
00000000
,
00000100
00001000
01000000
00001000
00000100
00010000
00001000
00000000
,
00100000
00001000
00100000
00000100
00010000
00000100
00100000
00000000
00001000
00000000
00010000
00000000
00011000
00000000
00000000
00000000
,
00000010
00001000
00000010
00010000
00001000
00010000
00000010
00000000
00001000
00000010
00000100
00000001
00000010
00000000
00000000
00000000
,
00000011
00000000
00000010
00000001
00000100
00000000
00000010
00001000
00000100
00000000
00001000
00000000
00000001
00000000
00000100
00000000
,
00000010
00001000
00001000
00000100
00010100
00011000
00110000
00000000
,
00100000
00000000
00010000
01000000
00100000
00000000
10000000
01000000
00100000
00000000
00010000
00000000
01000000
00000000
00100000
00000000
,
10000000
00010000
00010000
01000000
01001000
00011000
00001100
00000000
,
00000100
00001000
01000000
00001000
00000100
00010000
00001000
00000000
,
00100000
00010000
00000010
00010000
00100000
00001000
00010000
00000000
,
00000100
00010000
00000100
00100000
00001000
00100000
00000100
00000000
00010000
00000000
00001000
00000000
00011000
00000000
00000000
00000000
,
01000000
00010000
01000000
00001000
00010000
00001000
01000000
00000000
00010000
01000000
00100000
10000000
00010000
00000000
10000000
01000000
,
10000000
00000000
00010000
01000000
00010000
00000000
10000000
01000000
00100000
00000000
00010000
00000000
10010000
00000000
00000000
00000000
,
10000000
00000000
01000000
00000000
00010000
00000000
00001000
00000000
00010000
00000000
00010000
00000000
00010000
00000000
00001000
00010000
,
00000100
00000000
00010000
00001000
00100000
00000000
00001000
00010000
00000010
00000000
00100000
00000000
00011000
00000000
00000000
00000000
,
00001000
00000000
00000000
00001000
00000100
00000000
00000001
00000100
00000001
00000000
00001000
00000000
00001001
00000000
00000000
00000000
,
00000000
00000000
00000001
00000100
00000001
00000000
00001000
00000100
00001000
00000000
00000100
00000000
00000010
00000000
00000001
00000000
,
00000000
00001000
00001000
00000001
00000001
00000100
00000100
00000000
,
00000000
00000000
00000001
00001000
00000001
00000000
00001000
00000000
00000100
00000000
00010000
00000000
00001000
00000000
01000000
00000000
,
00000000
00010000
00010000
01000000
01000000
00100000
10000000
00000000
,
00000000
00010000
10000000
00010000
01000000
00000000
10010000
00000000
,
00000000
00000000
10000000
00000000
01000000
00000000
10000000
00000000
00010000
00000000
01000000
00000000
00010000
00000000
00100000
01000000
,
00200000
00000000
00000000
00000000
00000000
00000000
00301000
00010000
00002000
00000000
00000000
00000000
00000000
00000000
00013000
00000100
,
00010000
00000100
00000000
00001000
00000000
00000001
00000100
00000010
00000000
00001000
00000000
00000001
00001001
00000000
00000000
00000000
,
00000011
00000000
00000010
00000001
00000100
00000000
00000010
00001000
00000100
00000000
00001000
00000000
00000001
00000000
00000100
00000000
,
00000010
00001000
00001000
00000100
00010100
00011000
00110000
00000000
,
00100000
00000000
00010000
01000000
00100000
00000000
10000000
01000000
00100000
00000000
00010000
00000000
01000000
00000000
00100000
00000000
,
10000000
00010000
00010000
01000000
01001000
00011000
00001100
00000000
,
00000100
00001000
01000000
00001000
00000100
00010000
00001000
00000000
,
00100000
00010000
00000010
00010000
00100000
00001000
00010000
00000000
,
00000100
00010000
00000100
00100000
00001000
00100000
00000100
00000000
00010000
00000000
00001000
00000000
00011000
00000000
00000000
00000000
,
01000000
00010000
01000000
00001000
00010000
00001000
01000000
00000000
00010000
01000000
00100000
10000000
01000000
00000000
00000000
00000000
,
10000000
00000000
10000000
01000000
00000000
01000000
00100000
00000000
00010000
00000000
10000000
00000000
10010000
00000000
00000000
00000000
,
00010000
00000000
00010000
01000000
00000000
01000000
00001000
00000000
00001000
00000000
00010000
00000000
00011000
00000000
00000000
00000000
,
00000100
00000000
00000100
00001000
00000000
00001000
00000010
00000000
00000100
00000000
00000001
00000000
00000101
00000000
00000000
00000000
,
00000001
00000000
00000001
00001000
00000000
00001000
00000010
00000000
00000100
00000000
00000001
00000000
00002000
00000000
00000000
00000000
,
00003100
00000000
00000000
00000000
;
