#TITLE:Omakase Guardian;
#SUBTITLE:;
#ARTIST:Guardians 4;
#TITLETRANSLIT:;
#SUBTITLETRANSLIT:;
#ARTISTTRANSLIT:;
#CREDIT:;
#BANNER:Omakase Guardian-bn.png;
#BACKGROUND:Omakase Guardian-bg.png;
#LYRICSPATH:;
#CDTITLE:;
#MUSIC:Omakase Guardian.mp3;
#OFFSET:-0.300;
#SAMPLESTART:57.800;
#SAMPLELENGTH:14.360;
#SELECTABLE:YES;
#BPMS:0.000=166.960,144.000=83.480,152.000=166.960;
#STOPS:;
#BGCHANGES:;

//---------------dance-single - ----------------
#NOTES:
     dance-single:
     :
     Hard:
     12:
     0.583,0.981,0.359,0.309,0.060:
0000
0000
0000
0000
,
0000
0000
0000
0000
,
0000
0000
0000
0000
,
0000
0000
0000
0000
,
0010
0010
0000
1000
0000
0100
0000
1000
,
0000
0001
0000
0100
0000
0010
1000
0100
,
0100
0000
1000
0001
0000
0100
0000
0010
,
1000
0010
0100
0001
0010
0001
1000
0000
,
0100
1000
0100
1000
0001
0100
0000
0010
,
0100
0010
1000
0010
1000
0000
0000
0000
,
0001
0100
0001
0100
0010
1000
0000
0100
,
0010
0100
0020
0000
0032
0000
0003
0000
,
0100
0100
0010
1000
0010
1000
0000
0001
,
0001
0100
0010
0100
0010
0000
0000
0000
,
1000
1000
0100
0010
0100
0010
0000
1000
,
1000
0001
0200
0000
0320
0000
0030
0000
,
2001
0000
3100
0000
0001
0010
0100
0000
,
1000
0001
1000
0010
0100
0000
0000
0000
,
0102
0000
1003
0000
0100
1000
0001
0000
,
1000
0010
0001
0010
1000
0000
0000
0000
,
0210
0000
0310
0100
0001
0000
1000
0000
,
0001
1000
0100
1000
0001
0000
0000
0000
,
2010
0000
3001
0000
1000
0001
0100
0000
,
0010
0100
0001
0010
1000
0000
0000
0000
,
0011
0000
0000
0100
0000
0000
0010
0000
,
1000
0000
0100
1000
0000
0010
0100
0010
,
1000
0000
0000
0001
0000
0000
0100
0000
,
0101
0000
0010
1000
0000
0100
1000
0001
,
0010
0000
0001
0100
0000
1000
0100
0000
,
0010
1000
0100
0010
0001
0000
0000
0000
,
1000
0000
0001
0010
0000
0100
0010
0000
,
1000
0010
0001
0100
0010
0000
0000
0000
,
0210
0302
2003
3020
,
0032
0023
0230
0301
,
0011
0100
1001
0010
,
0110
0100
0001
0010
1000
0010
0100
1000
,
0010
0100
0001
1000
0100
0010
0001
0100
1000
0100
0010
1000
0100
0010
0001
1000
,
0010
0000
1000
0000
0100
0000
0010
0000
0001
0100
1000
0100
0001
0010
1000
0010
,
0210
0310
0102
0103
,
0010
0100
0001
1000
0100
1000
0001
0000
,
1000
0100
0001
0100
1000
0000
0010
1000
,
0001
0010
1000
0010
0200
0000
0300
0000
,
0102
0000
1003
0100
1000
1000
0010
0100
,
0001
0010
0100
0010
0001
0000
0000
0000
,
1010
0101
0011
1100
,
0001
0010
1000
0100
0001
0000
0000
0000
,
0120
0130
2010
3010
,
0100
0010
1000
0001
0010
0001
1000
0000
,
0001
0010
1000
0010
0001
0000
0100
0001
,
1000
0100
0001
0100
0020
0000
0030
0000
,
2010
0000
3001
0010
0001
0001
0100
0010
,
1000
0100
0010
0100
1000
0000
0000
0000
,
0101
1010
1100
0011
,
1000
0100
0001
0010
1000
0000
0000
0000
,
0220
0330
0202
0303
,
0010
1000
0001
0100
0010
0000
0100
0100
,
0002
0103
2000
3100
,
0010
1000
0100
0010
0001
1000
0010
0000
,
2000
3010
0002
0013
,
1000
0001
0100
0010
1000
0001
0100
0000
,
0010
0110
0001
1100
,
1000
0001
0100
0000
0010
0000
1001
0000
,
1100
0000
1010
0000
0001
1000
0100
0000
,
1000
0010
0001
0010
1000
0000
0100
0000
,
1100
0101
1010
0101
,
0010
1000
0100
0010
1001
0000
0000
0000
;

//---------------dance-single - ----------------
#NOTES:
     dance-single:
     :
     Medium:
     8:
     0.398,0.556,0.279,0.120,0.000:
0000
0000
0000
0000
,
0000
0000
0000
0000
,
0000
0000
0000
0000
,
0000
0000
0000
0000
,
0010
0000
1000
0000
,
0100
0000
0010
0001
,
0100
0000
0001
0000
,
0010
0001
1000
0000
,
0100
0000
1000
0000
0100
1000
0000
0000
,
0001
0100
0001
0000
,
0010
0000
0100
0000
0010
0100
0000
0000
,
1000
0001
1001
0000
,
0010
0000
1000
0000
0010
1000
0000
0000
,
0001
0100
0001
0000
,
0100
0000
0010
0000
0100
0010
0000
0000
,
1000
0010
1010
0000
,
0001
1000
0100
0010
,
0001
0000
1000
0100
1000
0000
0000
0000
,
0010
1000
0001
0100
,
0010
0000
0100
0001
0100
0000
0000
0000
,
0010
1000
0001
0010
,
0100
0000
1000
0001
0100
0000
0000
0000
,
0010
0100
0001
1000
,
0001
0000
0010
0100
1000
0000
0000
0000
,
0010
0010
1000
0100
,
0010
0010
0001
1000
,
0010
0010
1000
0001
,
1000
0100
0010
0001
0100
0000
0000
0000
,
0001
0001
0100
0010
,
1000
1000
0100
1000
,
0001
0001
0010
0100
,
1000
0001
0100
0010
1000
0000
0000
0000
,
0020
2030
3200
0320
,
0032
0203
0320
2030
,
3100
0100
1000
1000
,
0010
0010
0100
0100
,
0002
0203
0320
2030
,
3100
1000
0001
0010
0100
1000
0010
0000
,
0110
0110
1001
1001
,
0100
1000
0100
1000
0100
0000
0000
0000
,
1000
0100
0010
0001
,
1000
0010
0100
0000
,
0110
0110
0101
0101
,
0100
0001
0100
0001
0100
0000
0000
0000
,
0110
0000
1001
0000
,
1000
0001
1001
0000
,
1010
1010
0101
0101
,
1000
0100
1000
0100
1000
0000
0000
0000
,
0010
1000
0001
0010
,
0100
0000
1000
0100
0010
0000
0000
0000
,
1001
1001
0101
0101
,
1000
0010
0100
0010
1000
0000
0000
0000
,
0100
0100
1000
1000
,
0010
1000
0100
1000
0010
0000
0000
0000
,
1000
1000
0100
0100
,
0010
0001
0010
0100
0010
0000
0000
0000
,
0001
1000
0010
0100
,
0010
1000
0100
0000
,
1000
0100
0010
0001
,
0100
0010
1000
0000
,
0001
0000
1000
0000
0010
0100
0001
0000
,
1000
0001
1000
0000
,
1100
0000
0110
0000
,
1001
0011
1100
0000
,
1010
0000
0101
0000
,
0010
1000
0100
0010
0001
0000
0000
0000
;

//---------------dance-single - ----------------
#NOTES:
     dance-single:
     :
     Easy:
     5:
     0.245,0.327,0.050,0.020,0.000:
0000
0000
0000
0000
,
0000
0000
0000
0000
,
0000
0000
0000
0000
,
0000
0000
0000
0000
,
0010
0000
0010
0000
,
0010
0000
0010
0100
,
0010
0000
0010
0000
,
0010
0010
0010
0000
,
1000
0000
0100
0000
,
1000
0001
0100
0000
,
0001
0000
1000
0000
,
0001
0010
0100
0000
,
1000
0000
0001
0000
,
1000
0010
0100
0000
,
0010
0000
1000
0000
,
0100
0010
0001
0000
,
1000
1000
0100
0100
,
1000
1000
0100
0000
,
0010
0010
0001
0001
,
0010
0010
0001
0000
,
0100
0100
0010
0010
,
0100
0100
0010
0000
,
1000
1000
0001
0001
,
1000
1000
0001
0000
,
1000
0000
1000
0000
,
0010
1000
0001
0000
,
0100
0000
0100
0000
,
0001
0010
0100
0000
,
1000
0000
0001
0000
,
1000
0010
0100
0000
,
0010
0000
1000
0000
,
0001
1000
0100
0000
,
1000
1000
0100
0100
,
0010
0010
0001
0001
,
0100
0000
0010
0000
,
1000
0000
0001
0000
,
2002
0000
0000
3003
,
0010
0000
1000
0000
0100
0100
0100
0000
,
1000
1000
0001
0001
,
0100
0100
0010
0000
,
0100
0000
0001
0000
,
1000
0000
0001
0000
,
0010
0000
0100
0000
,
1000
0000
0010
0000
,
1000
0000
0001
0000
,
0100
0100
0100
0000
,
0010
0010
1000
1000
,
0001
0001
0001
0000
,
0010
0000
0001
0000
,
1000
0000
0100
0000
,
1000
0000
0010
0000
,
0100
0000
0001
0000
,
1000
0000
0001
0000
,
0010
0010
0010
0000
,
1001
0000
1001
0000
,
0110
0000
0110
0000
,
0100
0100
0100
0100
,
0100
0000
0000
0000
,
0010
0010
0010
0010
,
0010
0000
0000
0000
,
1000
1000
1000
1000
,
1000
0000
0000
0000
,
0001
0000
0010
0000
,
0001
1000
0001
0000
,
1000
0000
0010
0000
,
1000
0100
1000
0000
;

//---------------dance-single - ----------------
#NOTES:
     dance-single:
     :
     Beginner:
     1:
     0.114,0.195,0.030,0.000,0.000: // measure 1
0000
0000
0000
0000
,  // measure 2
0000
0000
0000
0000
,  // measure 3
0000
0000
0000
0000
,  // measure 4
0000
0000
0000
0000
,  // measure 5
0010
0000
0000
0000
,  // measure 6
0000
0000
0000
0000
,  // measure 7
0100
0000
0000
0000
,  // measure 8
0100
0000
0000
0000
,  // measure 9
0110
0000
0000
0000
,  // measure 10
1000
0000
0000
0000
,  // measure 11
0001
0000
0000
0000
,  // measure 12
0010
0000
0010
0000
,  // measure 13
0010
0000
0000
0000
,  // measure 14
0001
0000
0000
0000
,  // measure 15
1000
0000
0000
0000
,  // measure 16
0100
0000
0100
0000
,  // measure 17
0100
0000
0000
0000
,  // measure 18
1000
0000
0000
0000
,  // measure 19
0010
0000
0000
0000
,  // measure 20
1000
0000
0000
0000
,  // measure 21
0001
0000
0000
0000
,  // measure 22
0010
0000
0000
0000
,  // measure 23
0001
0000
0000
0000
,  // measure 24
0100
0100
0100
0000
,  // measure 25
0100
0000
0000
0000
,  // measure 26
0010
0000
0000
0000
,  // measure 27
0100
0000
0000
0000
,  // measure 28
0001
0000
0000
0000
,  // measure 29
1000
0000
0000
0000
,  // measure 30
0100
0000
0000
0000
,  // measure 31
1000
0000
0000
0000
,  // measure 32
0010
0010
0010
0000
,  // measure 33
1000
0000
0000
0000
,  // measure 34
0000
0000
0000
0000
,  // measure 35
0001
0000
0001
0000
,  // measure 36
0001
0000
0001
0000
,  // measure 37
1001
0000
0000
0000
,  // measure 38
0010
0000
0010
0000
,  // measure 39
0110
0000
0000
0000
,  // measure 40
0100
0100
0100
0000
,  // measure 41
0000
0000
0000
0000
,  // measure 42
0010
0000
0010
0000
,  // measure 43
0010
0000
0000
0000
,  // measure 44
1000
0000
0000
0000
,  // measure 45
0001
0000
0001
0000
,  // measure 46
0001
0000
0000
0000
,  // measure 47
1000
0000
0000
0000
,  // measure 48
0100
0100
0100
0000
,  // measure 49
0000
0000
0000
0000
,  // measure 50
1000
0000
0000
0000
,  // measure 51
0010
0000
0000
0000
,  // measure 52
0010
0000
0000
0000
,  // measure 53
0100
0000
0100
0000
,  // measure 54
0100
0000
0000
0000
,  // measure 55
0001
0000
0001
0000
,  // measure 56
0001
0000
0000
0000
,  // measure 57
0010
0000
0000
0000
,  // measure 58
0010
0000
0000
0000
,  // measure 59
0001
0000
0000
0000
,  // measure 60
0001
0000
0000
0000
,  // measure 61
0100
0000
0000
0000
,  // measure 62
0100
0000
0000
0000
,  // measure 63
0010
0000
0010
0000
,  // measure 64
0010
0000
0000
0000
,  // measure 65
1000
0000
1000
0000
,  // measure 66
1000
0000
0000
0000
;
