#VERSION:0.82;
#TITLE:Wake Me Up;
#SUBTITLE:;
#ARTIST:Avicii;
#TITLETRANSLIT:;
#SUBTITLETRANSLIT:;
#ARTISTTRANSLIT:;
#GENRE:EDM;
#ORIGIN:;
#CREDIT:;
#BANNER:Wake Me Up.png;
#BACKGROUND:Wake Me Up-bg.png;
#PREVIEWVID:;
#JACKET:jacket.png;
#CDIMAGE:;
#DISCIMAGE:;
#LYRICSPATH:;
#CDTITLE:;
#MUSIC:Wake Me Up.ogg;
#OFFSET:0.058000;
#SAMPLESTART:85.107399;
#SAMPLELENGTH:13.714000;
#SELECTABLE:YES;
#BPMS:0.000=124.000;
#STOPS:;
#DELAYS:;
#WARPS:;
#TIMESIGNATURES:0.000=4=4;
#TICKCOUNTS:0.000=4;
#COMBOS:0.000=1;
#SPEEDS:0.000=1.000=0.000=0;
#SCROLLS:0.000=1.000;
#FAKES:;
#LABELS:0.000=Song Start;
#BGCHANGES:4.000=Wake Me Up.avi=1.000=0=0=1=====,
99999=-nosongbg-=1.000=0=0=0 // don't automatically add -songbackground-
;
#KEYSOUNDS:;
#ATTACKS:
;

//---------------dance-single - ----------------
#NOTEDATA:;
#CHARTNAME:;
#STEPSTYPE:dance-single;
#DESCRIPTION:;
#CHARTSTYLE:;
#DIFFICULTY:Hard;
#METER:8;
#RADARVALUES:0.493934,0.497488,0.058040,0.257035,0.045603,379.000000,7.000000,31.000000,0.000000,0.000000,0.000000,0.000000,0.000000,0.493934,0.497488,0.058040,0.257035,0.045603,379.000000,7.000000,31.000000,0.000000,0.000000,0.000000,0.000000,0.000000;
#CREDIT:Ben Speirs;
#NOTES:
0000
0000
0000
0000
,
0000
0000
0000
0000
,
0000
0000
0000
0000
,
0000
0000
0000
0000
,
0001
0000
0100
0001
1000
0000
0010
1000
,
0200
0020
0000
0330
,
0100
0000
1000
0001
0100
0000
0001
1000
,
0020
0130
0001
1000
,
0200
0000
1300
0100
0020
0000
0031
1000
,
0020
0000
0130
0001
2000
0000
0000
0000
,
3002
0000
0103
0010
0100
0000
0010
1000
,
0200
0320
0032
0003
,
1000
0010
0000
0010
0100
0001
0000
0001
,
2000
0000
3100
0010
0002
0000
0103
0000
,
0001
0100
0000
0100
0010
1000
0000
1000
,
0002
0000
0013
0000
0001
1000
0010
0000
,
1000
0100
1000
0100
0010
0001
0100
0000
,
0001
1000
0001
1000
0010
1000
0001
0000
,
0010
0001
0000
0001
1000
0010
0000
0010
,
0100
0001
0000
0001
1000
0100
1000
0001
,
0101
0000
0000
0000
1100
0000
0000
0000
0001
0000
1000
0000
0010
0000
0000
0100
,
0001
0001
1000
0000
0001
0010
0100
1000
,
0010
0000
0100
0000
0001
0000
0000
0000
0100
0000
0010
0000
1000
0000
0000
0001
,
0100
0100
0001
0000
1000
0100
1000
0001
,
0010
0000
0001
0001
0010
0001
1000
0010
,
0100
0000
0000
0000
0001
0000
1000
0001
1000
0000
0010
0000
0100
0000
0001
0000
,
1000
0000
0001
0010
0100
1000
0010
0100
,
0002
0000
0100
0000
1003
0001
1000
0100
,
0010
0001
0010
0100
0010
1000
0010
0001
,
0010
0100
1000
0100
0010
0100
0001
0100
,
0010
0001
0100
0001
0010
0100
1000
0001
,
1000
0001
0100
0001
1000
0010
0100
0001
,
1000
0100
0010
0001
1000
0010
0100
0010
,
1000
0000
0001
0000
0010
0000
0001
1000
0001
0000
0100
0000
0010
0000
1000
0000
,
0001
0010
0100
1000
0010
0100
0010
1000
,
0100
0010
0001
0100
0010
1000
0001
0010
,
0002
0000
2003
0000
3010
0100
0000
0010
,
0200
0000
0302
0000
1003
0100
2000
0000
,
3002
0000
0203
0000
0310
1000
0000
0010
,
2000
0000
3002
0000
1003
0100
2000
0000
,
3002
0000
0023
0000
0031
0100
0000
0001
,
0200
0000
0320
0000
1030
0001
1000
0000
,
0020
0000
0230
0000
0301
1000
0000
0001
,
1000
0000
0000
0000
0001
0000
0000
0000
0100
0010
0100
0000
1001
0000
0000
0000
,
1000
0100
0001
0100
1000
0010
0100
0010
,
1000
0100
0001
0100
1000
0010
0100
0100
,
0001
0010
1000
0010
0001
0100
0010
0100
,
0001
0010
1000
0010
0001
0100
0010
0010
,
0100
0001
1000
1000
0100
1000
0001
0001
,
0100
0001
0010
0100
1000
0001
1000
1000
,
0010
1000
0100
0100
0010
0001
0100
0100
,
0101
0000
0000
0000
1010
0000
0000
0000
0001
1000
0001
0000
1001
0000
0000
0000
,
1100
0000
1000
0000
0001
0000
1000
0000
0010
0100
0010
0000
1000
0000
0001
0000
,
0010
0001
0100
0010
1000
1000
0001
0001
,
0010
0000
0001
0000
1000
0000
0001
0000
0100
0010
0100
0000
0001
0000
1000
0000
,
0100
0010
0001
1000
0010
0010
1000
0001
,
1000
0000
0100
0000
1000
0000
0100
0000
1000
0001
1000
0000
0010
0000
0100
0000
,
0001
0000
1000
0000
0001
0000
1000
0000
0001
0100
0001
0000
1000
0000
0001
0000
,
0100
0100
0010
0010
1000
0010
0100
0001
,
1000
0000
1000
0000
0001
0000
0001
0000
0010
0100
0010
0000
0001
0000
1000
0000
,
0100
0000
0000
0000
;

//---------------dance-single - ----------------
#NOTEDATA:;
#CHARTNAME:;
#STEPSTYPE:dance-single;
#DESCRIPTION:;
#CHARTSTYLE:;
#DIFFICULTY:Challenge;
#METER:9;
#RADARVALUES:0.561450,0.621860,0.099498,0.132663,0.302638,446.000000,12.000000,16.000000,0.000000,0.000000,0.000000,0.000000,0.000000,0.561450,0.621860,0.099498,0.132663,0.302638,446.000000,12.000000,16.000000,0.000000,0.000000,0.000000,0.000000,0.000000;
#CREDIT:Ben Speirs;
#NOTES:
0000
0000
0000
0000
,
0000
0000
0000
0000
,
0000
0000
0000
0000
,
0000
0000
0000
0000
,
1000
0000
0010
1000
0001
0000
0100
0001
,
0020
0200
0000
0330
,
0010
0000
0001
1000
0010
0000
1000
0001
,
0200
0310
1000
0001
,
0020
0000
0031
0010
0200
0000
1300
0001
,
0200
0000
0310
1000
0002
0000
0000
0000
,
2003
0000
3010
0100
0010
0000
0100
0001
,
0020
0230
2300
3000
,
0001
0100
0000
0100
0010
1000
0000
1000
,
0002
0000
0013
0100
2000
0000
3010
0000
,
1000
0010
0000
0010
0100
0001
0000
0001
,
2000
0000
3100
0000
1000
0001
0100
0000
,
0001
0010
0001
0010
0100
1000
0010
0000
,
1000
0001
1000
0001
0100
0001
1000
0000
,
0100
1000
0000
1000
0001
0100
0000
0100
,
0010
1000
0000
1000
0001
0010
0001
1000
,
0010
0100
0010
0001
0010
0100
0010
0100
,
1000
0100
0010
0100
0001
0100
0010
1000
,
0100
0100
0010
0010
0001
0010
0100
1000
,
0001
0001
1000
1000
0010
1000
0100
0010
,
0002
0100
0103
0010
0100
0001
0010
0100
,
2000
0100
3100
1000
0010
0100
0001
1000
,
0010
0100
0010
0100
0001
0010
0100
1000
,
0010
0100
0010
0100
0001
1000
0100
0010
,
0001
0000
0100
0000
0000
0001
0100
0000
0010
0000
1000
0000
0000
0010
1000
0000
,
0100
0000
0010
0000
0000
0100
0010
0000
0001
0000
0010
0000
0100
0000
1000
0000
,
0001
0000
0100
0000
0001
1000
0001
0000
0100
0000
0010
0000
1000
0100
1000
0000
,
0010
0000
0100
0000
0001
1000
0001
0000
0010
0000
0001
0000
1000
0000
0100
0000
,
0010
0000
0001
0000
0000
0010
0001
0000
1000
0000
0010
0000
0000
1000
0010
0000
,
0100
0000
0001
0000
0000
0100
0001
0000
1000
0000
0100
0000
0010
0000
0001
0000
,
1000
0000
0001
0000
0100
0010
0100
0000
0001
0000
1000
0000
0010
0100
0010
0000
,
1000
0000
0001
0000
0010
0001
0010
0000
0001
0000
1000
0000
0100
1000
0100
0000
,
0010
0000
0000
0000
0001
0000
0000
0010
0001
0000
1000
0000
0000
0010
1000
0000
,
0001
0000
0000
0000
0100
0000
0000
0000
0001
1000
0001
0000
0100
0000
0010
0000
,
1000
0000
0000
0000
0001
0000
0000
1000
0100
0000
1000
0000
0000
0001
0100
0000
,
0001
0000
0000
0000
1000
0000
0000
0000
0010
0100
0010
0000
1000
0000
0001
0000
,
0100
0000
0000
0000
0001
0000
0000
1000
0100
0000
1000
0000
0000
0001
0100
0000
,
0001
0000
0000
0000
1000
0000
0000
0000
0001
0100
0001
0000
0100
0000
0010
0000
,
1000
0000
0000
0000
0001
0000
0000
1000
0100
0000
0010
0000
0000
0001
0100
0000
,
0010
0000
0000
0000
1000
0000
0000
0001
0100
0001
0100
0000
1001
0000
0000
0000
,
1100
0000
0001
0000
0101
0000
0000
1000
0100
1000
0001
0000
0000
1000
0100
0010
,
0001
0000
1000
0000
0001
0000
0000
0100
0010
0100
0010
0000
1000
0000
0001
0000
,
0101
0000
1000
0000
1100
0000
0000
0001
0100
0001
1000
0000
0000
0001
0100
0010
,
1000
0000
0001
0000
1000
0000
0000
0010
0100
0010
0100
0000
0001
0000
1000
0000
,
1010
0000
0010
0000
0110
0000
0100
0001
0100
0001
1000
0000
0010
1000
0010
1000
,
0001
0000
0010
0000
0001
0000
1000
0000
0100
1000
0100
0000
1000
0000
0001
0000
,
0101
0000
0100
0000
0110
0000
0010
1000
0010
1000
0100
0000
1000
0100
1000
0100
,
0010
0000
0001
0000
1000
0000
0000
0001
0010
0100
1000
0000
0001
0000
0100
0000
,
0101
0000
0001
0000
1000
0000
0010
0100
0010
1000
0010
0000
0100
0001
0100
0001
,
1000
0000
0010
0000
0100
0000
0001
0010
0100
1000
0001
0000
0100
0000
0010
0000
,
1000
0000
0100
0000
0010
0000
0001
0010
0100
0010
0001
0000
1000
0100
0010
0100
,
1000
0000
0001
0000
1000
0000
0010
0100
0010
0100
0001
0000
1000
0000
0010
0000
,
1010
0000
1000
0000
0001
0000
0100
0010
0100
0001
0100
0000
0010
1000
0010
1000
,
0001
0000
0100
0000
0010
0000
1000
0100
0010
0001
1000
0000
0010
0000
0100
0000
,
0001
0000
0010
0000
0100
0000
1000
0100
0010
0100
1000
0000
0001
0010
0100
0010
,
0001
0000
1000
0000
0001
0000
0100
0010
0100
0010
1000
0000
0001
0000
0100
0000
,
1001
0000
0000
0000
;

//---------------dance-double - ----------------
#NOTEDATA:;
#CHARTNAME:;
#STEPSTYPE:dance-double;
#DESCRIPTION:;
#CHARTSTYLE:;
#DIFFICULTY:Challenge;
#METER:8;
#RADARVALUES:0.495119,0.572111,0.140955,0.298493,0.198995,365.000000,17.000000,36.000000,0.000000,0.000000,0.000000,0.000000,0.000000,0.495119,0.572111,0.140955,0.298493,0.198995,365.000000,17.000000,36.000000,0.000000,0.000000,0.000000,0.000000,0.000000;
#CREDIT:Ben Speirs;
#NOTES:
00000000
00000000
00000000
00000000
,
00000000
00000000
00000000
00000000
,
00000000
00000000
00000000
00000000
,
00000000
00000000
00000000
00000000
,
10000000
00000000
00100000
01000000
00010000
00000000
00100000
00010000
,
20000000
02000000
00000000
33000000
,
20000000
00000000
30100000
10000000
00020000
00000000
00130000
00001000
,
00020000
00002000
00000000
00033000
,
00002000
00000000
00013000
00000100
00002000
00000000
00003100
00010000
,
00002000
00000000
00103000
00100000
00020000
00000000
00030000
00000000
,
00200000
00000000
00301000
00010000
00002000
00000000
00013000
00000100
,
00002000
00003020
00000230
00000300
,
00000001
00000100
00000000
00000100
00000010
00001000
00000000
00001000
,
00000200
00000000
00000310
00000001
00002000
00000000
00003000
00000000
,
00000001
00000100
00000000
00000100
00000010
00001000
00000000
00001000
,
00000200
00000000
00010300
00000000
00000100
00010000
00001000
00000000
,
00010000
00001000
00010000
00001000
00100000
00010000
01000000
00000000
,
00010000
01000000
00001000
01000000
00010000
10000000
02000000
00000000
,
13000000
00010000
00000000
00010000
10000000
00100000
00000000
00100000
,
01000000
00010000
00000000
00010000
00100000
00001000
00010000
00000100
,
00001100
00000000
00000101
00000000
00000010
00000001
00000100
00000000
,
00000101
00000000
00001100
00000000
00000010
00001000
00000100
00000010
,
00000002
00000000
00000203
00000000
00000310
00001000
00000010
00001000
,
00000100
00010000
00002000
00000000
00013000
00000100
00001000
00000100
,
00000020
00000000
00000031
00000010
00000100
00001000
00000010
00000100
,
00002000
00000000
00013000
00001000
00020000
00000000
00032000
00000000
,
00103000
00001000
00100000
00010000
01000000
00100000
10000000
00010000
,
10000000
00100000
01000000
00010000
10000000
01000000
01000000
00100000
,
01100000
00000000
00110000
00000000
10000000
01000000
10000000
10000000
,
11000000
00000000
01010000
00000000
00010000
10000000
00010000
00010000
,
01010000
00011000
00001100
00001002
,
00000103
00000010
00002000
00000000
00003010
00000100
00000001
00000010
,
00000200
00000000
00001300
00000100
00010000
00000100
00001000
00000100
,
00000020
00000000
00000031
00000010
00000100
00001000
00000002
00000000
,
00000203
00000000
00001300
00000100
00000002
00000000
00000103
00000010
,
00002000
00003200
00020300
00031000
,
00011000
00000000
00100000
00000000
,
00010000
00000000
00000000
00000000
10000000
00010000
01000000
00000000
,
00100000
00000000
10000000
00000000
,
00010000
00000000
00010000
00000000
00100000
00001000
00010000
00000000
,
00001000
00000000
00010000
00000000
,
00000100
00000000
00000000
00000000
00001000
00000100
00000010
00000000
,
00000001
00000001
00001000
00001000
,
00001010
00000000
00000101
00000000
00001000
00000001
00001001
00000000
,
00000101
00000000
00000000
00000000
00000010
00000000
00000000
00001000
00000100
00001000
00000100
00000000
00000000
00001000
00000001
00001000
,
00000001
00000000
00000000
00000000
00000100
00000000
00000000
00000010
00001000
00000010
00001000
00000000
00000100
00000000
00010000
00000000
,
00001000
00000000
00000000
00000000
00100000
00000000
00000000
00001000
00010000
00001000
00010000
00000000
00000000
00001000
00100000
00001000
,
00100000
00000000
00000000
00000000
00010000
00000000
00000000
00100000
00010000
00100000
00010000
00000000
10000000
00000000
00100000
00000000
,
01000000
00000000
00000000
00000000
01000000
00000000
00000000
00100000
10000000
00100000
10000000
00000000
00000000
00010000
01000000
00010000
,
01000000
00000000
00000000
00000000
00100000
00000000
00000000
10000000
00010000
10000000
00010000
00000000
10000000
00000000
01000000
00000000
,
00100000
00000000
00000000
00000000
00100000
00000000
00000000
00010000
10000000
00010000
10000000
00000000
00000000
00100000
10000000
00100000
,
10000000
00000000
00000000
00000000
00010000
00000000
00000000
10000000
01000000
00100000
00010000
00000000
10000000
00000000
00000000
00000000
,
00010000
00000000
01000000
00000000
00100000
00000000
10000000
01000000
10000000
01000000
00100000
00000000
00010000
10000000
00010000
10000000
,
00100000
00000000
01000000
00000000
00010000
00000000
00100000
00010000
00100000
00001000
00010000
00000000
00001000
00000000
00010000
00000000
,
00000100
00000000
00001000
00000000
00000010
00000000
00000100
00000010
00000100
00000010
00001000
00000000
00000010
00000100
00000010
00000100
,
00000001
00000000
00001000
00000000
00000001
00000000
00000100
00000010
00000100
00000010
00001000
00000000
00000100
00000000
00010000
00000000
,
00001000
00000000
00010000
00000000
00000100
00000000
00001000
00000100
00010000
00001000
00010000
00000000
00001000
00100000
00010000
00100000
,
00001000
00000000
00100000
00000000
00010000
00000000
01000000
00010000
01000000
00010000
10000000
00000000
00100000
00000000
01000000
00000000
,
00010000
00000000
10000000
00000000
00100000
00000000
01000000
00010000
10000000
00010000
01000000
00000000
00100000
10000000
01000000
10000000
,
00100000
00000000
01000000
00000000
00010000
00000000
10000000
01000000
00100000
00010000
01000000
00000000
00010000
00000000
00100000
00000000
,
00001000
00000000
00000000
00000000
;

//---------------dance-single - ----------------
#NOTEDATA:;
#CHARTNAME:;
#STEPSTYPE:dance-single;
#DESCRIPTION:;
#CHARTSTYLE:;
#DIFFICULTY:Medium;
#METER:6;
#RADARVALUES:0.317445,0.373116,0.240452,0.198995,0.000000,215.000000,29.000000,24.000000,0.000000,0.000000,0.000000,0.000000,0.000000,0.317445,0.373116,0.240452,0.198995,0.000000,215.000000,29.000000,24.000000,0.000000,0.000000,0.000000,0.000000,0.000000;
#CREDIT:Ben Speirs;
#NOTES:
0000
0000
0000
0000
,
0000
0000
0000
0000
,
0000
0000
0000
0000
,
0000
0000
0000
0000
,
1000
0010
0100
0001
,
2000
0002
0000
3003
,
0001
0100
0010
1000
,
0200
0300
0000
0000
,
1000
0001
1000
1000
,
0020
0030
0200
0300
,
0001
1000
0001
0001
,
0200
0300
0000
0000
,
0001
0100
0010
0010
,
1000
0002
0200
0303
,
0001
0100
0010
0010
,
2000
3000
0001
0000
,
1000
0100
1000
1000
,
0010
0010
0100
0100
,
0001
1000
0001
0001
,
0020
0000
0030
0000
0000
0001
0100
0000
,
0101
0101
1000
1000
,
0101
0101
1000
1000
,
1100
1100
0001
0001
,
1100
0000
1100
0000
0001
0000
0001
1000
,
0020
0000
0130
0000
0001
0000
1000
0100
,
2000
3000
0002
0003
,
1000
0000
0010
0100
0010
0000
1000
0010
,
2000
3002
0013
0000
,
0011
0011
1000
1000
,
0011
0011
1000
1000
,
1010
1010
0001
0001
,
1010
0000
1010
0000
0001
0000
0001
0100
,
0020
0000
1030
0000
0001
0000
1000
0100
,
2000
3000
0002
0003
,
0100
0000
0001
0100
0010
0000
0100
0010
,
2000
0100
3100
0000
,
1001
0000
1000
0000
,
0010
0000
0100
0100
,
0001
0000
1000
0000
,
0100
0000
0010
0010
,
0001
0000
1000
0000
,
0001
0000
0100
0100
,
0010
0000
1000
0000
,
0001
1000
0010
1001
,
1100
0101
1000
0010
,
1010
0000
0011
0000
1000
0001
1000
0000
,
0101
1100
0010
1000
,
0101
0000
1100
0000
0001
1000
0001
0000
,
2000
3100
0002
0103
,
2000
0000
3100
0000
0001
1000
0100
0000
,
2000
3010
0002
0013
,
1001
0000
0110
0000
0001
0010
0001
0000
,
1100
0000
0001
0000
1000
0100
0000
1000
,
0001
0000
0100
0000
0001
1000
0001
0000
,
0100
0000
0010
0000
1000
0010
0000
0100
,
0001
0000
1000
0000
0001
0010
0001
0000
,
1000
0000
0100
0000
1000
0001
0000
0100
,
0010
0000
1000
0000
0010
1000
0001
0000
,
0100
0000
0001
0000
1000
0100
0000
1000
,
0001
0000
0010
0000
0001
0010
0100
1000
,
0001
0000
0000
0000
;

//---------------dance-single - ----------------
#NOTEDATA:;
#CHARTNAME:;
#STEPSTYPE:dance-single;
#DESCRIPTION:;
#CHARTSTYLE:;
#DIFFICULTY:Easy;
#METER:3;
#RADARVALUES:0.153984,0.198995,0.041457,0.000000,0.000000,125.000000,5.000000,0.000000,0.000000,0.000000,0.000000,0.000000,0.000000,0.153984,0.198995,0.041457,0.000000,0.000000,125.000000,5.000000,0.000000,0.000000,0.000000,0.000000,0.000000,0.000000;
#CREDIT:Ben Speirs;
#NOTES:
// measure 0
0000
0000
0000
0000
,  // measure 1
0000
0000
0000
0000
,  // measure 2
0000
0000
0000
0000
,  // measure 3
0000
0000
0000
0000
,  // measure 4
0001
0000
1000
0000
,  // measure 5
0010
0010
0000
0000
,  // measure 6
1000
0000
0001
0000
,  // measure 7
0100
0000
0000
0000
,  // measure 8
0001
0000
0001
0000
,  // measure 9
1000
0000
1000
0000
,  // measure 10
0010
1000
0100
0010
,  // measure 11
0001
0000
0000
0000
,  // measure 12
1000
0000
0100
0000
,  // measure 13
1000
1000
0100
0000
,  // measure 14
0010
0000
0001
0000
,  // measure 15
0010
0000
0001
0000
,  // measure 16
1000
0000
0001
0000
,  // measure 17
0100
0100
0100
0000
,  // measure 18
0001
0000
1000
0000
,  // measure 19
0010
0000
0000
0000
,  // measure 20
1001
0000
1000
0000
,  // measure 21
0010
0010
0000
0000
,  // measure 22
1000
0000
0001
0000
,  // measure 23
0100
0100
0000
0000
,  // measure 24
0001
0000
0010
0000
,  // measure 25
0100
0000
1000
0000
,  // measure 26
0001
0000
0100
0100
,  // measure 27
0100
0000
0000
0010
,  // measure 28
0010
0000
1000
0000
,  // measure 29
0001
0001
0000
0000
,  // measure 30
1000
0000
0100
0000
,  // measure 31
0010
0010
0000
0000
,  // measure 32
0001
0000
1000
0000
,  // measure 33
0010
0000
0100
0000
,  // measure 34
0001
0001
0001
0000
,  // measure 35
1000
0000
0010
0000
,  // measure 36
1001
0000
0000
0000
,  // measure 37
0001
0000
0000
1000
,  // measure 38
1000
0000
0000
0000
,  // measure 39
0100
0000
0100
0100
,  // measure 40
0100
0000
0000
0000
,  // measure 41
1000
0000
0000
0010
,  // measure 42
0010
0000
0000
0000
,  // measure 43
0100
0000
0000
1001
,  // measure 44
1001
0000
0001
0000
,  // measure 45
1000
0100
1000
0000
,  // measure 46
0010
0000
1000
0000
,  // measure 47
0001
0100
0001
0000
,  // measure 48
1000
1000
0001
0000
,  // measure 49
0001
0001
1000
0000
,  // measure 50
1000
0010
1000
0000
,  // measure 51
0001
0000
0010
0000
,  // measure 52
1001
0000
0001
0000
,  // measure 53
0100
0001
0100
0000
,  // measure 54
0001
0000
1000
0000
,  // measure 55
0010
1000
0010
0000
,  // measure 56
1000
1000
0001
0000
,  // measure 57
0001
0001
1000
0000
,  // measure 58
0100
0100
1000
0000
,  // measure 59
0010
0010
1000
0001
,  // measure 60
0100
0000
0000
0000
;

//---------------dance-single - ----------------
#NOTEDATA:;
#CHARTNAME:;
#STEPSTYPE:dance-single;
#DESCRIPTION:;
#CHARTSTYLE:;
#DIFFICULTY:Beginner;
#METER:1;
#RADARVALUES:0.101867,0.149246,0.024874,0.000000,0.000000,83.000000,3.000000,0.000000,0.000000,0.000000,0.000000,0.000000,0.000000,0.101867,0.149246,0.024874,0.000000,0.000000,83.000000,3.000000,0.000000,0.000000,0.000000,0.000000,0.000000,0.000000;
#CREDIT:Ben Speirs;
#NOTES:
// measure 0
0000
0000
0000
0000
,  // measure 1
0000
0000
0000
0000
,  // measure 2
0000
0000
0000
0000
,  // measure 3
0000
0000
0000
0000
,  // measure 4
1000
0000
0000
0000
,  // measure 5
0010
0000
0000
0000
,  // measure 6
1000
0000
0000
0000
,  // measure 7
0001
0000
0000
0000
,  // measure 8
0001
0000
0000
0000
,  // measure 9
1000
0000
0000
0000
,  // measure 10
0100
0000
0000
0000
,  // measure 11
0100
0000
0000
0000
,  // measure 12
1000
0000
0000
0000
,  // measure 13
0010
0000
0000
0000
,  // measure 14
1000
0000
1000
0000
,  // measure 15
1000
0000
0000
0000
,  // measure 16
0001
0000
0000
0000
,  // measure 17
0010
0000
0000
0000
,  // measure 18
0001
0000
0001
0000
,  // measure 19
0001
0000
0000
0000
,  // measure 20
0100
0000
0100
0000
,  // measure 21
0100
0000
0000
0000
,  // measure 22
0010
0000
0010
0000
,  // measure 23
0010
0000
0000
0000
,  // measure 24
1000
0000
1000
0000
,  // measure 25
1000
0000
0000
0000
,  // measure 26
0001
0000
0001
0000
,  // measure 27
0001
0000
0000
1000
,  // measure 28
1000
0000
0000
0001
,  // measure 29
0001
0000
0000
0000
,  // measure 30
0100
0000
0100
0000
,  // measure 31
0100
0000
0000
0001
,  // measure 32
0001
0000
0000
1000
,  // measure 33
1000
0000
0000
0000
,  // measure 34
0010
0000
0010
0000
,  // measure 35
0010
0000
0000
0000
,  // measure 36
1001
0000
0000
0000
,  // measure 37
0000
0000
1000
1000
,  // measure 38
1000
0000
0000
0000
,  // measure 39
0000
0000
0001
0001
,  // measure 40
0001
0000
0000
0000
,  // measure 41
0100
0000
0000
0000
,  // measure 42
0010
0000
0000
0000
,  // measure 43
1000
0000
0000
0000
,  // measure 44
1001
0000
1000
0000
,  // measure 45
0001
0000
0000
0000
,  // measure 46
0001
0000
0001
0000
,  // measure 47
1000
0000
0000
0000
,  // measure 48
0010
0010
0000
0000
,  // measure 49
0010
0010
0000
0000
,  // measure 50
1000
0000
0100
0000
,  // measure 51
0010
0000
0001
0000
,  // measure 52
1001
0000
0001
0000
,  // measure 53
1000
0000
0000
0000
,  // measure 54
1000
0000
1000
0000
,  // measure 55
0001
0000
0000
0000
,  // measure 56
0100
0100
0000
0000
,  // measure 57
0100
0100
0000
0000
,  // measure 58
0001
0000
0010
0000
,  // measure 59
0100
0000
1000
0000
,  // measure 60
0001
0000
0000
0000
;
