#TITLE:Cat Song ~Theme of UPA~;
#SUBTITLE:;
#ARTIST:UPA & Nora;
#TITLETRANSLIT:;
#SUBTITLETRANSLIT:;
#ARTISTTRANSLIT:;
#CREDIT:;
#BANNER:Cat Song ~Theme of UPA~-bn.png;
#BACKGROUND:Cat Song ~Theme of UPA~-bg.png;
#LYRICSPATH:;
#CDTITLE:;
#MUSIC:Cat Song ~Theme of UPA~.mp3;
#OFFSET:-0.340;
#SAMPLESTART:45.660;
#SAMPLELENGTH:16.480;
#SELECTABLE:YES;
#BPMS:0.000=127.000;
#STOPS:;
#BGCHANGES:17.000=Cat 1.png=1.000=0=0=1,
18.000=Cat 2.png=1.000=0=0=1,
21.000=Cat 3.png=1.000=0=0=1,
22.000=Cat 4.png=1.000=0=0=1,
25.000=Cat 5.png=1.000=0=0=1,
27.000=Cat 6.png=1.000=0=0=1,
29.000=Cat 9.png=1.000=0=0=1,
30.000=Cat 7.png=1.000=0=0=1,
32.000=Cat Song ~Theme of UPA~-bg.png=1.000=0=0=1,
49.000=Cat 8.png=1.000=0=0=1,
50.000=Cat 10.png=1.000=0=0=1,
53.000=Cat 11.png=1.000=0=0=1,
54.000=Cat 12.png=1.000=0=0=1,
57.000=Cat 13.png=1.000=0=0=1,
59.000=Cat 14.png=1.000=0=0=1,
61.000=Cat 15.png=1.000=0=0=1,
61.750=Cat 16.png=1.000=0=0=1,
65.000=Cat 17.png=1.000=0=0=1,
66.000=Cat 18.png=1.000=0=0=1,
69.000=Cat 19.png=1.000=0=0=1,
70.000=Cat 20.png=1.000=0=0=1,
73.000=Cat 21.png=1.000=0=0=1,
75.000=Cat 22.png=1.000=0=0=1,
77.000=Cat 23.png=1.000=0=0=1,
77.750=Cat 24.png=1.000=0=0=1,
80.000=Cat Song ~Theme of UPA~-bg.png=1.000=0=0=1,
97.000=Cat 25.png=1.000=0=0=1,
98.000=Cat 26.png=1.000=0=0=1,
101.000=Cat 27.png=1.000=0=0=1,
102.000=Cat 28.png=1.000=0=0=1,
105.000=Cat 29.png=1.000=0=0=1,
107.000=Cat 30.png=1.000=0=0=1,
109.000=Cat 31.png=1.000=0=0=1,
109.750=Cat 32.png=1.000=0=0=1,
113.000=Cat 33.png=1.000=0=0=1,
114.000=Cat 34.png=1.000=0=0=1,
117.000=Cat 35.png=1.000=0=0=1,
118.000=Cat 36.png=1.000=0=0=1,
121.000=Cat 37.png=1.000=0=0=1,
123.000=Cat 38.png=1.000=0=0=1,
125.000=Cat 39.png=1.000=0=0=1,
126.000=Cat 40.png=1.000=0=0=1,
128.000=Cat 41.png=1.000=0=0=1,
129.000=Cat 42.png=1.000=0=0=1,
129.750=Cat 43.png=1.000=0=0=1,
130.250=Cat 44.png=1.000=0=0=1,
131.000=Cat 45.png=1.000=0=0=1,
132.000=Cat 48.png=1.000=0=0=1,
133.000=Cat 45.png=1.000=0=0=1,
133.750=Cat 46.png=1.000=0=0=1,
134.250=Cat 47.png=1.000=0=0=1,
135.000=Cat 49.png=1.000=0=0=1,
136.000=Cat 54.png=1.000=0=0=1,
137.000=Cat 50.png=1.000=0=0=1,
137.750=Cat 51.png=1.000=0=0=1,
138.250=Cat 52.png=1.000=0=0=1,
139.000=Cat 55.png=1.000=0=0=1,
140.000=Cat 53.png=1.000=0=0=1,
141.000=Cat 56.png=1.000=0=0=1,
142.000=Cat 56.png=1.000=0=0=1,
142.500=Cat 56-2.png=1.000=0=0=1,
143.000=Cat 56-3.png=1.000=0=0=1,
143.500=Cat 56-4.png=1.000=0=0=1,
144.000=Cat 57.png=1.000=0=0=1,
146.000=Cat 58.png=1.000=0=0=1,
148.000=Cat 59.png=1.000=0=0=1,
150.000=Cat 60.png=1.000=0=0=1,
152.000=Cat 61.png=1.000=0=0=1,
154.000=Cat 62.png=1.000=0=0=1,
156.000=Cat 63.png=1.000=0=0=1,
158.000=Cat 64.png=1.000=0=0=1,
160.000=Cat Song ~Theme of UPA~-bg.png=1.000=0=0=1,
173.000=Cat 65.png=1.000=0=0=1,
174.000=Cat 66.png=1.000=0=0=1,
176.000=Cat Song ~Theme of UPA~-bg.png=1.000=0=0=1,
201.000=Cat Song ~Theme of UPA~-bg END.png=1.000=0=0=1,
99999=-nosongbg-=1.000=0=0=0 // don't automatically add -songbackground-
;

//---------------dance-single - ----------------
#NOTES:
     dance-single:
     :
     Beginner:
     1:
     0.108,0.154,0.051,0.000,0.000:
0000
0000
0000
0000
,
0000
0000
0000
0000
,
0000
0000
0000
0000
,
0000
0000
0000
0000
,
0000
0010
0010
0000
,
0000
0010
0010
0000
,
0000
0010
0000
0010
,
0000
0010
0010
0000
,
0010
0000
0000
0000
,
0100
0000
0000
0000
,
0010
0000
0000
0000
,
0100
0000
0000
0000
,
0000
0010
0010
0000
,
0000
0010
0010
0000
,
0000
0010
0000
0010
,
0000
0010
0010
0000
,
0000
0010
0010
0000
,
0000
0010
0010
0000
,
0000
0010
0000
0010
,
0000
0010
0010
0000
,
0100
0000
0000
0000
,
0100
0000
0000
0000
,
0100
0000
0000
0000
,
0100
0000
0000
0000
,
0100
0000
0100
0000
,
0100
0000
0100
0000
,
0010
0000
0010
0000
,
0010
0000
0010
0000
,
0010
0000
0000
0000
,
0100
0000
0000
0000
,
0010
0000
0010
0000
,
0010
0000
0000
0000
,
0110
0000
0000
0000
,
0010
0000
0000
0000
,
0010
0000
0000
0000
,
0100
0100
0100
0100
,
0100
0000
0000
0000
,
0010
0000
0000
0000
,
0100
0000
0000
0000
,
0010
0000
0000
0000
,
0110
0000
0000
0000
,
0110
0000
0000
0000
,
0010
0000
0010
0000
,
0010
0000
0000
0000
,
0000
0100
0000
0000
,
0000
0100
0000
0000
,
0000
0100
0000
0100
,
0000
0100
0100
0000
,
0110
0000
0000
0000
,
0000
0000
0000
0000
,
0000
0110
0000
0000
;

//---------------dance-single - ----------------
#NOTES:
     dance-single:
     :
     Medium:
     5:
     0.272,0.335,0.082,0.082,0.000:
0000
0000
0000
0000
,
0000
0000
0000
0000
,
0000
0000
0000
0000
,
0000
0000
0000
0010
,
1000
0100
0100
1000
,
0001
0010
0010
0001
,
1000
0010
1000
0001
,
0100
0010
0010
0000
,
0100
0000
0001
0000
1000
0000
0100
1000
,
0100
1000
0010
1000
,
0001
0000
0010
0000
0001
0000
0100
0001
,
0100
0000
0010
0000
1000
0000
0100
0100
,
0100
0000
1000
0000
1000
0000
0010
0010
,
0010
0000
1000
0000
1000
0000
0001
0001
,
0001
0010
0001
0100
,
0010
1000
1000
0000
,
0100
1000
1000
0000
,
0010
0100
0100
0000
,
0010
1000
0001
0010
,
0001
0100
0100
0000
,
0001
0000
0100
0000
1000
0000
0100
0010
,
0100
0010
1000
0100
,
0010
0001
1000
0001
,
0100
0000
0000
0000
,
0010
1000
0010
0000
1000
0000
0100
0000
,
1000
0001
1000
0000
0001
0000
0100
0000
,
0001
0100
0001
0000
0100
0010
0100
0000
,
0010
1000
0010
0000
1000
0000
0100
0000
,
1000
1000
1000
0000
,
0001
0001
0001
0000
,
0100
0001
1000
0100
,
0010
0001
0001
0000
,
2001
0100
0001
0100
,
0001
0100
0001
3100
,
1002
0100
1000
0100
,
1000
0000
0100
0000
1003
0100
0010
0001
,
0100
0000
0010
0000
,
1000
0000
2002
3003
,
0100
0000
1000
0000
,
0001
0000
2002
3003
,
0010
1000
0100
0000
0000
0000
0000
0000
,
0010
1000
0100
0000
0000
0000
0000
0000
,
0010
1000
0100
0010
,
0001
0100
0100
0000
,
0001
0000
1000
0001
1000
0000
0000
0000
,
0001
0000
1000
0001
1000
0000
0000
0000
,
0100
0100
1000
1000
,
0010
1010
0101
0110
,
2002
0000
0000
0000
,
0000
0003
0000
0000
,
0000
3100
0000
0000
;

//---------------dance-single - ----------------
#NOTES:
     dance-single:
     :
     Hard:
     10:
     0.400,0.438,0.318,0.061,0.138: // measure 1
0000
0000
0000
0000
,  // measure 2
0000
0000
0000
0000
,  // measure 3
0000
0000
0000
0000
,  // measure 4
0000
0000
0000
0000
0000
0000
0010
1000
,  // measure 5
0100
0000
1100
0000
0101
0000
0010
1000
,  // measure 6
0100
0000
1100
0000
0101
0000
0010
1000
,  // measure 7
0100
1100
0010
0101
,  // measure 8
0010
1001
1001
0000
,  // measure 9
0010
0000
1000
0000
0001
0000
0100
0001
,  // measure 10
1000
0000
0100
0000
0010
0001
0100
1000
,  // measure 11
0100
0000
0010
0000
1000
0000
0100
0010
,  // measure 12
0001
0000
1000
0000
0010
0000
1000
0001
,  // measure 13
0100
0000
0110
0000
0101
0000
0010
0100
,  // measure 14
1000
0000
1100
0000
0101
0000
0010
1000
,  // measure 15
0001
1100
0010
0101
,  // measure 16
0010
0000
0000
0000
1001
0000
0000
0110
0000
0000
0000
0000
0000
0000
0001
0100
,  // measure 17
0001
0000
0000
0000
1100
0000
0000
0000
0101
0000
0000
0000
0000
1000
0100
1000
,  // measure 18
0100
0000
0000
0000
1010
0000
0000
0000
0101
0000
0000
0000
0000
0000
0010
0100
,  // measure 19
0010
0110
0001
0101
,  // measure 20
1000
0000
0000
0000
1100
0000
0000
1001
0000
0000
0000
0000
0010
0000
1000
0000
,  // measure 21
0100
1000
0010
0001
,  // measure 22
0100
1000
0010
0001
,  // measure 23
0100
0001
0010
1000
,  // measure 24
0100
0000
0000
0000
,  // measure 25
0000
0000
0010
1000
0010
0000
0010
0000
0010
0000
0010
0000
0010
0000
0010
0000
,  // measure 26
0000
0000
0100
0001
0100
0000
0100
0000
0100
0000
0100
0000
0100
0000
0100
0000
,  // measure 27
0000
0000
0001
1000
0001
0000
0001
0000
0000
0000
1000
0100
1000
0000
1000
0000
,  // measure 28
0000
0000
0010
0100
0010
0000
0010
0000
0010
0000
0010
0000
0010
0000
0010
0000
,  // measure 29
1000
0000
0200
0000
2300
0000
3001
1000
,  // measure 30
0001
0000
0200
0000
0320
0000
1030
0010
,  // measure 31
1000
0000
0100
0010
0001
0000
1000
0001
,  // measure 32
0100
0000
0001
0000
0100
1000
0010
0000
,  // measure 33
0100
0000
0000
0000
0001
0000
1000
0100
0000
0100
0000
0000
1000
0000
0000
0000
,  // measure 34
0010
0000
0000
0000
0100
0000
0001
1000
0000
1000
0000
0000
0100
0000
0000
0000
,  // measure 35
1000
0000
0000
0000
0001
0000
0010
0100
0000
0100
0000
0000
0010
0000
0000
0000
,  // measure 36
0001
0000
0000
0000
1000
0000
0000
0001
0100
0000
0100
0000
0010
0000
0010
0000
,  // measure 37
1000
0000
0110
0000
,  // measure 38
0001
0000
0000
0000
1000
0100
0001
0000
,  // measure 39
0010
0000
0101
0000
,  // measure 40
0010
0000
0000
0000
0100
0010
1000
0000
,  // measure 41
0001
1000
0100
1000
0001
1000
0001
0000
,  // measure 42
1000
0001
0100
0001
1000
0001
1000
0000
,  // measure 43
0100
1000
0010
0000
0100
0001
0010
0000
,  // measure 44
0100
0000
0010
0000
0001
0000
1000
0000
0001
0000
0000
0000
1000
0000
0100
1000
,  // measure 45
0100
0000
0000
0000
1000
0001
0000
0001
0000
0000
0000
0000
0000
0000
0100
0010
,  // measure 46
0100
0000
0000
0000
0001
0100
0000
1000
0000
0100
0000
0000
0000
0000
0001
0010
,  // measure 47
0001
0110
0100
1100
,  // measure 48
0010
0000
0000
0000
1010
0000
0000
0000
1001
0000
0000
0000
0100
0010
0100
0000
,  // measure 49
0020
0000
0000
0000
,  // measure 50
0030
0200
0000
0000
0000
0000
0000
0000
,  // measure 51
0300
1001
0000
0000
;

//---------------dance-single - ----------------
#NOTES:
     dance-single:
     :
     Easy:
     3:
     0.174,0.232,0.072,0.113,0.000:
0000
0000
0000
0000
,
0000
0000
0000
0000
,
0000
0000
0000
0000
,
0000
0000
0000
0000
,
0010
0100
0100
0000
,
0001
1000
1000
0000
,
0000
0100
0000
1000
,
0000
0010
0010
0000
,
1000
0000
0001
0100
,
0001
0000
1000
0001
,
0010
0000
0100
1000
,
0100
0000
1000
0010
,
0100
0010
0010
0000
,
1000
0001
0001
0000
,
0000
1000
0000
0001
,
0000
0100
0100
0000
,
0000
0100
0100
0000
,
0000
0001
0001
0000
,
0000
1000
0000
0010
,
0000
1000
0100
0000
,
1000
0000
0001
0000
,
0100
0000
0001
0000
,
1000
0000
0100
0000
,
1001
0000
0000
0000
,
0100
0100
0010
1000
,
0001
0001
0010
0100
,
1000
0000
0001
0000
,
0100
0010
0100
0000
,
0001
0001
0001
0000
,
0100
0100
0100
0000
,
0001
0000
1000
0000
,
0100
1000
0010
0000
,
2000
0000
3100
0000
,
0002
0000
0103
0000
,
0200
0000
0310
0000
,
0020
0000
0130
0000
,
1001
0000
0110
0000
,
0010
0000
0100
0000
,
1001
0000
0110
0000
,
0010
0000
0100
0000
,
0002
0000
0003
0000
,
2000
0000
3000
0000
,
0200
0300
2000
3000
,
0020
0030
0000
0000
,
0100
0000
0000
0000
,
0100
0000
0000
0000
,
0010
0000
1000
0000
,
0001
0010
0100
0000
,
2002
0000
0000
0000
,
0000
0000
0000
0000
,
3003
1001
0000
0000
;

//---------------dance-single - Beatmania Special----------------
#NOTES:
     dance-single:
     Beatmania Special:
     Challenge:
     7:
     0.218,0.412,0.000,0.000,0.123:
0000
0000
0000
0000
,
0000
0000
0000
0000
,
0000
0000
0000
0000
,
0000
0000
0000
0000
,
0100
0010
0010
0000
,
0100
0010
0010
0000
,
0100
0010
1000
0100
,
1000
0010
0010
0000
,
0000
0000
0000
0000
0000
0000
0000
0001
,
0000
0000
0000
0000
,
0000
0000
0000
0000
0000
0000
0000
0001
,
0000
0000
0000
0000
0000
0000
0010
0100
,
1000
0000
0001
0000
0001
0000
0010
0100
,
1000
0000
0001
0000
0001
0000
0010
0100
,
0010
1000
0100
1000
,
0010
0000
0000
0000
0001
0000
0000
0001
0000
0000
0000
0000
0000
0000
0010
0100
,
1000
0000
0000
0000
0001
0000
0000
0000
0001
0000
0000
0000
0000
0100
0010
0100
,
1000
0000
0000
0000
0001
0000
0000
0000
0001
0000
0000
0000
0000
0000
0010
0100
,
1000
0001
0010
0001
,
0100
0000
0000
0000
0001
0000
0000
0001
0000
0000
0000
0000
0000
0000
0000
0000
,
0000
0000
0000
0000
0000
0000
0000
0001
,
0000
0000
0000
0000
0000
0001
0001
0000
,
0100
0000
0000
0000
,
0000
0000
0000
0000
,
0000
0000
0100
0010
0100
0000
0100
0000
0100
0000
0100
0000
0100
0000
0100
0000
,
0000
0000
0100
0010
0100
0000
0100
0000
0100
0000
0100
0000
0100
0000
0100
0000
,
0000
0000
0100
0010
0100
0000
0100
0000
0000
0000
0100
0010
0100
0000
0100
0000
,
0000
0000
0100
0010
0100
0000
0100
0000
0100
0000
0100
0000
0100
0000
0010
0000
,
0000
0000
0000
0000
,
0000
0000
0000
0010
,
0000
0100
0000
0001
,
0010
0000
0100
0000
1000
0010
0100
0000
,
0001
0000
0000
0000
1000
0000
0000
0001
0000
0001
0000
0000
1000
0000
0000
0000
,
0001
0000
0000
0000
1000
0000
0000
0001
0000
0001
0000
0000
1000
0000
0000
0000
,
0001
0000
0000
0000
1000
0000
0000
0001
0000
0001
0000
0000
1000
0000
0000
0000
,
0001
0000
1000
0000
1000
0100
0010
0001
,
1000
0000
0001
0000
,
1000
0000
0001
0000
,
1000
0000
0001
0000
,
1000
0000
0001
0000
,
0010
0000
0000
0000
0000
0000
0100
0010
,
0000
0000
0000
0000
,
0000
1000
0000
0010
,
0001
0100
0100
0000
,
0000
0000
0000
0000
1000
0100
0000
0010
0000
0000
0000
0000
0000
0000
0000
0000
,
0000
0000
0000
0000
0100
0100
0000
0010
0000
0010
0000
0000
0000
0000
0000
0000
,
0000
0000
0000
0000
1000
0100
0000
0000
0000
0100
0000
0000
0010
0000
0001
0000
,
0000
0000
0000
0000
,
0000
0000
0000
0000
,
0000
1000
0000
0000
0000
0000
0000
0000
,
0000
0001
0000
0000
;
