#VERSION:0.83;
#TITLE:Dirtygrrrls/Dirtybois;
#SUBTITLE:;
#ARTIST:Faderhead;
#TITLETRANSLIT:;
#SUBTITLETRANSLIT:;
#ARTISTTRANSLIT:;
#GENRE:;
#ORIGIN:;
#CREDIT:;
#BANNER:Dirtygrrrls Dirtybois.png;
#BACKGROUND:;
#PREVIEWVID:;
#JACKET:jacket.png;
#CDIMAGE:;
#DISCIMAGE:;
#LYRICSPATH:;
#CDTITLE:;
#MUSIC:Dirtygrrrls Dirtybois.ogg;
#OFFSET:0.000000;
#SAMPLESTART:44.313049;
#SAMPLELENGTH:14.694003;
#SELECTABLE:YES;
#BPMS:0.000=130.000;
#STOPS:;
#DELAYS:;
#WARPS:;
#TIMESIGNATURES:0.000=4=4;
#TICKCOUNTS:0.000=4;
#COMBOS:0.000=1;
#SPEEDS:0.000=1.000=0.000=0;
#SCROLLS:0.000=1.000;
#FAKES:;
#LABELS:0.000=Song Start;
#BGCHANGES:3.750=Dirtygrrrls Dirtybois.avi=1.000=0=0=1=====,
99999=-nosongbg-=1.000=0=0=0 // don't automatically add -songbackground-
;
#KEYSOUNDS:;
#ATTACKS:
;

//---------------dance-single - ----------------
#NOTEDATA:;
#CHARTNAME:;
#STEPSTYPE:dance-single;
#DESCRIPTION:;
#CHARTSTYLE:;
#DIFFICULTY:Hard;
#METER:7;
#RADARVALUES:0.418158,0.453477,0.261641,0.261641,0.044970,358.000000,326.000000,32.000000,32.000000,0.000000,0.000000,0.000000,0.000000,0.000000,0.418158,0.453477,0.261641,0.261641,0.044970,358.000000,326.000000,32.000000,32.000000,0.000000,0.000000,0.000000,0.000000,0.000000;
#CREDIT:Ben Speirs;
#NOTES:
0000
0000
0000
0000
,
0000
0000
0000
0000
,
0000
0000
0000
0000
,
0000
0000
0000
0000
,
0001
0100
0001
0000
1000
0100
1000
0000
,
0001
0000
1000
0000
0010
1000
0001
0000
,
1000
0100
1000
0000
0001
0100
0001
0000
,
1000
0000
0001
0000
0010
0010
0010
0000
,
0001
0100
0101
1100
,
1000
0010
1010
0011
,
1000
0100
1000
0000
0001
0100
0001
0000
,
2000
3200
0320
0031
,
2002
0000
3003
0000
0001
1000
0010
0000
,
0100
0010
0100
0000
0010
0010
1000
0000
,
0001
1000
0001
0000
1000
1000
0100
0000
,
1000
0100
0010
0001
0100
0010
1000
0000
,
2002
0000
0000
3003
,
0020
0000
0030
0100
,
0002
0000
0000
0003
,
2000
3000
0200
0300
,
2002
0000
0000
3003
,
0200
0000
0300
0001
,
2000
0000
0000
3000
,
0002
0003
0020
0030
,
1100
0000
0001
0000
0100
0001
1000
0000
,
1010
0000
0011
0000
1000
0001
0101
0000
,
1100
0000
0110
0000
0010
0001
0100
0010
,
1000
0100
0010
0001
0100
0100
0100
0000
,
1010
0000
0001
0000
1000
0100
0010
0000
,
1100
0000
0101
0000
0010
1000
1100
0000
,
0101
0000
1001
0000
0001
0010
0100
1000
,
0010
0100
0001
1000
0010
0010
0010
0000
,
1000
0100
1000
0010
0100
0001
0010
0100
,
0010
0001
0100
0010
1000
0001
0200
0000
,
0310
0100
0001
0010
0100
0010
0001
1000
,
0010
1000
0001
0010
1000
0010
0001
0100
,
0020
0000
1030
0001
1000
0010
0100
0001
,
0020
0000
0130
0010
0001
1000
0200
0000
,
0320
0000
0031
1000
0010
1000
0001
0100
,
0020
0000
0130
0001
0020
0000
0130
1000
,
0002
0000
0000
0000
0000
0103
0001
1000
,
2000
0000
0000
0000
0000
3100
1000
0001
,
0002
0000
0000
0000
0000
0013
0001
1000
,
2000
0000
0000
0000
0000
3010
1000
0001
,
0021
0000
0001
0000
0130
0010
0001
0100
,
0120
0000
0100
0000
1030
0010
1000
0100
,
1200
0310
0102
0013
,
0110
0000
1001
0000
0000
0001
1000
0001
,
0100
0000
0000
0000
0000
0000
0000
0000
0101
0000
0100
0010
0000
0000
0000
0000
,
1000
0001
1000
0000
0001
0001
0010
0010
,
0100
0000
1000
0001
0000
0000
0000
0000
1000
0000
1000
0100
0000
0000
0000
0000
,
1000
0001
1000
0000
0001
0100
0010
0100
,
0001
0000
1000
0000
0100
0000
0000
0000
0010
0000
0010
0001
0000
0000
0000
0000
,
1000
0001
0100
0000
0001
0001
1000
1000
,
0010
0000
0100
0010
0000
0000
0000
0000
1000
0000
1000
0100
0000
0000
0000
0000
,
1000
0001
1000
0000
0001
1000
0010
0100
,
0010
0010
0010
0000
1001
0000
0100
1000
,
0001
1000
0010
0000
0101
0000
0010
0001
,
1000
0001
0100
0000
1010
0000
0001
0010
,
0100
0000
1000
0000
0010
1000
0001
1000
,
0100
0000
0010
0000
0001
0000
0000
0000
1100
0000
0100
1000
0000
0000
0000
0000
,
0010
0010
0100
0000
0001
1000
0001
1000
,
0010
0000
0100
0010
0100
0000
0000
0000
0101
0000
0001
0100
0000
0000
0000
0000
,
0010
0000
0010
0000
0100
0000
0000
0000
0001
0000
0100
0000
0010
0000
1000
0100
,
1000
0000
0001
0000
0100
0000
0000
0000
1001
0000
0001
0000
1000
0000
0000
0010
,
0000
0100
0001
0000
0000
0000
0000
0000
;

//---------------dance-single - ----------------
#NOTEDATA:;
#CHARTNAME:;
#STEPSTYPE:dance-single;
#DESCRIPTION:;
#CHARTSTYLE:;
#DIFFICULTY:Challenge;
#METER:8;
#RADARVALUES:0.572340,0.693553,0.482401,0.138997,0.310699,490.000000,431.000000,59.000000,17.000000,0.000000,0.000000,0.000000,0.000000,0.000000,0.572340,0.693553,0.482401,0.138997,0.310699,490.000000,431.000000,59.000000,17.000000,0.000000,0.000000,0.000000,0.000000,0.000000;
#CREDIT:Ben Speirs;
#NOTES:
0000
0000
0000
0000
,
0000
0000
0000
0000
,
0000
0000
0000
0000
,
0000
0000
0000
0000
,
0001
0000
0001
0100
0000
0000
0000
0000
0001
0000
0010
0000
0100
0000
0000
0000
,
1000
0100
0001
0100
1000
0001
1000
0000
,
1000
0000
1000
0010
0000
0000
0000
0000
1000
0000
0001
0000
0100
0000
0000
0000
,
0001
0010
0100
0100
1000
0010
0100
0000
,
1010
1100
0101
0011
,
1001
0001
1001
0000
1100
1000
1100
0000
,
0101
1010
1100
0110
,
1001
0001
1001
0000
0110
0100
0110
0000
,
0101
0100
0010
0100
0001
0010
0100
0000
,
1100
0100
0010
0100
1000
0010
0100
0000
,
1001
1000
0001
1000
0010
0100
0001
0000
,
0101
0100
0010
0000
1100
0100
0010
0000
,
2001
0100
0100
3100
,
1002
0100
0103
2010
,
3002
0203
0010
0310
,
0002
1003
2000
3100
,
0012
0100
1000
0013
,
2100
0001
3010
1001
,
0110
0000
1001
0000
1000
0001
0100
0010
,
1000
0100
0010
0001
1000
0001
0100
0000
,
0101
0000
0100
0000
0010
1000
0000
0000
0100
0000
0100
0000
1000
0001
0000
0000
,
1100
0000
0100
0000
0010
0001
0000
0000
1000
0000
1000
0000
1010
0000
0000
0000
,
1001
0000
0001
0000
0100
0001
0000
0000
0100
0000
0100
0000
0010
1000
0000
0000
,
0100
0000
0100
0000
0010
0001
0000
0000
1000
0000
0001
0000
0100
0000
0000
0000
,
1001
0000
0001
0000
0100
0001
0000
0000
0100
0000
0100
0000
0010
1000
0000
0000
,
0100
0000
0100
0000
1000
0001
0000
0000
1000
0000
1000
0000
1100
0000
0000
0000
,
0101
0000
0001
0000
1000
0010
0000
0000
1000
0000
1000
0000
0001
0010
0000
0000
,
0001
0100
0100
0010
1000
0100
0010
0000
,
0011
0000
0001
0000
1000
0010
0000
0010
0100
0000
0001
0000
1000
0100
0000
0000
,
1000
0000
0001
0000
0100
0010
0000
0010
1000
0000
0001
0000
1000
0100
0000
0000
,
0010
0000
0001
0000
1000
0010
0000
0010
0100
0000
0001
0000
1000
0001
0000
0000
,
0101
1010
1100
0011
,
1000
0000
0010
0000
0100
0001
0000
0001
0100
0000
0010
0000
1000
0100
0000
0000
,
1000
0000
0001
0000
0100
0010
0000
0010
0100
0000
0001
0000
0010
0100
0000
0000
,
0010
0000
0001
0000
1000
0010
0000
0010
0100
0000
0001
0000
1000
0100
0000
0000
,
1100
0011
1010
0101
,
2002
0000
3003
0000
0000
0001
1000
0010
,
0202
0000
0303
0000
0000
0001
0100
0010
,
2200
0000
3300
0000
0000
0100
1000
0010
,
0220
0000
0330
0000
0000
0010
1000
0100
,
1000
0000
1000
0000
0001
0000
1000
0010
1000
0000
0001
0000
1000
0000
0100
0000
,
0010
0000
0010
0000
0001
0000
0010
0100
0010
0000
0001
0000
1000
0000
0010
0000
,
0100
0001
0100
0001
0100
0001
0100
0001
1000
0010
1000
0010
1000
0010
1000
0010
,
0100
0000
0110
0000
0000
0100
0100
0000
,
1001
0000
0000
0000
0000
0000
0000
0000
1100
0000
0100
1000
0100
0000
0000
0000
,
1000
0001
1000
0000
0001
0000
0000
0000
1000
0000
0010
0100
0010
0000
0100
0000
,
0001
0000
0010
0100
0010
0000
0000
0000
0011
0000
0001
0010
0001
0000
0000
0000
,
1000
0000
0010
1000
0010
0000
0000
0000
1000
0000
0001
0000
0100
0000
0010
1000
,
0010
0000
0100
0000
0001
0000
0000
0000
0110
0000
0010
0100
0010
0000
0000
0000
,
1000
0000
0100
1000
0100
0000
0000
0000
0001
0000
1000
0000
0001
0000
1000
0000
,
0010
0000
0100
0001
0100
0000
0000
0000
1010
0000
0010
0100
0010
0000
0000
0000
,
0100
0000
0001
0100
0001
0000
0000
0000
1000
0000
0001
0000
0100
0000
0010
1000
,
0010
0000
0100
0000
0001
0000
0000
0000
1100
0000
0100
0000
0010
0001
0000
0001
,
1000
0000
0010
0000
0100
0001
0000
0001
0010
0000
0100
0000
1000
0001
0000
0001
,
1000
0000
0010
0100
0010
0000
0000
0000
0100
0000
0001
0000
0010
0100
0000
0100
,
1000
0000
0001
0000
1000
0010
0000
0010
0100
0000
0001
0000
1000
0010
0000
0010
,
0100
0000
0001
0100
0001
0000
0000
0000
1100
0000
0100
0010
0001
0000
0000
0000
,
1000
0001
1000
0000
0001
0000
0000
0000
0101
0000
0100
0010
1000
0000
0001
0000
,
0010
0100
0010
0000
0001
0000
0000
0000
1100
0000
0100
0010
0001
0000
0000
0000
,
1000
0001
1000
0000
0001
0000
0000
0000
0100
0000
0010
0000
0100
0000
0001
0010
,
0100
0000
1000
0000
0001
0000
0000
0000
1000
0000
0001
0000
0100
0000
0010
1000
,
0001
1000
0010
0000
0000
0000
0000
0000
;

//---------------dance-double - ----------------
#NOTEDATA:;
#CHARTNAME:;
#STEPSTYPE:dance-double;
#DESCRIPTION:;
#CHARTSTYLE:;
#DIFFICULTY:Challenge;
#METER:8;
#RADARVALUES:0.518610,0.693553,0.130820,0.106292,0.282082,444.000000,428.000000,16.000000,13.000000,0.000000,0.000000,0.000000,0.000000,0.000000,0.518610,0.693553,0.130820,0.106292,0.282082,444.000000,428.000000,16.000000,13.000000,0.000000,0.000000,0.000000,0.000000,0.000000;
#CREDIT:Ben Speirs;
#NOTES:
00000000
00000000
00000000
00000000
,
00000000
00000000
00000000
00000000
,
00000000
00000000
00000000
00000000
,
00000000
00000000
00000000
00000000
,
10000000
00000000
10000000
01000000
00000000
00000000
00000000
00000000
10000000
00000000
00010000
00000000
10000000
00000000
00000000
00000000
,
00010000
01000000
00100000
00010000
00001000
00001000
00001000
00000000
,
00010000
00000000
00001000
00010000
00000000
00000000
00000000
00000000
00000100
00000000
00001000
00000000
00000100
00000000
00000000
00000000
,
00001000
00000010
00000100
00000001
00000010
00000100
00001000
00000000
,
00000001
00000000
00000001
00000010
00000000
00000000
00000000
00000000
00000001
00000000
00000100
00000000
00000010
00000000
00000000
00000000
,
00000100
00001000
00000100
00000010
00001000
00001000
00000100
00000000
,
00010000
00000000
00010000
00000100
00000000
00000000
00000000
00000000
00010000
00000000
00001000
00000000
00010000
00000000
00000000
00000000
,
00001000
01000000
00010000
00100000
01000000
01000000
01000000
00000000
,
10000000
01000000
00100000
00010000
01000000
00100000
10000000
00000000
,
00010000
01000000
00100000
00010000
00001000
00010000
00001000
00000000
,
00010000
00000100
00001000
00000010
00000100
00000001
00001000
00000000
,
00000001
00000010
00001000
00000010
00000100
00010000
00001000
00000000
,
00020100
00001000
00000000
00031000
,
00012000
00100000
00000000
00203000
,
00320000
00000000
02030000
00000000
03100000
00000000
00100000
01000000
,
00010000
00000000
00010000
00100000
01000000
00000000
10000000
00000000
,
21000000
30010000
00000000
10000000
,
20100000
30010000
00000000
01010000
,
00011000
00001200
00000010
00000310
,
00000010
00000001
00001000
00000000
00000010
00001000
00000001
00000000
,
00000100
00000000
00000001
00000000
00001000
00000100
00000000
00000100
00000010
00000000
00000001
00000000
00001000
00000000
00000000
00000000
,
00000001
00000000
00000100
00000000
00000010
00001000
00000000
00001000
00000100
00000000
00010000
00000000
00001000
00000000
00000000
00000000
,
00100000
00000000
00010000
00000000
01000000
00100000
00000000
00100000
10000000
00000000
01000000
00000000
10000000
00010000
00000000
00010000
,
00100000
00000000
01000000
00000000
10000000
00010000
00000000
00010000
01000000
00000000
00100000
00000000
10000000
00000000
00000000
00000000
,
00010000
00100000
00001000
00000000
00010000
00000100
00001000
00000000
,
00000110
00000000
00000000
00000000
00001001
00000000
00000000
00000000
00000001
00000010
00000001
00000000
00001000
00000000
00000000
00000000
,
00000001
00000100
00001000
00010000
00001000
00100000
00010000
01000000
,
00100000
10000000
01000000
00010000
00001000
00010000
00001000
00000000
,
00100000
00000000
00010000
00000000
00100000
00010000
00000000
00100000
00010000
00000000
10000000
00000000
00100000
10000000
00000000
00100000
,
10000000
00000000
00010000
00000000
01000000
00100000
00000000
01000000
00100000
00000000
10000000
00000000
00010000
00000000
00000000
00000000
,
10000000
00000000
01000000
00000000
00100000
00010000
00000000
00100000
00010000
00000000
01000000
00000000
00100000
00010000
00000000
00100000
,
00010000
00000000
00100000
00000000
01000000
00010000
00000000
01000000
00010000
00000000
00100000
00000000
00001000
00000000
00000000
00000000
,
00011000
00000000
00010000
00000000
00000100
00001000
00000000
00000100
00001000
00000000
00000010
00000000
00000100
00000010
00000000
00000100
,
00000010
00000000
00001000
00000000
00000100
00000010
00000000
00000100
00000010
00000000
00000001
00000000
00001000
00000000
00000000
00000000
,
00000001
00000000
00000100
00000000
00000010
00001000
00000000
00001000
00000100
00000000
00001000
00000000
00000010
00000100
00000000
00000100
,
00000001
00000000
00000010
00000000
00000100
00001000
00000000
00001000
00000001
00000000
00000100
00000000
00001000
00000000
00010000
00000000
,
00022000
00000000
00000000
00000000
00033000
00000000
00010000
00001000
,
00200000
00000000
00000000
00000000
00300000
00000000
00010000
00100000
,
00002000
00000000
00000000
00000000
00003000
00000000
00010000
00000100
,
00002000
00000000
00000000
00003100
,
00001100
00000000
00001000
00000000
00000010
00000000
00000100
00000010
00000100
00000000
00000001
00000000
00001000
00000000
00000000
00000000
,
00000001
00000000
00000100
00000000
00000010
00000000
00001000
00000100
00001000
00000000
00000010
00000000
00000100
00000000
00000000
00000000
,
00000010
00001000
00000010
00001000
00000010
00001000
00000010
00001000
00000100
00010000
00000100
00010000
00000100
00010000
00000100
00010000
,
00001000
00011000
00010000
00000000
00000000
00000000
00001000
00010000
,
00011000
00000000
00000000
00000000
00110000
00010000
10000000
00100000
,
01000000
00100000
01000000
00000000
00010000
00000000
00000000
00000000
10000000
00000000
00100000
00000000
01000000
00000000
00010000
00000000
,
00100000
00000000
01000000
10000000
01000000
00000000
00000000
00000000
10000000
00000000
01000000
00000000
00010000
00000000
00000000
00000000
,
00001000
00000000
00000100
00000000
00000001
00000000
00000000
00000000
00001000
00000001
00001000
00000000
00000001
00000000
00000100
00000010
,
00000100
00000000
00000001
00000000
00001000
00000000
00000000
00000000
00000001
00000000
00000001
00000010
00000000
00000000
00000000
00000000
,
00000001
00001000
00000001
00000000
00001000
00000000
00000000
00000000
00000010
00000000
00000100
00000000
00001000
00000000
00000100
00000000
,
00000010
00001000
00000010
00000000
00001000
00000000
00000000
00000000
00000001
00000000
00000010
00000000
00000100
00000000
00000000
00000000
,
00001000
00000100
00001000
00000000
00000001
00000000
00000000
00000000
00000001
00000000
00000100
00000000
00001000
00000000
00010000
00000000
,
00100000
00000000
01000000
00000000
00010000
00000000
00000000
00000000
01000000
00100000
01000000
00000000
00010000
00000000
00100000
00000000
,
01000000
10000000
01000000
00000000
10000000
00000000
00000000
00000000
00010000
00000000
10000000
01000000
00100000
00000000
00010000
00000000
,
10000000
00010000
10000000
00000000
00010000
00000000
00000000
00000000
01000000
00000000
00100000
01000000
00100000
00000000
01000000
00000000
,
00010000
00100000
00010000
00000000
10000000
00000000
00000000
00000000
01000000
00000000
00100000
00010000
01000000
00000000
00100000
00000000
,
00010000
00001000
00100000
00000000
00101000
00100000
00001000
00010000
,
00000100
00001000
00000010
00000000
00000100
00000000
00000000
00000000
00000010
00000000
00001000
00000010
00001000
00000000
00000001
00000000
,
00000010
00000000
00000100
00000000
00001000
00000000
00000000
00000000
00000001
00000010
00000100
00000000
00001000
00000000
00000000
00000000
,
00010000
00100000
01000000
00000000
10000000
00000000
00000000
00000000
00100000
00000000
01000000
00000000
00010000
00000000
10000000
00000000
,
00100000
01000000
00100000
00000000
01000000
00000000
00000000
00000000
00100000
00000000
01000000
00000000
00010000
00000000
00000000
00000000
,
10000000
01000000
00010000
00000000
00000000
00000000
00000000
00000000
;

//---------------dance-single - ----------------
#NOTEDATA:;
#CHARTNAME:;
#STEPSTYPE:dance-single;
#DESCRIPTION:;
#CHARTSTYLE:;
#DIFFICULTY:Medium;
#METER:5;
#RADARVALUES:0.289674,0.373452,0.163526,0.237112,0.000000,248.000000,228.000000,20.000000,29.000000,0.000000,0.000000,0.000000,0.000000,0.000000,0.289674,0.373452,0.163526,0.237112,0.000000,248.000000,228.000000,20.000000,29.000000,0.000000,0.000000,0.000000,0.000000,0.000000;
#CREDIT:Ben Speirs;
#NOTES:
0000
0000
0000
0000
,
0000
0000
0000
0000
,
0000
0000
0000
0000
,
0000
0000
0000
0000
,
1000
0100
0000
0000
0001
0000
0000
0000
,
0001
0100
0000
0000
1000
0000
0000
0000
,
1000
0010
0000
0000
0001
0000
0000
0000
,
0001
0010
0000
0000
1000
0000
0000
0000
,
0001
0100
0000
0010
0000
0100
0000
0000
,
0010
1000
0000
0001
0000
1000
0000
0000
,
0100
1000
0000
0001
0000
0100
0000
0000
,
0001
0010
0000
0100
0000
1000
0000
0000
,
0010
0010
0000
0100
0000
1001
0000
0000
,
1000
1000
0000
0100
0000
1100
0000
0000
,
0001
0001
0000
0100
0000
0101
0000
0000
,
1000
0100
0010
0001
,
0200
0000
0000
0300
,
0020
0000
0030
1000
,
0002
0000
0003
0000
,
2000
3000
0200
0300
,
2002
0000
3003
0000
,
0002
0000
0003
0100
,
0020
0000
0000
0030
,
2000
3000
0002
0003
,
0100
0000
0010
0000
1000
0100
1000
0000
,
0010
0100
0001
1001
,
0001
0000
0010
0000
0001
0100
0001
0000
,
0010
0100
1000
1001
,
2000
0000
3000
0000
0010
0100
0010
0000
,
0200
0000
0300
0000
0001
0100
0001
0000
,
1000
1000
0001
0001
,
1000
0100
0010
0001
,
0100
0010
0100
0000
0001
0000
0010
0000
,
0200
0310
0001
0000
,
1000
0100
1000
0000
0001
0000
1000
0000
,
0020
0130
0002
0013
,
1100
0001
0000
1000
,
0010
0100
0001
0000
0100
0000
0010
1000
,
0001
0001
1000
1000
,
1100
0001
0011
0100
,
2002
0000
0000
3003
,
0020
0000
0000
0030
,
0200
0000
0000
0300
,
0002
0000
0000
0003
,
1000
0100
1000
0000
0010
0010
1000
0000
,
0100
1000
0010
0000
1000
1000
0100
0000
,
0001
0100
0001
0000
0010
0010
0001
0000
,
0100
0001
0100
0000
0000
0000
0010
0000
,
0110
0000
1001
1100
,
0001
1000
0010
0010
,
0100
0100
0100
0000
0001
0000
0001
0000
,
1000
1000
0200
0310
,
0020
0031
2200
3300
,
0001
1000
0001
0000
0100
0100
0001
0000
,
1000
0001
0202
0303
,
1000
1000
1000
0000
0001
0000
1000
0000
,
0010
0000
0010
0000
1000
0100
1000
0000
,
0001
0100
0001
0000
0010
0010
0010
0000
,
0001
1000
0001
0000
0101
0000
1100
0000
,
0010
0000
1100
0101
,
0010
0000
0000
0000
0001
1000
0001
0000
,
0100
0100
0001
0000
1000
0001
1000
0000
,
0100
0100
1000
0000
0020
0000
0130
0000
,
0200
0301
1000
0001
,
0010
0001
0010
0000
0100
0000
0001
0000
,
1000
0101
0000
0000
;

//---------------dance-single - ----------------
#NOTEDATA:;
#CHARTNAME:;
#STEPSTYPE:dance-single;
#DESCRIPTION:;
#CHARTSTYLE:;
#DIFFICULTY:Easy;
#METER:3;
#RADARVALUES:0.186886,0.240076,0.073587,0.049058,0.000000,160.000000,151.000000,9.000000,6.000000,0.000000,0.000000,0.000000,0.000000,0.000000,0.186886,0.240076,0.073587,0.049058,0.000000,160.000000,151.000000,9.000000,6.000000,0.000000,0.000000,0.000000,0.000000,0.000000;
#CREDIT:Ben Speirs;
#NOTES:
// measure 0
0000
0000
0000
0000
,  // measure 1
0000
0000
0000
0000
,  // measure 2
0000
0000
0000
0000
,  // measure 3
0000
0000
0000
0000
,  // measure 4
1000
0000
0100
0000
,  // measure 5
0010
0010
0001
0000
,  // measure 6
0001
0000
0100
0000
,  // measure 7
0010
0010
1000
0000
,  // measure 8
1001
0000
1000
0000
,  // measure 9
0010
0100
0010
0000
,  // measure 10
1000
0000
0001
0000
,  // measure 11
0010
0100
0010
0000
,  // measure 12
0001
0001
0100
0000
,  // measure 13
0001
1000
0001
0000
,  // measure 14
1000
1000
0100
0000
,  // measure 15
0020
0000
0000
0030
,  // measure 16
1001
0000
0000
0000
,  // measure 17
0100
0000
0000
0010
,  // measure 18
0010
0000
0000
0000
,  // measure 19
1000
0000
0100
0000
,  // measure 20
1001
0000
0000
0000
,  // measure 21
0001
0000
0000
0010
,  // measure 22
0010
0000
0000
0000
,  // measure 23
0001
0000
1000
0000
,  // measure 24
0010
0010
0000
0100
,  // measure 25
0001
0001
0000
1000
,  // measure 26
0100
0010
0000
0000
,  // measure 27
0100
0000
1000
0000
,  // measure 28
0010
0010
0000
1000
,  // measure 29
0001
0001
0000
0100
,  // measure 30
0010
0010
0000
0000
,  // measure 31
1000
0000
0001
0000
,  // measure 32
1001
0000
0001
0000
,  // measure 33
0010
0010
0100
0100
,  // measure 34
1000
0000
0001
0000
,  // measure 35
0100
0000
0001
0000
,  // measure 36
1001
0000
1000
0000
,  // measure 37
0010
0010
0100
0100
,  // measure 38
0001
0000
1000
0000
,  // measure 39
0100
0100
0010
0000
,  // measure 40
2002
0000
3003
0000
,  // measure 41
0020
0000
0030
0000
,  // measure 42
0200
0000
0300
0000
,  // measure 43
0002
0000
0003
0000
,  // measure 44
1000
1000
0100
0000
,  // measure 45
0001
0001
0100
0000
,  // measure 46
0001
1000
0001
1000
,  // measure 47
0010
0010
0000
0000
,  // measure 48
0110
0000
1001
0001
,  // measure 49
1000
0000
1000
0001
,  // measure 50
0100
0000
0010
0010
,  // measure 51
0100
0000
0001
0010
,  // measure 52
0100
0000
1000
1000
,  // measure 53
0100
0000
1000
0001
,  // measure 54
1000
0000
0001
0001
,  // measure 55
0100
0000
0001
1000
,  // measure 56
0001
0000
0010
0000
,  // measure 57
0010
0000
0010
0100
,  // measure 58
1000
0001
0100
0000
,  // measure 59
0100
0000
0100
0001
,  // measure 60
0010
0100
1000
0000
,  // measure 61
0001
0000
0100
0100
,  // measure 62
0010
0010
1000
0000
,  // measure 63
0001
0000
0010
0010
,  // measure 64
0100
0100
1000
0000
,  // measure 65
0010
1001
0000
0000
;

//---------------dance-single - ----------------
#NOTEDATA:;
#CHARTNAME:;
#STEPSTYPE:dance-single;
#DESCRIPTION:;
#CHARTSTYLE:;
#DIFFICULTY:Beginner;
#METER:2;
#RADARVALUES:0.122644,0.213401,0.040881,0.000000,0.000000,105.000000,100.000000,5.000000,0.000000,0.000000,0.000000,0.000000,0.000000,0.000000,0.122644,0.213401,0.040881,0.000000,0.000000,105.000000,100.000000,5.000000,0.000000,0.000000,0.000000,0.000000,0.000000,0.000000;
#CREDIT:Ben Speirs;
#NOTES:
// measure 0
0000
0000
0000
0000
,  // measure 1
0000
0000
0000
0000
,  // measure 2
0000
0000
0000
0000
,  // measure 3
0000
0000
0000
0000
,  // measure 4
0001
0000
0000
0000
,  // measure 5
1000
0000
0000
0000
,  // measure 6
0010
0000
0000
0000
,  // measure 7
0100
0000
0100
0000
,  // measure 8
0100
0000
0000
0000
,  // measure 9
0001
0001
0000
0000
,  // measure 10
1000
1000
0000
0000
,  // measure 11
0010
0000
0010
0000
,  // measure 12
0010
0000
0000
0000
,  // measure 13
1000
1000
0000
0000
,  // measure 14
0001
0001
0000
0000
,  // measure 15
0100
0000
0000
0000
,  // measure 16
1001
0000
0000
0000
,  // measure 17
0010
0000
0000
0010
,  // measure 18
0010
0000
0000
0000
,  // measure 19
0100
0000
0100
0000
,  // measure 20
0100
0000
0000
0000
,  // measure 21
0001
0000
0000
1000
,  // measure 22
1000
0000
0000
0000
,  // measure 23
0010
0000
0010
0000
,  // measure 24
0010
0000
0000
0000
,  // measure 25
1000
0000
0000
0001
,  // measure 26
0001
0000
0000
0000
,  // measure 27
0100
0000
0100
0000
,  // measure 28
0100
0000
0000
0000
,  // measure 29
0001
0000
0000
1000
,  // measure 30
1000
0000
0000
0000
,  // measure 31
0010
0000
0010
0000
,  // measure 32
1001
0000
0000
1000
,  // measure 33
1000
0000
0000
0100
,  // measure 34
0100
0000
0000
0000
,  // measure 35
0010
0000
0010
0000
,  // measure 36
0010
0000
0000
0000
,  // measure 37
0001
0000
0000
1000
,  // measure 38
1000
1000
0000
0000
,  // measure 39
0010
0000
0010
0000
,  // measure 40
1001
0000
0000
0000
,  // measure 41
0100
0000
0000
0000
,  // measure 42
0001
0000
0000
0000
,  // measure 43
1000
0000
0000
0000
,  // measure 44
0010
0010
0000
0000
,  // measure 45
0010
0010
0000
0000
,  // measure 46
0100
0100
0100
0100
,  // measure 47
0100
0100
0000
0000
,  // measure 48
1001
0000
1001
0000
,  // measure 49
0000
0000
0010
0000
,  // measure 50
0010
0000
0010
0000
,  // measure 51
0000
0000
1000
1000
,  // measure 52
0000
1000
1000
0000
,  // measure 53
0000
0000
0001
0000
,  // measure 54
0001
0000
0001
0000
,  // measure 55
0000
0000
0100
0100
,  // measure 56
0000
0100
0100
0000
,  // measure 57
0000
0000
0010
0010
,  // measure 58
0010
0000
0010
0000
,  // measure 59
0000
0000
1000
0000
,  // measure 60
0000
0000
0001
0001
,  // measure 61
0000
0000
1000
0000
,  // measure 62
1000
0000
1000
0000
,  // measure 63
0000
0000
0010
0010
,  // measure 64
0000
0000
0010
0000
,  // measure 65
0000
0100
0000
0000
;
