#VERSION:0.82;
#TITLE:Shots;
#SUBTITLE:;
#ARTIST:Imagine Dragons;
#TITLETRANSLIT:;
#SUBTITLETRANSLIT:;
#ARTISTTRANSLIT:;
#GENRE:Indie Rock;
#ORIGIN:;
#CREDIT:;
#BANNER:Shots.png;
#BACKGROUND:Shots-bg.png;
#PREVIEWVID:;
#JACKET:jacket.png;
#CDIMAGE:;
#DISCIMAGE:;
#LYRICSPATH:;
#CDTITLE:;
#MUSIC:Shots.ogg;
#OFFSET:0.000000;
#SAMPLESTART:95.953880;
#SAMPLELENGTH:14.733999;
#SELECTABLE:YES;
#BPMS:0.000=105.000;
#STOPS:;
#DELAYS:;
#WARPS:;
#TIMESIGNATURES:0.000=4=4;
#TICKCOUNTS:0.000=4;
#COMBOS:0.000=1;
#SPEEDS:0.000=1.000=0.000=0;
#SCROLLS:0.000=1.000;
#FAKES:;
#LABELS:0.000=Song Start;
#BGCHANGES:4.250=Shots.avi=1.000=0=0=1=====,
99999=-nosongbg-=1.000=0=0=0 // don't automatically add -songbackground-
;
#KEYSOUNDS:;
#ATTACKS:
;

//---------------dance-single - ----------------
#NOTEDATA:;
#CHARTNAME:;
#STEPSTYPE:dance-single;
#DESCRIPTION:;
#CHARTSTYLE:;
#DIFFICULTY:Hard;
#METER:8;
#RADARVALUES:0.520879,0.534466,0.110938,0.110938,0.410470,463.000000,15.000000,15.000000,0.000000,0.000000,0.000000,0.000000,0.000000,0.520879,0.534466,0.110938,0.110938,0.410470,463.000000,15.000000,15.000000,0.000000,0.000000,0.000000,0.000000,0.000000;
#CREDIT:Ben Speirs;
#NOTES:
0000
0000
0000
0000
,
0000
0000
0000
0000
,
0000
0000
0000
0000
,
0000
0000
0000
0000
0000
0000
0000
0000
0000
0000
0000
0000
0001
1000
0001
1000
,
0010
0100
0001
0010
0100
1000
1100
0000
,
0001
1000
0100
1000
0001
0100
0101
0000
,
1000
0010
1000
0010
0100
0001
1000
0000
,
0001
0000
0010
0000
0001
0000
0010
0000
0100
0000
1000
0000
0001
0100
0001
0100
,
0020
0000
1030
0000
0001
0010
0001
0000
,
2000
0000
3100
0000
1000
0001
0100
0001
,
2000
0000
3010
0000
0100
0010
0100
0000
,
0001
0000
0100
0000
0001
0000
0000
0000
1000
0000
0000
1000
0000
0000
0001
0000
,
0001
0000
0000
0100
0001
0000
0000
0000
1000
0000
0000
0010
1000
0000
0000
0000
,
0001
0000
0000
0010
0001
0000
1000
0000
0100
0000
1000
0000
0002
0000
0000
0000
,
0103
0000
0000
0100
0010
0000
1000
0000
0100
0000
0100
0000
1000
0000
0000
0000
,
0001
0000
0001
0000
1000
0000
0010
0000
0100
0000
0000
0100
0000
0000
0001
0000
,
1000
0000
1100
0000
0000
0000
0001
1000
0001
0000
0100
0000
0100
0000
0000
0000
,
0001
0000
0101
0000
0000
0000
1000
0001
1000
0000
0010
0000
0100
0000
0001
0000
,
1000
0010
0010
0100
0001
0001
1000
0100
,
0100
0000
0010
0000
0002
0000
0000
0000
0100
0000
0000
0000
1003
0100
1000
0100
,
1000
0000
0001
0000
0010
0100
0010
0000
0001
0100
0000
0100
0010
0000
1000
0000
,
0001
0100
0000
0100
0001
0000
1000
0000
0100
0000
0000
0000
1000
0000
0001
0010
,
0001
0010
0001
0000
1000
0000
0010
0100
0000
0100
0001
0000
1000
0000
0100
0000
,
0010
0000
0001
0000
1000
0000
0010
0100
0010
0000
1000
0000
0001
0100
0000
0000
,
0101
0000
0000
0000
1100
0000
0000
0000
0101
0000
0100
0010
0000
0000
1000
0000
,
0010
0100
0001
1000
0100
0010
0001
1000
,
1010
0000
0000
0000
0011
0000
0000
0000
1010
0000
0010
0100
0000
0000
0001
0000
,
0100
0000
0010
0000
1000
0000
0001
0000
0010
0000
0100
0000
1000
0001
0000
0000
,
1001
0000
1000
1000
,
0001
0000
0000
0000
0000
0000
0000
0000
0001
0000
0000
1000
0000
0000
0001
0000
,
1000
0000
0100
0000
1100
0000
0000
0000
0001
0010
0000
0010
0100
0000
0000
0000
,
1000
0000
0001
0000
1001
0000
0000
0000
0001
0100
0000
0100
0010
0000
0000
0000
,
2000
0000
0010
0000
3020
0000
0000
0000
0130
0000
0001
1000
0001
0000
1000
0000
,
0002
0000
0010
0000
0023
0000
0000
0000
0130
0000
1000
0100
1000
0000
0001
0000
,
0100
0000
0000
0001
0000
1000
0100
0000
1000
0010
0000
0010
0100
0000
0001
0000
,
1000
0000
0000
0100
0000
0010
0001
0000
1000
0010
0000
0010
0100
0000
0001
0000
,
1000
0000
0000
0100
0000
0010
0001
0000
1000
0010
0000
0010
0100
0000
0001
0000
,
1000
0000
0000
0001
0000
0010
0100
0000
1000
0001
0000
0001
0100
0000
0010
1000
,
0001
0000
0100
0000
0001
0000
0100
0000
0010
0000
1000
0001
1000
0000
0001
0010
,
0100
0000
1000
0000
0100
0000
1000
0000
0001
0000
1000
0100
1000
0000
0010
1000
,
0001
0000
0100
0001
0100
0001
0000
0000
1000
0000
0100
0000
1000
0001
1000
0000
,
0001
0000
0100
0001
0100
0001
0000
1000
0000
0010
1000
0000
0001
0010
0001
0010
,
0100
0000
1000
0001
1000
0000
0100
0000
0010
0001
0000
0010
0001
0000
1000
0000
,
0010
1000
0000
0010
1000
0000
0001
0000
0010
0000
0001
0000
1000
0000
0001
0100
,
0001
0100
0001
0000
1000
0000
0010
0100
0000
0100
0001
0000
1000
0000
0001
0010
,
0000
0010
0100
0000
1000
0000
0001
1000
0001
0000
0010
0000
0100
0000
1000
0000
,
0002
0000
0103
0010
2000
0000
3100
0010
0001
0000
0100
0020
0000
0000
1030
0000
,
0001
0000
1000
0000
0100
0010
0100
0000
0010
0000
0001
0000
1000
0000
0010
1000
,
0002
0000
0013
0001
2000
0000
3010
1000
0001
0000
0010
0200
0000
0000
1300
0000
,
0001
1000
0001
0000
1000
0000
0100
0000
0010
0000
0001
0000
0100
0000
0100
0000
,
0010
0000
1000
0100
1000
0000
0001
0010
0100
0000
1000
0100
1000
0000
0001
0010
,
0100
0000
1000
0100
1000
0000
0001
0010
0100
0000
1000
0100
1000
0000
0010
1000
,
0001
0000
0100
0001
0100
0000
0010
1000
0001
0000
0100
0001
0100
0000
0010
1000
,
0001
0000
0100
0001
0100
0000
0010
1000
0001
0100
0000
0000
0001
1000
0001
1000
,
0010
0100
0101
0001
1000
0100
0010
0001
,
1000
0000
0010
1000
0010
0000
1000
0100
1000
0000
0001
0100
0001
0000
1000
0000
,
0010
0000
0100
0000
0110
0000
0100
0000
0001
0000
1000
0000
0100
0000
1000
0001
,
1000
0000
0001
0100
0001
0000
1000
0100
1000
0000
0001
0010
0001
1000
0000
0000
;

//---------------dance-single - ----------------
#NOTEDATA:;
#CHARTNAME:;
#STEPSTYPE:dance-single;
#DESCRIPTION:;
#CHARTSTYLE:;
#DIFFICULTY:Medium;
#METER:5;
#RADARVALUES:0.333870,0.384399,0.103542,0.325417,0.000000,258.000000,14.000000,44.000000,0.000000,0.000000,0.000000,0.000000,0.000000,0.333870,0.384399,0.103542,0.325417,0.000000,258.000000,14.000000,44.000000,0.000000,0.000000,0.000000,0.000000,0.000000;
#CREDIT:Ben Speirs;
#NOTES:
0000
0000
0000
0000
,
0000
0000
0000
0000
,
0000
0000
0000
0000
,
0000
0000
0000
0000
0000
0000
0001
1000
,
0002
0000
0203
0000
0310
0000
1000
0100
,
2000
0000
3002
0000
0103
0000
0001
1000
,
0020
0000
0130
0000
0001
0000
1000
0001
,
0200
0000
0310
0000
1000
0000
0001
1000
,
0002
0003
0100
0100
,
0010
0000
1000
0000
0100
0100
1000
0000
,
0002
0003
1000
1000
,
0001
0000
0001
0000
0100
0001
1000
0000
,
0000
0000
0010
1000
0000
0000
0001
0100
,
0000
0000
0001
1000
0000
0000
1000
0100
,
0020
0000
0031
0000
1000
0100
1000
0000
,
0001
0100
0001
0000
1000
0000
0001
0000
,
0100
0100
0000
0000
0001
1000
0001
0000
,
1000
1000
0000
0000
0001
0010
0001
0000
,
2000
3100
0020
0031
,
2000
0001
0002
3003
,
1000
0100
1000
0100
0010
0001
0100
0000
,
0001
0100
0001
0000
1000
0000
0000
0000
,
0001
0100
0001
0000
1000
0100
1000
0000
,
0001
0010
0100
1000
,
1001
1001
1001
0000
,
0001
1000
0010
0000
1000
0001
0010
0000
,
1001
1001
1001
0000
,
0001
1000
0100
0100
1000
1000
0001
0100
,
0020
0030
0000
0000
,
0200
0300
0000
0000
,
0001
0000
1000
0000
0010
0010
1000
0000
,
0001
0000
0010
0000
0001
0001
0100
0000
,
0002
0023
0130
0100
,
2000
3020
0130
0100
,
0001
0100
0001
0000
1000
0000
1100
0000
,
0001
0100
0001
0000
1000
0000
1100
0000
,
0002
2003
3010
0010
,
2000
3002
0013
0010
,
0001
1000
0001
1000
0010
0100
0001
0000
,
1000
0001
1000
0001
0010
0001
1000
0000
,
0200
1300
0010
0100
,
0002
0000
1003
0000
0010
1000
0001
0000
,
0100
0001
0100
0001
1000
0100
0010
0000
,
0100
1000
0100
0000
1000
0000
0000
0000
,
0001
1000
0001
0000
1000
0100
1000
0000
,
0002
0013
0200
1300
,
1001
0110
1001
0000
,
0001
1000
0100
0010
0001
0000
1000
0000
,
1001
0110
1001
0000
,
1000
0100
1000
0100
0010
0010
0001
1000
,
2000
3010
0200
0301
,
2000
3100
0020
0031
,
1000
0100
2000
0000
3001
0100
0002
0000
,
1003
0010
2000
0000
3001
0010
0002
0000
,
0203
0320
2030
3200
,
0310
0001
1000
0010
0100
0001
2000
0000
,
3002
0203
0320
2030
,
3001
0010
0100
1000
0010
0100
0001
0000
;

//---------------dance-single - ----------------
#NOTEDATA:;
#CHARTNAME:;
#STEPSTYPE:dance-single;
#DESCRIPTION:;
#CHARTSTYLE:;
#DIFFICULTY:Easy;
#METER:3;
#RADARVALUES:0.198631,0.234911,0.110938,0.081354,0.000000,162.000000,15.000000,11.000000,0.000000,0.000000,0.000000,0.000000,0.000000,0.198631,0.234911,0.110938,0.081354,0.000000,162.000000,15.000000,11.000000,0.000000,0.000000,0.000000,0.000000,0.000000;
#CREDIT:Ben Speirs;
#NOTES:
0000
0000
0000
0000
,
0000
0000
0000
0000
,
0000
0000
0000
0000
,
0000
0000
0000
0000
,
1000
0200
0300
0010
,
0001
0200
0300
0010
,
2000
0000
3000
0001
,
0002
0000
0003
0100
,
0200
0300
0010
0010
,
2000
3000
0001
0001
,
0020
0030
0001
0000
,
1000
1000
0001
0001
,
0100
0010
0000
0010
,
1000
0100
0000
0100
,
1000
0001
0000
0001
,
0100
0100
0010
0000
,
2000
3000
0001
0001
,
2000
3000
0001
0001
,
1000
0010
0100
0100
,
0001
1000
1000
0000
,
1001
0001
0010
0010
,
0001
1000
0010
0000
,
1000
1000
0001
0001
,
1000
0001
0100
0000
,
1001
1001
1001
0000
,
1000
0000
0001
0000
,
1001
1001
1001
0000
,
0001
0000
1000
0000
,
0010
0000
0000
0000
,
0000
0000
0000
0000
,
1000
1000
0100
0000
,
1000
1000
0100
0000
,
0010
0001
0100
0100
,
0010
1000
0100
0100
,
0010
0010
0000
0001
,
1000
0010
0000
0010
,
0100
0100
0001
1000
,
0100
0100
1000
0001
,
0100
0100
0010
0000
,
1000
1000
0100
0000
,
2000
3000
0002
0003
,
0100
0100
0010
0010
,
1001
0000
1000
0000
,
0010
1000
0001
0000
,
1000
1000
0001
1000
,
0100
0010
0001
0000
,
1001
1001
1001
0000
,
0001
1000
0010
0000
,
1001
1001
1001
0000
,
1000
0001
0010
0000
,
0001
0001
0000
1000
,
0010
0010
0000
0100
,
0001
0001
0000
1000
,
0100
0100
0010
0001
,
1001
0000
1000
0010
,
0100
0000
0010
1000
,
0001
0000
1000
0100
,
0010
0010
0001
1000
;

//---------------dance-single - ----------------
#NOTEDATA:;
#CHARTNAME:;
#STEPSTYPE:dance-single;
#DESCRIPTION:;
#CHARTSTYLE:;
#DIFFICULTY:Beginner;
#METER:1;
#RADARVALUES:0.113051,0.149489,0.022188,0.000000,0.000000,104.000000,3.000000,0.000000,0.000000,0.000000,0.000000,0.000000,0.000000,0.113051,0.149489,0.022188,0.000000,0.000000,104.000000,3.000000,0.000000,0.000000,0.000000,0.000000,0.000000,0.000000;
#CREDIT:Ben Speirs;
#NOTES:
0000
0000
0000
0000
,
0000
0000
0000
0000
,
0000
0000
0000
0000
,
0000
0000
0000
0000
,
0001
0001
0000
0000
,
1000
1000
0000
0000
,
0010
0000
0000
0100
,
0100
0000
0000
0001
,
0001
0000
0000
0000
,
1000
0000
0000
0000
,
0010
0000
0000
0000
,
0010
0000
0000
0000
,
1000
1000
0000
0000
,
0001
0001
0000
0000
,
0100
0100
0000
0000
,
0100
0100
0000
0000
,
0000
1001
0000
1000
,
0000
0001
0000
0100
,
0100
0000
0000
0000
,
0010
0010
0000
0000
,
1001
0000
1000
0000
,
0001
0000
0000
0000
,
0100
0100
0100
0000
,
0010
0000
0010
0000
,
1000
1000
1000
0000
,
0001
0000
0000
0000
,
1000
1000
1000
0000
,
0001
0000
1000
0000
,
0010
0000
0000
0000
,
0000
0000
0000
0000
,
1000
1000
0000
0000
,
1000
1000
0000
0000
,
0001
0001
0000
0000
,
0001
0001
0000
0000
,
1000
1000
0000
0000
,
1000
1000
0000
0000
,
0001
0001
0000
0000
,
0001
0001
0000
0000
,
0010
0010
0010
0000
,
0010
0010
0010
0000
,
0100
0000
0100
0000
,
0001
0000
1000
0000
,
1001
0000
0001
0000
,
1000
0000
0000
0000
,
0010
0010
0000
0000
,
0010
0010
0000
0000
,
1000
1000
1000
0000
,
0001
0000
0001
0000
,
1000
1000
1000
0000
,
0001
0000
1000
0000
,
0010
0000
0000
0100
,
0100
0000
0000
0001
,
0001
0000
0000
1000
,
1000
0000
1000
0000
,
0001
0000
0100
0000
,
0100
0000
0000
0000
,
0001
0000
0000
0000
,
1000
1000
1000
1000
;

//---------------dance-double - ----------------
#NOTEDATA:;
#CHARTNAME:;
#STEPSTYPE:dance-double;
#DESCRIPTION:;
#CHARTSTYLE:;
#DIFFICULTY:Challenge;
#METER:8;
#RADARVALUES:0.522992,0.705495,0.036979,0.192292,0.388282,464.000000,5.000000,26.000000,0.000000,0.000000,0.000000,0.000000,0.000000,0.522992,0.705495,0.036979,0.192292,0.388282,464.000000,5.000000,26.000000,0.000000,0.000000,0.000000,0.000000,0.000000;
#CREDIT:Ben Speirs;
#NOTES:
// measure 0
00000000
00000000
00000000
00000000
,  // measure 1
00000000
00000000
00000000
00000000
,  // measure 2
00000000
00000000
00000000
00000000
,  // measure 3
00000000
00000000
00000000
00000000
00000000
00000000
00000000
00000000
00000000
00000000
00000000
00000000
10000000
00010000
10000000
00010000
,  // measure 4
01000000
00100000
10000000
01000000
00100000
00010000
01000000
00010000
,  // measure 5
00100000
00001000
00100000
00001000
00010000
00000100
00001000
00000010
,  // measure 6
00000100
00000100
00000010
00001000
00000100
00000010
00000001
00001000
,  // measure 7
00000001
00000000
00000001
00000000
00000100
00000000
00000010
00000000
00001000
00000000
00000001
00000000
00001000
00000100
00001000
00000100
,  // measure 8
00000020
00000000
00000031
00000000
00001000
00000001
00001000
00000000
,  // measure 9
00000020
00000000
00000130
00000000
00000001
00000100
00001000
00000000
,  // measure 10
00020000
00000000
00031000
00000000
00010000
00000100
00010000
00000000
,  // measure 11
00001000
00010000
00001000
00100000
00010000
01000000
00100000
00000000
,  // measure 12
10000000
00000000
00000000
10000000
00100000
00000000
00000000
00000000
10000000
00000000
00000000
10000000
01000000
00000000
00000000
00000000
,  // measure 13
00100000
00000000
00000000
00100000
00010000
00000000
00000000
00000000
10000000
00000000
01000000
00000000
00100000
00000000
00010000
00000000
,  // measure 14
02000000
00000000
03010000
00100000
00010000
00100000
00001000
00010000
,  // measure 15
00000100
00000000
00010000
00000000
00001000
00000000
00100000
00000000
00010000
00000000
00000000
01000000
00000000
00000000
00100000
00000000
,  // measure 16
10000000
00000000
11000000
00000000
00000000
00000000
01000000
00100000
00010000
00000000
01000000
00000000
00010000
00000000
00000000
00000000
,  // measure 17
00100000
00000000
00101000
00000000
00000000
00000000
00100000
00001000
00010000
00000000
00000100
00000000
00001000
00000000
00000000
00000000
,  // measure 18
00000010
00000100
00000100
00000010
00001000
00001000
00000001
00000010
,  // measure 19
00000010
00000000
00000100
00000000
00002000
00000000
00000000
00000000
00003002
00000000
00000000
00000000
00000103
00000010
00000100
00000010
,  // measure 20
00001000
00000000
00000001
00000000
00000100
00000010
00000100
00000000
00000001
00000100
00000000
00000100
00000010
00000000
00001000
00000000
,  // measure 21
00000100
00010000
00000000
00010000
00001000
00000000
00100000
00000000
00010000
00000000
00100000
00000000
00001000
00000000
00010000
00000100
,  // measure 22
00010000
00000100
00001000
00000000
00000010
00000000
00000100
00000001
00000000
00000001
00001000
00000000
00000100
00000000
00000010
00000001
,  // measure 23
00000000
00000001
00001000
00000000
00000010
00000000
00000100
00000000
00001000
00000000
00010000
00000000
00001000
00010000
00001000
00100000
,  // measure 24
00020000
00000000
01030000
00000000
00200000
00000000
10300000
00000000
01000000
00000000
10000000
00010000
20000000
00000000
00000000
00000000
,  // measure 25
30100000
01000000
00010000
10000000
01000000
00100000
00010000
01000000
,  // measure 26
00200000
00000000
10300000
00000000
00020000
00000000
00130000
00000000
00020000
00000000
10030000
01000000
20000000
00000000
00000000
00000000
,  // measure 27
30010000
00000000
01000000
00000000
00100000
00000000
10000000
00000000
01000000
00000000
00100000
00000000
00010000
01000000
00010000
01000000
,  // measure 28
00001000
00000000
00000000
00000000
,  // measure 29
00010000
00000000
00000000
00000000
,  // measure 30
00000100
00000000
00001000
00000000
00001100
00000000
00000000
00000000
00000001
00000000
00000100
00000010
00000000
00000000
00001000
00000000
,  // measure 31
00000001
00000000
00000100
00000000
00000101
00000000
00000000
00000000
00000001
00000000
00001000
00000100
00000000
00000000
00001000
00000000
,  // measure 32
00000001
00000000
00000100
00000000
00000010
00000000
00001000
00000000
00000100
00010000
00000100
00010000
00000000
00000000
00000100
00000000
,  // measure 33
00001000
00000000
00000010
00000000
00000100
00000000
00000001
00000000
00001000
00000100
00001000
00000100
00000000
00000000
00010000
00000000
,  // measure 34
00000100
00000000
00000000
00010000
00000000
00001000
00100000
00000000
00001000
00010000
00000000
00010000
00100000
00000000
10000000
00000000
,  // measure 35
01000000
00000000
00000000
10000000
00000000
00010000
01000000
00000000
00100000
10000000
00000000
10000000
01000000
00000000
00100000
00000000
,  // measure 36
00010000
00000000
00000000
01000000
00000000
00010000
00100000
00000000
00001000
00010000
00000000
00010000
00001000
00000000
00000100
00000000
,  // measure 37
00000001
00000000
00000000
00001000
00000000
00001000
00000100
00000000
00000010
00000001
00000000
00000001
00000100
00000000
00000010
00000000
,  // measure 38
00001000
00000000
00000100
00000000
00001000
00000000
00000001
00000000
00001000
00000100
00000010
00000001
00000000
00000000
00001000
00000000
,  // measure 39
00000001
00000000
00000100
00000000
00000001
00000000
00001000
00000000
00000001
00000010
00000100
00001000
00000000
00000000
00000000
00000000
,  // measure 40
00000100
00000000
00010000
00000100
00010000
00000100
00000000
00000000
00010000
00000000
00001000
00000000
00100000
00010000
00000000
00000000
,  // measure 41
10000000
00000000
00010000
01000000
00010000
01000000
00000000
00100000
00000000
10000000
01000000
00000000
10000000
00010000
10000000
00010000
,  // measure 42
01000000
00000000
00100000
00000000
10000000
00000000
01000000
00000000
00100000
00010000
00100000
00010000
10000000
00000000
00100000
00000000
,  // measure 43
01000000
00010000
01000000
00010000
10000000
00000000
00100000
00000000
01000000
00000000
00010000
00000000
00100000
00000000
00001000
00100000
,  // measure 44
00001000
00100000
00001000
00000000
00010000
00000000
00000100
00001000
00000000
00001000
00000010
00000000
00000100
00000000
00000001
00001000
,  // measure 45
00000000
00001000
00000100
00000000
00000010
00000000
00000001
00000000
00001000
00000000
00000010
00000000
00000100
00000010
00000100
00000010
,  // measure 46
00001000
00000000
00000010
00000100
00000001
00000000
00000100
00000010
00001000
00000000
00000001
00001000
00000002
00000000
00000000
00000000
,  // measure 47
00001003
00000000
00000100
00000000
00010000
00000000
00001000
00000000
00100000
00000000
00010000
00000000
01000000
00000000
00100000
10000000
,  // measure 48
00020000
00000000
00130000
00010000
20000000
00000000
31000000
10000000
00020000
00000000
01030000
00010000
20000000
00000000
00000000
00000000
,  // measure 49
30100000
00000000
01000000
00000000
00100000
00000000
10000000
00000000
01000000
00000000
00100000
00000000
00010000
10000000
00010000
10000000
,  // measure 50
00100000
00000000
10000000
01000000
10000000
00000000
00010000
01000000
00010000
00000000
10000000
01000000
10000000
00000000
00010000
00100000
,  // measure 51
00010000
00000000
10000000
00000000
00100000
00000000
01000000
00000000
00010000
00000000
00100000
00000000
00001000
00000000
00010000
00001000
,  // measure 52
00010000
00000000
00001000
00100000
00001000
00000000
00100000
00010000
00100000
00000000
00001000
00010000
00001000
00000000
00010000
00000100
,  // measure 53
00010000
00000000
00000100
00000000
00001000
00000000
00000010
00000000
00000100
00000000
00000001
00000000
00001000
00000000
00000100
00000010
,  // measure 54
00000002
00000000
00000103
00000010
00002000
00000000
00003100
00000010
00000002
00000000
00000103
00000010
00002000
00000000
00003100
00000010
,  // measure 55
00000002
00000000
00000103
00000010
00002000
00000000
00003100
00000010
00000002
00000000
00000103
00000010
00002000
00000000
00003100
00010000
,  // measure 56
00000100
00010000
00001000
00100000
00010000
01000000
01010000
00010000
,  // measure 57
10000000
00000000
00100000
10000000
00010000
00000000
00100000
00000000
01000000
00000000
10000000
00000000
00010000
01000000
00000000
00000000
;
