#VERSION:0.82;
#TITLE:Closer;
#SUBTITLE:;
#ARTIST:The Chainsmokers;
#TITLETRANSLIT:;
#SUBTITLETRANSLIT:;
#ARTISTTRANSLIT:;
#GENRE:House;
#ORIGIN:;
#CREDIT:;
#BANNER:Closer.png;
#BACKGROUND:Closer-bg.png;
#PREVIEWVID:;
#JACKET:jacket.png;
#CDIMAGE:;
#DISCIMAGE:;
#LYRICSPATH:;
#CDTITLE:cdtitle.png;
#MUSIC:Closer.ogg;
#OFFSET:0.005000;
#SAMPLESTART:50.498299;
#SAMPLELENGTH:14.339993;
#SELECTABLE:YES;
#BPMS:0.000=95.000;
#STOPS:;
#DELAYS:;
#WARPS:;
#TIMESIGNATURES:0.000=4=4;
#TICKCOUNTS:0.000=4;
#COMBOS:0.000=1;
#SPEEDS:0.000=1.000=0.000=0;
#SCROLLS:0.000=1.000;
#FAKES:;
#LABELS:0.000=Song Start;
#BGCHANGES:4.000=Closer.avi=1.000=0=0=1=====,
99999=-nosongbg-=1.000=0=0=0 // don't automatically add -songbackground-
;
#KEYSOUNDS:;
#ATTACKS:
;

//---------------dance-single - ----------------
#NOTEDATA:;
#CHARTNAME:;
#STEPSTYPE:dance-single;
#DESCRIPTION:;
#CHARTSTYLE:;
#DIFFICULTY:Hard;
#METER:7;
#RADARVALUES:0.389543,0.466576,0.269414,0.114297,0.000000,287.000000,33.000000,14.000000,0.000000,0.000000,0.000000,0.000000,0.000000,0.389543,0.466576,0.269414,0.114297,0.000000,287.000000,33.000000,14.000000,0.000000,0.000000,0.000000,0.000000,0.000000;
#CREDIT:Ben Speirs;
#NOTES:
0000
0000
0000
0000
,
0000
0000
0000
0000
,
0000
0000
0000
0000
,
0000
0000
0000
0000
,
1002
0000
0103
0000
0000
0001
0001
1000
,
0020
0000
1030
0000
0000
1000
0100
0010
,
0002
0000
1003
0000
0000
0001
0001
0000
,
2100
0000
3001
0000
0000
1000
1000
0001
,
0100
0000
0010
0100
0000
0001
0001
0100
,
0010
0000
1000
0100
0000
1000
0010
0100
,
0001
0000
1000
1000
0000
0001
0010
0000
,
1001
0000
1000
1000
0000
0001
0200
0000
,
0310
0100
0001
1000
1000
0001
0002
0000
,
1003
0100
0010
0001
0100
0100
0010
0010
,
2000
0000
3001
0100
0100
0001
1000
0000
,
0010
0010
1000
0100
0010
0010
0001
0000
,
1100
0000
0101
0000
1100
0000
0010
1000
,
0002
0000
0013
0001
0000
1000
1000
0001
,
0011
0000
1010
0000
0011
0000
0100
0001
,
2000
0000
3100
1000
0000
0001
0100
0000
,
1001
1000
0010
0100
0001
0001
1000
1000
,
0001
0001
0010
0001
1000
1000
0010
0010
,
0100
0001
1000
0100
0100
0000
1000
0001
,
0100
0100
0010
0010
0100
0001
1000
0001
,
0010
0010
0001
1000
0100
0100
1000
0001
,
0100
0100
0010
0010
0010
0000
1000
0010
,
0100
0100
0001
1000
0100
0100
1000
0001
,
0010
0010
0001
1000
0001
0001
0100
0000
,
1001
1000
0001
0001
1000
1000
0001
0001
,
0110
0100
0010
0010
0100
0100
0010
0010
,
1001
0001
1000
1000
0001
0001
1000
1000
,
0110
0100
0010
0010
0100
0100
0010
0010
,
0011
0100
1000
0010
0100
0001
0101
1000
,
1010
0010
0100
0001
1000
0100
0100
0100
,
1100
0001
0100
0010
1000
0001
1001
0010
,
1000
1100
0101
1000
0001
0101
1010
0001
,
1001
1000
0010
0100
0001
0010
0010
0001
,
1000
1000
0100
1000
0001
0100
0100
0010
,
1001
1000
0010
0100
0001
1000
0001
1000
,
0010
0010
0100
0001
1000
0100
0100
0010
,
0110
0010
0001
1000
1000
1010
1001
0100
,
0101
0001
1000
0100
0010
0001
0001
1000
,
1000
0010
0100
0001
1000
1001
1001
0001
,
0100
0010
1000
0100
0010
0110
0110
0010
,
0002
0000
0000
0000
0000
0100
0000
0000
,
2003
0000
0000
0000
0000
0100
0000
0000
,
3020
0000
0000
0000
0000
0230
0000
0000
,
0302
0000
0000
0000
0000
1003
0000
0000
;

//---------------dance-single - ----------------
#NOTEDATA:;
#CHARTNAME:;
#STEPSTYPE:dance-single;
#DESCRIPTION:;
#CHARTSTYLE:;
#DIFFICULTY:Challenge;
#METER:8;
#RADARVALUES:0.520168,0.563780,0.563321,0.236758,0.159199,348.000000,69.000000,29.000000,0.000000,0.000000,0.000000,0.000000,0.000000,0.520168,0.563780,0.563321,0.236758,0.159199,348.000000,69.000000,29.000000,0.000000,0.000000,0.000000,0.000000,0.000000;
#CREDIT:;
#NOTES:
// measure 0
0000
0000
0000
0000
,  // measure 1
0000
0000
0000
0000
,  // measure 2
0000
0000
0000
0000
,  // measure 3
0000
0000
0000
0000
,  // measure 4
2010
0000
0000
0000
3001
0000
0000
0000
0000
0000
0001
0100
0001
0100
0010
0000
,  // measure 5
2001
0000
3100
0000
0000
1100
0101
1000
,  // measure 6
0020
0000
0000
0000
0130
0000
0000
0000
0000
0000
0001
1000
0001
0000
0000
0000
,  // measure 7
0102
0000
1003
0000
0000
1010
0011
1000
,  // measure 8
1001
0000
0000
0010
0100
0000
0010
0000
0000
0000
1000
0000
1100
0000
0000
0000
,  // measure 9
0001
0000
0100
0010
0100
0000
0001
1000
0000
1000
0010
0000
0010
0000
0110
0000
,  // measure 10
1001
0000
0001
1000
0010
0000
0010
0000
0100
0000
0001
0000
1000
0000
0100
0000
,  // measure 11
1100
0000
0100
0010
0001
0000
1000
0000
0010
0000
0100
0000
0110
0000
0010
0000
,  // measure 12
1001
0000
1001
0000
0001
0100
0010
0100
0010
0000
1000
0000
0001
0000
0000
0000
,  // measure 13
1000
0000
0100
0010
0100
0010
0001
1000
0010
0000
1000
0000
0001
0000
0100
0000
,  // measure 14
0101
0000
0101
0000
1000
0000
0010
1000
0010
0000
1000
0100
1000
0000
0001
0000
,  // measure 15
1000
0100
1000
0100
0010
0100
0010
0100
0010
0000
0001
0000
1000
0000
0010
0000
,  // measure 16
1010
0000
0001
1000
0001
0000
0100
0001
0100
0000
0010
0000
0110
0000
0001
0000
,  // measure 17
1001
0000
1000
0100
0010
0000
0001
0000
1000
0000
0010
0000
0010
0000
0100
0000
,  // measure 18
0101
0000
1000
0001
1000
0000
0010
1000
0010
0000
0100
0000
0110
0000
1000
0000
,  // measure 19
1001
0000
0001
0010
0100
0000
1000
0000
0001
0000
0100
0000
0100
0000
0010
0000
,  // measure 20
2001
0001
0100
0010
0010
3002
0100
0100
,  // measure 21
0023
0100
0100
0001
0001
0230
1000
1000
,  // measure 22
0320
0001
0001
0100
0230
2300
0010
0001
,  // measure 23
3002
0100
0100
0010
0010
2003
0100
0010
,  // measure 24
3020
0100
0100
1000
2030
3002
0100
0100
,  // measure 25
2003
0100
0010
0001
3002
0203
0010
0001
,  // measure 26
0320
1000
1000
0100
0230
0302
0100
0010
,  // measure 27
2003
0100
0100
0001
0001
3020
0100
0130
,  // measure 28
0110
1001
1000
0010
0100
0001
1000
0100
,  // measure 29
0110
1001
0001
0010
0001
1000
0010
0100
,  // measure 30
0101
1010
0001
1000
0100
0010
0001
1000
,  // measure 31
1100
0011
0001
1000
0010
0100
0001
1000
,  // measure 32
1010
1010
1100
1100
0001
1000
0010
0100
,  // measure 33
0101
0101
1100
1100
0001
1000
0100
0010
,  // measure 34
1001
0000
1000
0100
1000
0100
1000
0100
1000
0001
0100
0000
0001
1000
0010
0000
,  // measure 35
1001
0000
0001
0010
0001
0010
0001
0010
0001
1000
0010
0000
1001
0000
0000
0000
,  // measure 36
1010
0010
0100
0001
1000
1100
0101
1000
,  // measure 37
1001
0010
1000
0001
0010
0011
1010
0100
,  // measure 38
1001
1000
0010
0100
0001
0101
1100
0001
,  // measure 39
0010
0010
0100
0100
0010
0110
0011
1100
,  // measure 40
1001
0000
1000
0100
0010
0000
0001
0000
1000
0000
1010
0000
1001
0000
0100
0000
,  // measure 41
1001
0000
0001
1000
0100
0000
0010
0000
0001
0000
0011
0000
1100
0000
0101
0000
,  // measure 42
1010
0000
0010
1000
0001
0000
0100
0000
0010
0000
0101
0000
1100
0000
0001
0000
,  // measure 43
0011
0000
1000
0001
0010
0000
0001
0000
1000
0000
1100
0000
0101
0000
0010
0000
,  // measure 44
1002
0000
0000
0000
0000
1000
0000
0000
,  // measure 45
0203
0000
0000
0000
0000
0320
0000
0000
,  // measure 46
2030
0000
0000
0000
0000
0100
0000
0000
,  // measure 47
3002
0000
0000
0000
0000
0013
0000
0000
;

//---------------dance-double - ----------------
#NOTEDATA:;
#CHARTNAME:;
#STEPSTYPE:dance-double;
#DESCRIPTION:;
#CHARTSTYLE:;
#DIFFICULTY:Challenge;
#METER:7;
#RADARVALUES:0.404704,0.505458,0.236758,0.138789,0.040820,301.000000,29.000000,17.000000,0.000000,0.000000,0.000000,0.000000,0.000000,0.404704,0.505458,0.236758,0.138789,0.040820,301.000000,29.000000,17.000000,0.000000,0.000000,0.000000,0.000000,0.000000;
#CREDIT:Ben Speirs;
#NOTES:
00000000
00000000
00000000
00000000
,
00000000
00000000
00000000
00000000
,
00000000
00000000
00000000
00000000
,
00000000
00000000
00000000
00000000
,
00021000
00000000
00030100
00000000
00000000
00010000
00010000
00001000
,
00200000
00000000
00310000
00000000
00000000
10000000
10000000
00010000
,
02000000
00000000
03100000
00000000
00000000
10000000
00010000
00000000
,
20010000
00000000
31000000
00000000
00000000
10000000
01000000
00010000
,
00002000
00000000
00013000
00010000
00000000
00001000
00000100
00000000
,
00000002
00000000
00000103
00000010
00000000
00001000
00001000
00000001
,
00000001
00000010
00000001
00001000
00001000
00000100
00000100
00000000
,
00020100
00000000
00000000
00030000
00001000
00000000
00001000
00000000
00000000
00000000
00100000
00000000
00010000
00000000
00000000
00000000
,
00101000
00000000
00100000
00000000
00010000
00000000
10000000
01000000
10000000
00000000
00010000
00000000
01000000
00000000
00000000
00000000
,
00100000
01000000
00010000
00100000
00100000
00010000
00100000
00001000
,
00010000
00010000
00000100
00001000
00001000
00000010
00000010
00000000
,
00001000
00000000
00000001
00001000
00000001
00000000
00000100
00000000
00000010
00000000
00000010
00000000
00001000
00000000
00000100
00000000
,
00001100
00000000
00000000
00000100
00010000
00000000
00000000
00001000
00010000
00000000
00000000
00000000
00001000
00000000
00100000
00000000
,
00010000
00000000
00000000
10000000
01000000
00000000
10000000
00000000
00010000
00000000
01000000
00000000
00010000
00000000
00100000
00000000
,
00001000
00000000
00000000
00100000
00001000
00000000
00000000
00010000
00001000
00000000
00000000
00000000
00010000
00000000
00000100
00000000
,
00001000
00000000
00000000
00000010
00000100
00000000
00000010
00000000
00001000
00000000
00000100
00000000
00000100
00000000
00000010
00000000
,
00001001
00000001
00001000
00000100
00000010
00000001
00001000
00000010
,
00000100
00000100
00000001
00001000
00000100
00000100
00000010
00000001
,
00001000
00001000
00000100
00010000
00020000
00000000
00031000
00010000
,
00001000
00100000
00010000
01000000
00100000
00100000
10000000
00100000
,
01000000
01000000
10000000
01000000
00010000
00010000
01000000
00010000
,
10000000
01000000
00010000
00001000
00020000
00000000
00031000
00000100
,
00000010
00000010
00000100
00000001
00001000
00000100
00000010
00000001
,
00001000
00001000
00000001
00000001
00000100
00000010
00001000
00000000
,
00001001
00001000
00000100
00010000
00001000
00100000
00010000
10000000
,
10010000
00010000
00100000
00001000
00010000
00000100
00001000
00000001
,
00001001
00001000
00000100
00010000
00001000
01000000
00010000
10000000
,
10010000
00010000
01000000
00001000
00010000
00000100
00001000
00000010
,
00001010
00001010
00000100
00000001
00001000
00000100
00000010
00000001
,
00001001
00001001
00001000
00000010
00000100
00000010
00000010
00000010
,
00001000
00000100
00010000
00001000
00100000
00010000
10000000
00100000
,
01000000
01000000
00010000
00100000
00001000
00010000
00011000
00000000
,
00010100
00000100
00001000
00000010
00000100
00000001
00000001
00000100
,
00000101
00000100
00000010
00001000
00000100
00010000
00001000
00100000
,
00110000
00010000
10000000
00100000
01000000
00010000
00010000
01000000
,
10100000
10000000
01000000
00100000
00010000
00100000
00100000
00001000
,
00011000
00010000
00000100
00001000
00000010
00001010
00001100
00000001
,
00000101
00000100
00000010
00001000
00000001
00001001
00001100
00011000
,
20010000
00000000
00000000
30100000
01000000
00000000
00100000
00000000
10000000
00000000
00010000
00000000
00010000
00000000
10000000
00000000
,
11000000
00000000
00010000
01000000
00010000
00000000
10000000
00000000
01000000
00000000
00100000
00000000
00100000
00000000
00010000
00000000
,
00102000
00000000
00000000
00000000
00000000
00023000
00000000
00000000
,
00030200
00000000
00000000
00000000
00000000
00002300
00000000
00000000
,
00003020
00000000
00000000
00000000
00000000
00000230
00000000
00000000
,
00000302
00000000
00000000
00000000
00000000
00001003
00000000
00000000
;

//---------------dance-single - ----------------
#NOTEDATA:;
#CHARTNAME:;
#STEPSTYPE:dance-single;
#DESCRIPTION:;
#CHARTSTYLE:;
#DIFFICULTY:Medium;
#METER:5;
#RADARVALUES:0.267082,0.311051,0.057148,0.212266,0.000000,196.000000,7.000000,26.000000,0.000000,0.000000,0.000000,0.000000,0.000000,0.267082,0.311051,0.057148,0.212266,0.000000,196.000000,7.000000,26.000000,0.000000,0.000000,0.000000,0.000000,0.000000;
#CREDIT:Ben Speirs;
#NOTES:
0000
0000
0000
0000
,
0000
0000
0000
0000
,
0000
0000
0000
0000
,
0000
0000
0000
0000
,
2000
0000
3010
0000
0000
1000
1000
0000
,
0002
0000
0103
0000
0000
0001
0001
1000
,
1000
0000
0010
0000
0000
1000
0001
0000
,
1001
0000
0000
0000
0000
1000
0100
0010
,
0001
0000
1000
0000
0000
0010
0010
0000
,
1000
0000
0001
0000
0000
0100
0100
0010
,
0010
0000
1000
0000
0000
0100
0100
0000
,
2100
0000
3001
0000
0000
0001
0100
0000
,
1001
0000
0001
0000
0100
0010
1000
0000
,
0010
1000
0100
0000
1000
0100
0010
0000
,
0001
0000
1000
0000
0010
1000
0001
0000
,
0001
0100
0010
0000
0010
1000
0100
0000
,
2000
0000
3200
0000
0320
0000
0031
1000
,
0001
1000
0000
0001
,
0002
0000
0203
0000
0320
0000
1030
0001
,
1000
0001
0000
1000
,
0020
0000
0000
0000
0000
2030
0000
0000
,
3200
0000
0000
0000
0000
0320
0000
0000
,
0032
0000
0000
0000
0000
2003
0000
0000
,
3002
0000
0000
0000
0000
0203
0000
0000
,
0310
0000
1000
0000
0100
0100
0100
0000
,
0010
0010
0010
0000
0001
0000
0000
0000
,
1000
0000
0001
0000
1000
1000
1000
0000
,
0001
0001
0001
0000
0100
0000
0010
0000
,
1000
0000
1000
0000
0010
1000
0010
1000
,
0001
0000
0001
0000
0010
0001
0010
0001
,
1000
0000
1000
0000
0100
1000
0100
1000
,
0001
0000
0001
0000
0100
0001
0100
0001
,
1000
0000
0010
0000
0100
0100
0010
0010
,
1000
0000
0100
0000
0010
0010
0001
0001
,
1000
0000
0001
0000
0100
0100
0010
0010
,
1000
0001
1000
0110
,
1001
0000
1000
0000
0001
0100
0100
0010
,
1000
0000
0001
0000
1000
0100
0100
0010
,
0001
0000
1000
0000
0001
0100
0100
0000
,
0002
0203
0320
1030
,
2002
0000
3003
0000
1000
0100
0100
0010
,
0001
0000
1000
0000
0001
0010
0010
0100
,
1000
0000
0010
0000
1000
0010
0010
0000
,
1000
0001
0001
0000
0001
0100
0100
0000
,
1002
0000
0000
0000
0000
0100
0000
0000
,
2003
0000
0000
0000
0000
0001
0000
0000
,
3020
0000
0000
0000
0000
1000
0000
0000
,
0230
0000
0000
0000
0000
0301
0000
0000
;

//---------------dance-single - ----------------
#NOTEDATA:;
#CHARTNAME:;
#STEPSTYPE:dance-single;
#DESCRIPTION:;
#CHARTSTYLE:;
#DIFFICULTY:Easy;
#METER:3;
#RADARVALUES:0.145787,0.253392,0.057148,0.130625,0.000000,102.000000,7.000000,16.000000,0.000000,0.000000,0.000000,0.000000,0.000000,0.145787,0.253392,0.057148,0.130625,0.000000,102.000000,7.000000,16.000000,0.000000,0.000000,0.000000,0.000000,0.000000;
#CREDIT:Ben Speirs;
#NOTES:
0000
0000
0000
0000
,
0000
0000
0000
0000
,
0000
0000
0000
0000
,
0000
0000
0000
0000
,
1001
0000
0000
0010
,
0100
0000
0000
0001
,
1000
0000
0000
0010
,
1000
0000
0100
0010
,
0001
0000
0000
1000
,
1000
0000
0000
0010
,
0100
0000
0000
0001
,
0001
0000
0000
1001
,
1000
0000
0010
0000
,
0100
0100
0010
0010
,
1000
0000
0001
0000
,
1000
1000
0100
0100
,
0010
0010
0010
0000
,
0001
0000
1000
0000
,
0010
0010
0010
0000
,
1000
0000
0001
0000
,
2002
0000
0000
3003
,
0020
0000
0000
0030
,
2002
0000
0000
3003
,
0200
0000
0000
0300
,
0001
0001
0001
0000
,
1000
1000
1000
0000
,
0010
0000
0010
0000
,
0010
0010
0010
0000
,
1001
0000
0000
1000
,
0100
0000
0000
0010
,
0001
0000
0000
1000
,
0010
0000
0000
0100
,
0001
0001
1000
1000
,
0010
0010
0100
0100
,
0001
1000
0001
1000
,
0001
1000
0001
0110
,
2002
3003
0000
1000
,
0100
0000
1000
0001
,
0200
0300
0000
0010
,
0100
0000
0001
0100
,
0020
0030
0000
1000
,
0100
0000
1000
0010
,
0200
0300
0000
0001
,
2000
3000
0001
0001
,
0200
0000
0000
0300
,
0020
0000
0000
0030
,
2000
0000
0000
3000
,
0002
0000
0000
0003
;

//---------------dance-single - ----------------
#NOTEDATA:;
#CHARTNAME:;
#STEPSTYPE:dance-single;
#DESCRIPTION:;
#CHARTSTYLE:;
#DIFFICULTY:Beginner;
#METER:1;
#RADARVALUES:0.095636,0.134299,0.040820,0.000000,0.000000,77.000000,5.000000,0.000000,0.000000,0.000000,0.000000,0.000000,0.000000,0.095636,0.134299,0.040820,0.000000,0.000000,77.000000,5.000000,0.000000,0.000000,0.000000,0.000000,0.000000,0.000000;
#CREDIT:Ben Speirs;
#NOTES:
0000
0000
0000
0000
,
0000
0000
0000
0000
,
0000
0000
0000
0000
,
0000
0000
0000
0000
,
1000
0000
0000
0001
,
0001
0000
0000
0100
,
0100
0000
0000
0000
,
0010
0000
1000
0000
,
1001
0000
0000
0001
,
0001
0000
0000
1000
,
1000
0000
0000
0000
,
0010
0000
0100
0000
,
0001
0001
0000
0000
,
1000
0000
0001
0000
,
1000
1000
0000
0000
,
0001
0000
1000
0000
,
0010
0010
0010
0000
,
0010
0000
0000
0000
,
0100
0100
0100
0000
,
0100
0000
0000
0000
,
0001
0000
0000
0000
,
1000
0000
0000
0000
,
0010
0000
0000
0000
,
1000
0000
0000
0000
,
0001
0000
0001
0000
,
1000
0000
1000
0000
,
0100
0000
0100
0000
,
0100
0000
0100
0000
,
0110
0000
0000
0010
,
0010
0000
0000
0001
,
0001
0000
0000
1000
,
1000
0000
0000
0000
,
1001
0000
0000
0001
,
0001
0000
0000
1000
,
1000
0000
0000
0010
,
0010
0000
0000
0110
,
1001
0000
0000
0001
,
0001
0000
1000
0000
,
0010
0000
0000
1000
,
1000
0000
0001
0000
,
0100
0000
0000
0100
,
0100
0000
0010
0000
,
1000
0000
0000
0001
,
0001
0000
1000
0000
,
0010
0000
0000
0000
,
0100
0000
0000
0000
,
0001
0000
0000
0000
,
1000
0000
0000
0000
;
