#TITLE:Forget You!;
#SUBTITLE:;
#ARTIST:Cee Lo Green;
#TITLETRANSLIT:;
#SUBTITLETRANSLIT:;
#ARTISTTRANSLIT:;
#GENRE:Pop;
#CREDIT:;
#BANNER:Forget You.png;
#BACKGROUND:Forget You-bg.png;
#LYRICSPATH:;
#CDTITLE:cdtitle.png;
#MUSIC:Forget You.ogg;
#OFFSET:-0.719000;
#SAMPLESTART:67.874161;
#SAMPLELENGTH:15.159995;
#SELECTABLE:YES;
#BPMS:0.000000=127.500000
;
#STOPS:
;
#BGCHANGES:4.000=Forget You.avi=1.000=0=0=1=====,
99999=-nosongbg-=1.000=0=0=0 // don't automatically add -songbackground-
;
#KEYSOUNDS:;
#ATTACKS:;

//---------------dance-single - ----------------
#NOTES:
     dance-single:
     :
     Hard:
     7:
     0.542944,0.531463,0.255742,0.547003,0.060383,422.000000,36.000000,77.000000,0.000000,0.000000,0.000000,0.542944,0.531463,0.255742,0.547003,0.060383,422.000000,36.000000,77.000000,0.000000,0.000000,0.000000:
0000
0000
0000
0000
,
0000
0000
0000
0000
,
0000
0000
0000
0000
,
0000
0000
0000
0000
0000
1000
0100
0010
,
0002
0000
0203
0000
0320
0000
1030
0100
,
1000
0001
0100
0020
0000
0130
0001
2000
,
0000
3000
1100
0000
0102
0000
1003
0020
,
0000
0100
0100
0130
0000
0010
0100
0001
,
0201
0000
0310
1000
0100
0100
0020
0000
,
0130
1000
0010
0100
0002
0000
0103
0020
,
0000
1030
0002
0000
0023
0000
0031
2000
,
0000
3020
0000
0130
0001
1000
0100
0000
,
2001
0010
0001
3100
,
1002
0100
1000
0013
,
0001
1000
0000
0010
0100
0010
0100
0000
,
0000
0001
1000
0001
1000
0100
0010
0001
,
2000
0000
3010
0100
0002
0000
0013
0100
,
1000
0001
1000
0002
0000
0103
0010
2000
,
0000
3001
0020
0000
0032
0000
2003
0000
,
3010
0010
0010
0010
1000
0100
0001
0000
,
0100
0000
0100
0000
0010
0000
0000
0010
0000
0000
1000
0000
0100
0000
0010
0000
,
0001
0000
0001
0000
0100
0000
0000
0100
0000
0000
0010
0000
1000
0000
0000
0001
,
0010
0000
0001
0000
1000
0001
1000
0000
0010
0000
0100
0000
0002
0000
0000
0000
,
0103
0000
0010
0000
1000
0000
0000
1000
0000
0001
0010
0000
0001
0000
1000
0000
,
0010
0000
0010
0000
1010
0000
0000
1001
0000
0000
1000
0000
0001
0000
0100
0000
,
0001
0000
0001
0000
0101
0000
0000
1001
0000
0000
1000
0000
0100
0000
0000
1000
,
0001
1000
0100
0010
0001
0001
0200
0000
,
0310
1000
0001
0010
0010
0001
1000
0010
,
1002
0000
0000
0000
0103
0000
0010
0000
0100
0000
0001
0000
1000
0000
0010
0100
,
0010
1000
0100
0010
0001
1000
0002
0000
,
0103
0000
0010
0000
1000
0000
0100
1000
0100
0000
0000
0000
1000
0002
0000
0000
,
0103
0000
0010
0000
1000
0000
0001
0000
0010
0000
0000
0000
0001
1000
0002
0000
,
0000
0103
0010
0100
0001
1000
0100
1000
,
0010
0010
0100
0001
1000
0100
0010
0000
,
0001
0010
0100
1000
0010
0100
0001
1000
,
0020
0000
0030
0000
1000
0010
0001
0000
,
0101
0100
0020
0000
2030
0000
3001
0010
,
0100
2000
0000
3002
0000
0103
0010
0100
,
0001
1000
0200
0000
0320
0000
0031
0010
,
0100
0000
1000
0001
1000
0000
0002
0000
0000
0000
0103
0000
0010
0000
0100
0000
,
0201
0000
0310
1000
1200
0000
0320
0000
,
0031
0010
0100
1000
0002
0000
0103
0010
,
0100
0010
2000
0000
3002
0000
1003
0200
,
0000
0010
0000
0310
0001
1000
0010
0000
,
1002
0000
0103
0010
0100
0001
1000
0000
,
2001
0000
0000
0000
3100
0000
0010
0000
0100
0000
1000
0000
0002
0000
0000
0003
,
0100
0010
0100
0000
0000
0001
0100
0000
0100
0000
0010
0000
1000
0000
0000
0000
,
1000
0100
0100
0010
0001
1000
0010
0100
,
0201
0000
0310
1000
1200
0000
0310
0001
,
1000
0010
1000
0010
0200
0000
0301
1000
,
0100
0010
0002
0000
2003
0000
3010
0100
,
0001
0001
0001
0001
1000
0010
0001
0000
,
1010
0010
0100
0100
0001
0001
1000
1000
,
0100
0100
0010
0010
0001
0010
0100
1000
,
0002
0000
0103
0010
2000
0000
3100
0010
,
0002
0000
0103
0010
1000
0001
1000
0000
,
0101
0100
0010
0010
1000
1000
0001
0001
,
0010
0010
0100
0100
1000
0100
0010
0001
,
2000
0000
3010
0100
0002
0000
0013
0100
,
2000
0000
3010
0100
0001
1000
0001
0000
,
2200
3300
2002
3003
,
0202
0303
2002
3003
,
2020
3030
2002
3003
,
0011
0110
1100
1001
,
0201
0000
0000
0010
0310
0000
0110
0000
,
2010
0000
0000
0100
3100
0000
1100
0000
,
1000
0001
1000
0001
1000
0001
1000
0001
,
1000
0100
0001
0010
1000
0100
0001
0010
,
0012
0000
0000
0000
1003
0000
0010
0000
0200
0000
0000
0000
0301
0000
1000
0001
,
1000
0100
0010
0001
0100
0010
0100
0001
,
1000
0000
1100
0000
0102
0000
1003
0020
,
0000
0030
0000
0000
;

//---------------dance-double - ----------------
#NOTES:
     dance-double:
     :
     Challenge:
     7:
     0.515543,0.505268,0.127871,0.689082,0.028416,393.000000,18.000000,97.000000,0.000000,0.000000,0.000000,0.515543,0.505268,0.127871,0.689082,0.028416,393.000000,18.000000,97.000000,0.000000,0.000000,0.000000:
// measure 0
00000000
00000000
00000000
00000000
,  // measure 1
00000000
00000000
00000000
00000000
,  // measure 2
00000000
00000000
00000000
00000000
,  // measure 3
00000000
00000000
00000000
00000000
00000000
00010000
00001000
00010000
,  // measure 4
00000200
00000000
00000320
00000000
00000032
00000000
00000103
00000010
,  // measure 5
00001000
00000200
00000000
00020300
00000000
00030100
00001000
00000002
,  // measure 6
00000000
00000103
00000020
00000000
00002030
00000000
00003100
00020000
,  // measure 7
00000000
00001000
00001000
00031000
00000000
00010000
00001000
00100000
,  // measure 8
00020000
00000000
01030000
00100000
10000000
00100000
20000000
00000000
,  // measure 9
31000000
10000000
00010000
00200000
00000000
00310000
10000000
00200000
,  // measure 10
00000000
01300000
00020000
00000000
00230000
00000000
00301000
00020000
,  // measure 11
00000000
00030200
00000000
00010300
00001000
00010000
00000100
00000000
,  // measure 12
00001002
00000000
00000103
00000010
00000000
00000010
00001000
00000000
,  // measure 13
00001200
00000000
00010300
00001000
00000000
00001000
00010000
00000000
,  // measure 14
00000100
00000010
00000000
00000001
00000010
00000100
00001000
00000000
,  // measure 15
00000000
00000100
00010000
00000100
00010000
00001000
00100000
00010000
,  // measure 16
02000000
00000000
03100000
10000000
00020000
00000000
10030000
01000000
,  // measure 17
00100000
00010000
01000000
02000000
00000000
00000000
03100000
10000000
,  // measure 18
00020000
01030000
20000000
31000000
,  // measure 19
00010000
10000000
00010000
10000000
01000000
00100000
00010000
00000000
,  // measure 20
00101000
00100000
00010000
00000000
10000000
00100000
01000000
00010000
,  // measure 21
10000000
10000000
01000000
00000000
10000000
00010000
01000000
00000000
,  // measure 22
00010000
00100000
00001000
00010000
00000100
00000100
00000100
00000000
,  // measure 23
00001000
00000001
00000100
00000000
00000010
00000100
00000001
00000000
,  // measure 24
00000100
00000000
00000100
00000000
00000010
00000000
00000000
00000010
00000000
00000000
00001000
00000000
00000100
00000000
00000010
00000000
,  // measure 25
00000001
00000000
00000001
00000000
00001000
00000000
00000000
00001000
00000000
00000000
00000100
00000000
00010000
00000000
00000000
00000000
,  // measure 26
00001000
00001000
00010000
00010000
00001000
00100000
00010000
00000000
,  // measure 27
10000000
00100000
01000000
00010000
00100000
00100000
01000000
10000000
,  // measure 28
00020000
00000000
00130000
00001000
00020000
00000000
00030100
00000000
,  // measure 29
00001000
00000100
00000010
00000001
00000100
00000000
00001002
00000000
,  // measure 30
00000103
00000000
00000010
00000000
00001000
00000000
00000100
00010000
00000200
00000000
00000000
00000000
00002300
00000000
00000000
00000000
,  // measure 31
00003001
00000000
00000100
00000000
00000010
00000000
00001000
00000000
00000002
00000000
00000000
00000000
00000103
00000010
00000100
00000000
,  // measure 32
00000002
00000100
00002003
00003200
,  // measure 33
00010300
00001000
00010000
00001000
00200000
00000000
00310000
00000000
,  // measure 34
00100000
00001000
00010000
00000000
00001000
00100000
00010000
00000000
,  // measure 35
00110000
00000000
10010000
00000000
10000000
01000000
00010000
00000000
,  // measure 36
11000000
01000000
00200000
00000000
00320000
00000000
01030000
00010000
,  // measure 37
00100000
00002000
00000000
00023000
00000000
00031000
00100000
00020000
,  // measure 38
00000000
10030000
00200000
00000000
02300000
00000000
03010000
00100000
,  // measure 39
01000000
10000000
00010000
10000000
01000000
00100000
00010000
01000000
,  // measure 40
00002000
00000000
00013000
00001000
00000100
00000001
00002000
00000000
,  // measure 41
00000100
00000100
00000100
00003100
00000000
00001000
00000001
00000200
,  // measure 42
00000000
00000310
00002000
00000000
00003200
00000000
00000310
00000002
,  // measure 43
00000000
00002003
00000000
00003100
00010000
00001000
00100000
00010000
,  // measure 44
02000000
00000000
03100000
01000000
10000000
01000000
00010000
10000000
,  // measure 45
02000000
00000000
03010000
01000000
10000000
00100000
02000000
00000000
,  // measure 46
03010000
00000000
10000000
00000000
00100000
00000000
01000000
00010000
01000000
00000000
00100000
00000000
10000000
00000000
00000000
00000000
,  // measure 47
00010000
00100000
00001000
00010000
00000100
00001000
00000010
00000100
,  // measure 48
00000210
00000000
00000310
00001000
00001200
00000000
00000310
00000001
,  // measure 49
00001000
00000100
00001000
00000010
00000200
00000000
00000301
00001000
,  // measure 50
00000200
00010300
00002000
00103000
,  // measure 51
00001000
00000000
00010000
00000000
00100000
00000000
10000000
00000000
01000000
00100000
00000000
00100000
00010000
00000000
10000000
00000000
,  // measure 52
00200000
02300000
03020000
00230000
,  // measure 53
00302000
00000000
00023000
00000000
00030100
00000010
00000001
00000200
,  // measure 54
00000000
00000310
00001000
00000200
00000000
00001300
00000100
00000020
,  // measure 55
00000000
00000031
00000100
00000010
00001000
00000100
00020000
00000000
,  // measure 56
00032000
00203000
00320000
20030000
,  // measure 57
30100000
00100000
01000000
01000000
00010000
01000000
00100000
10000000
,  // measure 58
02000000
00000000
03010000
00002000
00000000
00000000
00003100
00000002
,  // measure 59
00000000
00000000
00001003
00000100
00000010
00000000
00000011
00000000
,  // measure 60
00002200
00003300
00020002
00030003
,  // measure 61
00002200
00003300
00020002
00030003
,  // measure 62
00002200
00003300
00020002
00030003
,  // measure 63
00020000
00032000
00203000
00320000
,  // measure 64
20030000
30000000
00100000
00100000
,  // measure 65
00020000
00030000
00100000
00100000
,  // measure 66
00010000
10000000
00010000
10000000
00010000
10000000
00010000
10000000
,  // measure 67
00010000
10000000
00001000
00010000
00000001
00001000
00001001
00000000
,  // measure 68
00001100
00000000
00000100
00000000
00000020
00000000
00000000
00000000
00000032
00000000
00000000
00000000
00001003
00000000
00000010
00000100
,  // measure 69
00000010
00000100
00000001
00001000
00000200
00000000
00001300
00000100
,  // measure 70
00010000
00001000
00200000
00000000
00320000
00000000
01030000
00200000
,  // measure 71
00000000
00300000
00000000
00000000
00000000
00000000
00000000
00000000
;

//---------------dance-single - ----------------
#NOTES:
     dance-single:
     :
     Medium:
     5:
     0.381583,0.457938,0.227326,0.433340,0.000000,283.000000,32.000000,61.000000,0.000000,0.000000,0.000000,0.381583,0.457938,0.227326,0.433340,0.000000,283.000000,32.000000,61.000000,0.000000,0.000000,0.000000:
0000
0000
0000
0000
,
0000
0000
0000
0000
,
0000
0000
0000
0000
,
0000
0000
0000
0000
0000
0010
0010
0000
,
0200
0302
2003
3100
,
1000
0000
0001
0200
0000
0000
0310
0000
,
0000
0101
1100
0002
,
0003
0000
1000
2000
0000
0000
3000
0000
,
0001
0000
1000
0000
0010
0100
0010
0000
,
2000
0000
3001
0200
0000
0000
0310
0000
,
0000
0000
0101
0000
1100
0000
0010
0010
,
0000
1100
0101
0010
,
0002
0000
0000
0103
0000
0100
0000
0000
,
0020
0000
0000
1030
0000
1000
0000
0000
,
0001
1000
0000
1000
0100
0010
0001
0000
,
0000
1000
0100
1000
0100
0000
0000
0000
,
2000
3100
0020
0031
,
1000
0001
1000
0002
0000
0003
0000
0000
,
0202
0303
2020
3030
,
0001
1000
0001
1000
0010
0000
1001
0000
,
1100
0000
0001
0000
0100
0001
0010
0000
,
0011
0000
1000
0000
0010
1000
0001
0000
,
1000
0100
1000
0000
0001
0100
0020
0000
,
0030
0000
0100
0000
0001
1000
0010
0000
,
1000
2000
0000
3000
0100
0000
0010
0000
,
0001
0002
0000
0003
0100
0000
0010
0000
,
1000
0001
1000
0000
0001
1000
0001
0000
,
0100
0000
0001
0000
1000
0100
0010
0002
,
0000
0000
0000
2003
0000
0000
3010
0000
,
1001
0000
0100
0001
1000
0000
0000
0000
,
0010
0000
0010
0000
1000
0100
0010
0000
,
0001
0000
0001
0000
0010
0001
0100
0020
,
0000
0000
0000
2030
0000
0000
3001
0000
,
1000
0100
1000
0001
0100
0000
0000
0000
,
1001
0000
1000
0000
0010
0100
0001
0000
,
1000
0000
0000
0000
0001
1000
0010
0000
,
1001
1001
0100
0100
,
1001
1001
0010
0010
,
0000
1000
0200
0000
0320
0000
0032
0000
,
0000
0103
0010
0200
0000
0000
0301
0000
,
0101
0000
1010
0000
0001
1000
0010
0000
,
1100
0000
0011
0000
1000
0001
0010
0000
,
0001
1000
0001
0000
1000
0001
1000
0000
,
0010
0010
0100
0000
,
0001
0100
0010
1000
0000
0001
0000
0000
,
1000
0010
0100
0001
0000
1000
0000
0000
,
0001
0000
1000
0000
0010
0010
0010
0000
,
1000
0000
0100
0100
0100
0000
0010
0000
,
0011
1100
0101
1010
,
0001
1000
0001
2000
0000
0000
3100
0000
,
2200
3300
0202
0303
,
1000
0001
1000
0001
0010
0000
1001
0000
,
0020
0030
0020
0030
,
0002
0003
0002
0003
,
1000
1000
0100
0100
,
0010
0000
0001
0000
0100
0010
1000
0000
,
0200
0300
0200
0300
,
2000
3000
2000
3000
,
0010
0010
1000
1000
,
0001
0000
0010
0000
0001
1000
0010
0000
,
2002
3003
0200
0300
,
2002
3003
0200
0300
,
2002
3003
0200
0300
,
0002
0023
0230
2300
,
3020
0000
0000
0100
0100
0000
0130
0000
,
0200
0000
0000
0010
0010
0000
0310
0000
,
0100
0010
0100
0010
1000
0001
1000
0001
,
0010
0100
0010
0100
1000
0001
1000
0000
,
1100
0001
0200
0300
,
0010
0100
0010
0100
0002
0000
0003
0000
,
0100
0010
2000
0000
3200
0000
0310
0000
,
0001
0000
0100
0020
0000
0030
0000
0000
;

//---------------dance-single - ----------------
#NOTES:
     dance-single:
     :
     Easy:
     3:
     0.185717,0.226971,0.042624,0.120767,0.000000,160.000000,6.000000,17.000000,0.000000,0.000000,0.000000,0.185717,0.226971,0.042624,0.120767,0.000000,160.000000,6.000000,17.000000,0.000000,0.000000,0.000000:
0000
0000
0000
0000
,
0000
0000
0000
0000
,
0000
0000
0000
0000
,
0000
0000
0000
0000
,
1000
0100
1000
1000
,
0001
0100
0010
0000
,
0100
0000
0001
0000
,
1000
0000
0000
0000
,
0001
0100
0001
0001
,
0100
0010
1000
1000
,
0001
0000
1000
0000
,
0010
0000
0010
0000
,
2000
0000
3000
0000
,
0002
0000
0003
0000
,
0200
0300
0200
0300
,
0001
1000
0001
0000
,
0020
0000
0030
0000
,
0002
0000
0003
0000
,
2000
3000
0002
0003
,
0200
0000
0300
0000
,
1001
0000
1000
0001
,
0100
0000
0000
0000
,
0010
0010
1000
0001
,
0010
0000
0001
0000
,
1000
1000
0000
0000
,
0001
0001
0000
0000
,
1000
0100
0010
0010
,
0001
0000
1000
0000
,
0020
0030
0010
0000
,
1000
0001
1000
0000
,
0001
0000
0200
0300
,
0000
0010
0020
0030
,
1000
0000
0001
0000
,
1000
1000
1000
0000
,
0100
0000
0010
0000
,
0001
0000
0000
0000
,
1000
0100
1000
1000
,
0001
0100
0001
0000
,
1000
0000
0001
0000
,
0100
0000
0000
0000
,
0001
0100
0001
0001
,
1000
0100
1000
0000
,
0001
0000
0010
0010
,
0001
0000
1000
0000
,
0020
0030
1000
0000
,
0002
0003
0100
0000
,
0001
0000
1000
1000
,
0000
0001
0001
0000
,
1000
0100
0100
0000
,
0010
0001
0100
0000
,
0020
0030
2000
3000
,
0002
0003
0000
0000
,
1000
1000
0000
0000
,
0001
0001
0000
0000
,
0100
0000
0100
0000
,
0010
0000
0010
1000
,
0001
0001
0000
0000
,
1000
1000
0000
0000
,
0001
0000
1000
0000
,
0010
0000
0010
0000
,
1001
0000
0100
0000
,
1001
0000
0100
0000
,
1001
0000
0100
0000
,
0001
0010
0100
1000
,
1001
0000
0010
0000
,
1001
0000
0010
0000
,
0001
0001
1000
1000
,
0001
0010
0100
1000
,
0010
0000
1000
0000
,
0001
0001
0001
0000
,
0100
0001
1000
1000
,
0100
0000
0000
0000
;

//---------------dance-single - ----------------
#NOTES:
     dance-single:
     :
     Beginner:
     1:
     0.108589,0.151314,0.056832,0.000000,0.000000,99.000000,8.000000,0.000000,0.000000,0.000000,0.000000,0.108589,0.151314,0.056832,0.000000,0.000000,99.000000,8.000000,0.000000,0.000000,0.000000,0.000000:
0000
0000
0000
0000
,
0000
0000
0000
0000
,
0000
0000
0000
0000
,
0000
0000
0000
0000
,
0010
0000
0000
0000
,
0100
0000
0000
0000
,
0001
0001
0000
0000
,
0001
0001
0000
0000
,
0100
0000
0000
0000
,
0001
0000
0000
0000
,
1000
1000
0000
0000
,
1000
1000
0000
0000
,
0010
0000
0000
0000
,
1000
0000
0000
0000
,
0001
0000
0000
0000
,
0100
0000
0000
0000
,
0001
0000
0000
0000
,
1000
0000
0000
0000
,
0010
0000
0010
0000
,
0010
0000
0000
0000
,
1001
0000
0000
1000
,
1000
0000
0000
0000
,
0001
0001
0001
0000
,
0100
0000
0000
0000
,
0100
0100
0000
0000
,
0010
0010
0000
0000
,
1000
1000
1000
0000
,
0001
0000
0000
0000
,
1000
0000
0000
0000
,
0010
0010
0000
0000
,
1000
0000
0000
0000
,
0001
0000
0000
0000
,
0001
0000
0000
0000
,
0100
0100
0000
0000
,
0001
0000
0000
0000
,
1000
0000
0000
0000
,
1001
0000
0000
0000
,
0010
0010
0010
0000
,
0010
0000
0000
0000
,
1000
0000
1000
0000
,
0001
0000
0000
0000
,
0001
0000
0000
0000
,
0100
0100
0100
0000
,
0100
0000
0000
0000
,
0001
0001
0000
0000
,
0001
0000
0000
0000
,
1000
1000
0000
0000
,
1000
0000
0000
0000
,
0010
0000
0000
0000
,
0010
0000
0000
0000
,
0100
0000
0100
0000
,
0100
0000
0000
0000
,
0001
0000
0001
0000
,
0001
0000
0001
0000
,
0001
0000
0000
0000
,
0001
0000
0000
0000
,
1000
0000
1000
0000
,
1000
0000
1000
0000
,
1000
0000
0000
0000
,
1000
0000
0000
0000
,
1001
0000
0000
0000
,
1001
0000
0000
0000
,
1001
0000
0000
0000
,
1000
1000
0000
0000
,
1001
0000
0000
0000
,
1001
0000
0000
0000
,
0001
0001
0000
0000
,
1000
1000
0000
0000
,
1001
0000
0000
0000
,
0010
0010
0010
0000
,
0010
0000
0000
0000
,
0100
0000
0000
0000
;
